osu file format v9

[General]
AudioFilename: DECO27-egomama.mp3
AudioLeadIn: 1000
PreviewTime: 198783
Countdown: 0
SampleSet: Soft
StackLeniency: 0.5
Mode: 0
LetterboxInBreaks: 1

[Editor]
DistanceSpacing: 1
BeatDivisor: 4
GridSize: 8

[Metadata]
Title:Egomama
Artist:DECO*27 feat. marina
Creator:-saku-
Version:Insane
Source:
Tags:akka mirto renkyorienai KSHR

[Difficulty]
HPDrainRate:7
CircleSize:4
OverallDifficulty:8
ApproachRate:8
SliderMultiplier:2
SliderTickRate:1

[Events]
//Background and Video events
Video,0,"Egomama.avi"
0,0,"1622534i.jpg"
//Break Periods
2,25965,37789
2,98739,110563
2,162223,173660
//Storyboard Layer 0 (Background)
//Storyboard Layer 1 (Fail)
//Storyboard Layer 2 (Pass)
//Storyboard Layer 3 (Foreground)
//Storyboard Sound Samples
//Background Colour Transformations
3,100,0,0,0

[TimingPoints]
991,387.096774193548,4,2,1,60,1,0
991,-200,4,2,1,60,0,0
11055,-100,4,2,1,5,0,0
12990,-100,4,1,1,100,0,0
13281,-100,4,1,1,60,0,0
13378,-100,4,1,1,60,0,1
13426,-100,4,1,1,60,0,0
38442,-100,4,2,1,60,0,0
50877,-100,4,1,2,60,0,0
63603,-100,4,1,1,30,0,0
64474,-100,4,1,2,60,0,1
76813,-100,4,1,2,60,0,0
76861,-100,4,1,2,60,0,1
89200,-100,4,1,2,60,0,0
89249,-100,4,1,2,60,0,1
98539,-100,4,1,1,60,0,0
111216,-100,4,2,1,60,0,0
136039,-100,4,1,2,60,0,0
155442,-100,4,1,1,80,0,0
155732,-100,4,1,1,60,0,0
174410,-200,4,2,1,45,0,0
174507,-200,4,2,1,60,0,0
186216,-100,4,2,1,60,0,0
195603,-100,4,2,1,20,0,0
195990,-100,4,2,1,30,0,0
196377,-100,4,2,1,40,0,0
196765,-100,4,2,1,50,0,0
197152,-100,4,2,1,60,0,0
197345,-100,4,2,1,5,0,0
198700,-100,4,1,1,30,0,0
199184,-100,4,1,2,60,0,1
211523,-100,4,1,2,60,0,0
211571,-100,4,1,2,60,0,1
223910,-100,4,1,2,60,0,0
223958,-100,4,1,2,60,0,1
224248,-100,4,2,0,60,0,1
232958,-100,4,2,2,50,0,1
233249,-100,4,2,1,45,0,0
233297,-100,4,2,1,5,0,0
239442,-100,4,2,1,70,0,1
239490,-100,4,2,1,70,0,0

[Colours]
Combo1 : 223,213,17
Combo2 : 231,231,231
Combo3 : 0,206,206
Combo4 : 223,4,4

[HitObjects]
408,128,991,2,0,B|400:208|352:224,1,100,2|0
312,168,1571,1,0
288,240,1765,2,0,B|304:288|368:304,1,100,2|0
208,304,2539,2,0,B|56:304,1,150,2|0
58,304,3313,1,2
168,16,4087,6,0,B|184:48|192:112,1,100,2|0
232,176,4668,1,0
192,240,4861,2,0,B|208:304|192:344,1,100,2|0
272,344,5442,2,0,B|320:344,2,50,0|2|0
128,288,6216,1,0
128,288,6410,1,2
496,288,7184,6,0,B|488:232|448:200,1,100,2|0
376,200,7765,1,0
256,288,7958,2,0,B|264:232|304:200,1,100,2|0
376,72,8732,2,0,B|208:72,1,150,2|0
226,72,9507,1,2
104,256,10087,6,0,B|176:256,1,50
424,128,10861,2,0,B|328:128,1,75
256,192,11249,12,0,12991
128,80,13378,5,4
216,120,13571,1,0
144,192,13765,2,0,B|192:232|240:224,1,100,8|0
392,184,14152,2,0,B|352:144|272:152,1,100
236,225,14539,1,8
152,288,14732,1,0
240,328,14926,1,0
320,272,15119,2,0,B|424:272,2,100,0|8|0
236,226,15700,2,0,B|116:226,2,100,0|0|8
320,168,16281,5,0
352,144,16377,1,0
376,112,16474,2,0,B|344:64|280:24|200:24,1,200,0|8
104,48,17055,2,0,B|64:104|88:184,1,100
152,216,17442,2,0,B|184:168|168:112,1,100,0|8
75,62,17829,2,0,B|58:128|109:194,1,100
180,201,18216,2,0,B|193:145|158:98,1,100,0|8
51,89,18603,2,0,B|62:157|136:197,1,100
204,174,18990,2,0,B|193:117|142:89,1,100,0|8
280,368,19571,5,0
360,304,19765,1,0
272,256,19958,2,0,B|304:144,2,100,8|0|0
368,216,20539,2,0,B|400:112,1,100,0|8
312,64,20926,2,0,B|256:64|216:120,2,100
408,32,21507,1,8
472,112,21700,2,0,B|504:176|504:232|480:312,1,200
457,338,22184,1,0
422,357,22281,1,0
312,344,22474,5,0
208,344,22668,1,0
176,248,22861,1,0
256,192,23055,2,0,B|216:144|144:152,1,100,8|0
72,168,23442,1,0
72,168,23636,1,0
112,80,23829,2,0,B|160:40|224:48,1,100,12|0
400,72,24216,6,0,B|472:72,2,50
320,136,24603,1,12
204,46,24797,1,0
248,208,24990,5,0
368,296,25184,1,0
216,296,25377,1,8
184,312,25474,1,0
152,296,25571,1,0
120,312,25668,1,0
88,296,25765,1,4
192,352,38539,5,8
256,272,38732,1,0
160,264,38926,2,0,B|112:280|48:264,1,100,2|0
208,128,39507,1,0
144,48,39700,6,0,B|216:8|288:48|328:104,1,200,0|8
344,128,40184,1,2
368,160,40281,1,2
320,248,40474,2,2,B|256:248,2,50,2|0|0
344,344,40861,1,10
440,312,41055,1,2
480,216,41248,1,0
392,32,41636,5,10
424,128,41829,1,0
368,216,42023,1,2
280,168,42216,2,2,B|256:224|280:272,1,100,2|8
312,360,42603,2,2,B|216:360|120:312,1,200,6|0
119,311,43184,5,8
248,232,43377,1,0
80,128,43765,5,0
216,64,43958,1,10
216,64,44055,1,2
216,64,44152,1,4
216,64,44249,1,0
216,64,44345,1,0
104,240,44732,5,8
136,336,44926,2,0,B|88:368|32:376,2,100,2|0|0
208,272,45507,1,8
280,336,45700,2,0,B|336:368|408:376|488:360,1,200,6|0
456,264,46281,5,10
456,264,46377,1,2
424,120,46668,2,0,B|376:72|328:56,1,100,2|2
248,88,47055,2,0,B|192:48|168:8,2,100
200,280,47829,5,10
203,284,48216,1,2
203,284,48410,1,0
288,232,48603,1,10
288,232,48797,2,0,B|248:192|192:184,1,100,6|0
120,328,49184,2,0,B|152:376|208:376,1,100,2|8
296,336,49571,2,0,B|360:264|448:368|496:280,1,200,2|2
408,232,50152,5,14
320,184,50345,1,2
344,280,50539,1,6
472,184,50732,21,0
460,145,50829,1,0
429,119,50926,2,0,B|325:71|216:128,1,200,4|8
208,216,51507,1,0
128,272,51700,2,0,B|176:320|224:320,1,100,8|0
336,240,52087,6,0,B|400:248|440:272,1,100,8|0
256,112,52474,2,0,B|192:96|152:48,1,100,8|0
72,88,52861,1,8
32,184,53055,1,0
96,256,53248,1,8
131,256,53345,1,0
164,244,53442,1,0
194,225,53539,1,0
229,225,53636,1,8
376,352,54023,6,0,B|296:328|224:384|168:344,1,200,4|8
88,304,54603,1,0
32,224,54797,2,0,B|72:200|144:208,1,100,8|0
392,248,55184,6,0,B|353:280|296:272,1,100,8|0
47,153,55571,2,0,B|94:148|156:186,1,100,8|0
376,319,55958,2,0,B|327:331|279:300,1,100,8|0
219,268,56345,1,8
219,268,56442,1,0
219,268,56539,1,0
219,268,56636,1,0
219,268,56732,1,8
256,56,57119,6,0,B|305:54|345:94,2,100,4|0|8
272,152,57700,1,0
368,192,57894,2,0,B|424:216|448:264,1,100,8|0
352,288,58281,5,8
352,288,58474,1,0
256,328,58668,1,8
256,328,58861,1,0
160,320,59055,1,8
160,320,59248,1,0
112,232,59442,5,8
112,80,59636,1,0
112,232,59829,1,8
376,88,60216,6,0,B|424:176|456:272,1,200,4|8
312,320,60797,1,0
456,288,60990,1,8
304,304,61184,1,0
456,304,61377,6,0,B|360:272|248:208,1,200,8|8
320,128,61958,1,8
264,48,62152,1,0
264,48,62248,1,8
264,48,62345,1,8
184,104,62539,2,0,B|128:144|80:144,1,100,8|0
93,143,62829,1,8
93,143,62926,1,4
96,296,63119,2,0,B|208:296,1,100,8|8
196,296,63410,1,8
196,296,63507,1,8
296,296,63700,5,0
304,288,63797,1,0
312,280,63894,1,0
320,272,63990,1,0
328,264,64087,1,0
336,256,64184,1,0
344,248,64281,1,0
352,240,64377,1,0
360,232,64474,6,4,B|344:176|280:128,1,100
208,184,64861,1,8
176,184,64958,1,0
144,176,65055,1,0
112,80,65248,2,0,B|168:40|240:32|320:56,1,200,0|8
400,304,65829,1,0
400,304,65926,1,0
400,304,66023,2,0,B|344:344|272:352|192:328,1,200,0|8
152,248,66603,2,0,B|96:248|48:280,2,100
224,184,67184,5,8
256,184,67281,1,0
288,184,67377,1,0
320,184,67474,1,0
352,184,67571,1,0
448,208,67765,6,0,B|432:264|384:280,1,100,0|8
288,280,68152,1,0
208,336,68345,2,0,B|144:360|88:336,1,100
64,256,68732,1,8
64,256,68829,1,0
64,256,68926,1,0
128,176,69120,5,0
216,120,69313,2,0,B|272:144|296:192,1,100,0|8
208,240,69700,1,0
200,352,69894,2,0,B|144:336|120:288,1,100
55,223,70281,1,8
55,223,70378,1,0
55,223,70474,1,0
55,223,70571,1,0
55,223,70668,6,0,B|107:252|122:293,1,100
200,352,71055,1,8
272,280,71249,1,0
360,328,71442,2,0,B|392:272|344:208,1,100
408,144,71829,2,0,B|360:112|296:144,1,100,8|0
128,160,72216,6,0,B|176:192|240:160,1,100
280,240,72603,1,8
328,328,72797,1,0
424,328,72990,1,0
424,328,73184,1,0
472,240,73378,1,8
472,240,73474,1,0
472,240,73571,1,0
464,144,73765,6,0,B|256:144,1,200,0|8
48,240,74345,1,0
48,240,74442,1,0
48,240,74539,2,0,B|256:240,1,200,0|8
400,56,75119,5,0
400,56,75216,1,0
400,56,75313,2,0,B|176:56,1,200,0|8
112,328,75894,1,0
112,328,75990,1,0
112,328,76087,2,0,B|336:328,1,200,0|8
368,248,76668,5,0
400,248,76765,1,0
432,240,76861,1,4
376,152,77055,2,0,B|320:168|288:200,1,100,0|8
160,328,77442,2,0,B|224:320|264:280,1,100
289,199,77829,1,0
240,112,78023,1,8
144,112,78216,1,0
144,112,78313,1,0
144,112,78410,1,0
104,256,78603,6,0,B|64:288|8:280,2,100,0|8|0
192,208,79184,2,0,B|248:184|264:136,2,100,0|0|8
256,288,79765,5,0
256,288,79861,1,0
256,288,79958,1,0
312,208,80152,1,0
376,288,80345,2,0,B|456:272|488:232,1,100,8|0
400,176,80732,2,0,B|376:128|320:104,1,100
224,96,81119,1,8
192,96,81216,1,0
160,96,81313,1,0
224,232,81507,6,0,B|296:248|344:224,1,100
352,88,81894,2,0,B|416:72|488:96,1,100,8|0
128,336,82281,2,0,B|72:352|16:336,1,100
48,192,82668,1,8
40,184,82765,1,0
32,176,82861,1,0
24,168,82958,1,0
16,160,83055,6,0,B|72:120|128:80,1,100
184,56,83442,1,8
240,144,83636,1,0
160,200,83829,2,0,B|224:296,1,100
312,280,84216,1,8
344,280,84313,1,0
376,280,84410,1,0
440,200,84603,6,0,B|400:112|296:48,1,200,0|8
72,184,85184,1,0
72,184,85281,1,0
72,184,85378,2,0,B|112:272|216:336,1,200,0|8
264,248,85958,5,0
264,248,86055,1,0
264,248,86152,1,0
328,112,86345,1,0
192,176,86539,1,8
344,200,86732,1,0
240,96,86926,6,0,B|184:80|120:112,1,100
48,224,87313,2,0,B|112:232|152:200,1,100,8|0
112,24,87700,2,0,B|56:24|8:56,2,100,0|0|12
208,136,88281,2,0,B|168:168|112:168,2,100
288,72,88861,5,12
296,80,88958,1,0
304,88,89055,1,0
312,96,89152,1,0
320,104,89248,5,4
400,288,89636,1,8
208,344,90023,1,0
128,160,90410,1,8
320,104,90797,1,0
152,352,91184,5,8
208,56,91571,1,0
440,248,91958,1,8
152,352,92345,1,0
72,160,92732,6,0,B|136:128|216:112|288:128,1,200,12|0
440,224,93507,2,0,B|376:256|296:272|224:256,1,200,12|0
304,72,94668,5,0
232,144,94861,2,0,B|272:192|336:176,1,100,0|8
400,240,95248,1,0
328,304,95442,1,4
224,304,95636,1,0
128,272,95829,2,0,B|80:232|80:168,1,100,8|0
136,104,96216,2,0,B|344:104,2,200,0|8|0
192,184,97184,5,0
128,264,97378,1,12
208,328,97571,1,0
304,336,97765,2,0,B|504:336,1,200,0|8
502,236,98345,5,0
502,236,98539,1,0
128,280,111313,5,8
144,184,111507,1,0
128,88,111700,1,0
208,24,111894,2,0,B|272:40|304:88,1,100,2|8
256,168,112281,2,0,B|328:216|416:200|448:176,1,200,2|0
400,88,112861,2,0,B|448:72|504:80,2,100,10|0|2
360,184,113442,5,2
328,280,113636,2,0,B|272:304|216:296,2,100,8|0|2
392,352,114216,1,0
392,352,114410,1,8
472,296,114603,1,0
392,352,114797,1,2
296,360,114990,5,10
200,184,115378,1,8
360,64,115765,1,8
360,64,116152,5,2
160,96,116539,2,0,B|120:128|64:120,2,100,2|8|2
256,120,117119,1,0
424,322,117507,6,0,B|384:352|328:344,1,100,10|2
248,280,117894,1,2
344,248,118087,2,0,B|320:200|256:176,1,100,2|8
248,280,118474,1,2
344,248,118668,1,0
416,176,118861,1,0
424,72,119055,1,10
424,72,119248,1,0
128,32,119829,5,8
128,32,119926,1,0
128,32,120023,1,2
224,144,120216,1,0
224,144,120313,1,0
224,144,120410,1,2
72,136,120603,2,0,B|80:200|136:232,1,100,8|2
48,288,120990,2,0,B|152:312|256:272,1,200,0|8
320,216,121571,1,2
320,216,121765,5,10
416,208,122152,1,8
472,288,122539,1,8
392,352,122926,1,10
360,352,123023,1,0
328,352,123119,1,2
296,352,123216,1,0
264,352,123313,1,6
352,176,123700,6,0,B|232:144,1,100,10|0
272,248,124087,2,0,B|152:216,1,100,2|2
96,280,124474,1,10
8,240,124668,2,0,B|88:144,1,100,2|0
144,96,125055,1,2
144,96,125442,2,0,B|224:32|344:40,1,200,2|0
392,120,126023,1,2
400,320,126410,5,0
304,248,126603,1,2
192,296,126797,2,0,B|232:328|296:336,1,100,8|0
440,152,127378,2,0,B|392:112|296:88|224:96,1,200,2|2
184,168,127958,5,0
184,168,128055,1,0
184,168,128152,1,2
104,112,128345,2,2,B|64:168|112:224,2,100,10|2|0
184,48,128926,1,0
256,112,129120,2,0,B|320:136,1,50
344,96,129313,2,0,B|408:80,1,50
432,112,129507,1,0
456,280,129894,5,8
352,296,130087,2,0,B|368:360|424:376,2,100,0|2|2
312,200,130668,1,10
392,144,130861,2,0,B|352:80|288:40|216:24,1,200,2|0
168,104,131442,5,10
168,104,131539,1,2
96,240,131829,2,0,B|120:296|184:320,1,100,2|2
256,272,132216,2,0,B|304:312|328:360,2,100,8|0|0
320,80,132990,5,10
323,84,133378,1,2
323,84,133571,1,0
400,144,133765,1,10
400,144,133958,2,0,B|344:192|280:168,1,100,2|0
360,256,134345,2,0,B|296:280|232:240,1,100,2|10
176,200,134732,1,2
112,128,134926,6,0,B|80:128,2,25
112,176,135119,1,2
120,272,135313,1,14
40,328,135507,1,2
40,328,135700,1,4
40,232,135894,5,0
48,200,135990,1,0
64,168,136087,2,0,B|128:88|248:80,1,200,4|8
288,168,136668,1,0
368,256,136861,6,0,B|332:292|282:267|257:300,1,100,8|0
184,192,137249,2,0,B|170:143|216:111|201:74,1,100,8|0
336,72,137636,2,0,B|383:88|382:144|422:153,1,100,8|0
448,232,138023,1,8
384,312,138216,1,0
296,256,138410,1,8
260,256,138507,1,0
233,279,138603,1,0
201,294,138700,1,0
166,290,138797,1,8
136,32,139184,6,0,B|200:72|264:8|344:40,1,200,4|8
424,80,139765,1,0
480,160,139958,2,0,B|440:184|368:176,1,100,8|0
112,144,140345,2,0,B|151:112|208:120,1,100,8|0
465,231,140732,2,0,B|418:236|356:198,1,100,8|0
128,73,141119,2,0,B|177:61|225:92,1,100,8|0
302,173,141507,1,8
302,173,141603,1,0
302,173,141700,1,0
302,173,141797,1,0
302,173,141894,1,8
168,320,142281,6,0,B|128:352|56:344,2,100,4|0|8
256,272,142861,1,0
344,320,143055,2,0,B|384:352|456:344,1,100
472,248,143442,1,8
472,248,143636,1,0
448,152,143829,1,8
448,152,144023,1,0
376,80,144216,1,8
376,80,144410,1,0
304,152,144603,5,8
152,152,144797,1,0
304,152,144990,1,8
136,296,145378,6,0,B|88:208|56:112,1,200,4|8
200,64,145958,1,0
56,96,146152,1,8
208,80,146345,1,0
56,80,146539,6,0,B|152:112|264:176,1,200,8|8
264,320,147119,1,0
264,320,147216,1,0
264,320,147313,1,8
352,280,147507,2,0,B|416:280|464:248,1,100,0|8
400,168,147894,5,0
352,80,148087,1,0
302,85,148184,1,0
168,152,148474,1,0
210,178,148571,1,0
258,188,148668,1,0
368,288,148861,1,0
329,320,148958,1,0
282,338,149055,1,0
232,343,149152,1,0
184,328,149248,1,0
256,64,149636,5,4
256,192,149732,12,4,155442
384,304,155829,5,0
296,264,156023,1,0
368,192,156216,2,0,B|328:160|272:160,1,100,8|0
112,192,156603,2,0,B|152:224|224:224,1,100
276,159,156990,1,8
360,96,157184,1,0
272,56,157378,1,0
192,112,157571,2,0,B|88:112,2,100,0|8|0
275,160,158152,2,0,B|395:160,2,100,0|0|8
192,216,158732,5,0
160,240,158829,1,0
136,272,158926,2,0,B|216:352|320:360,1,200,0|12
408,336,159507,2,0,B|448:280|424:200,1,100,0|2
360,168,159894,2,0,B|328:216|344:272,1,100,0|12
437,322,160281,2,0,B|454:256|403:190,1,100,0|2
332,183,160668,2,0,B|319:239|354:286,1,100,0|10
461,295,161055,2,0,B|450:227|376:187,1,100,0|2
308,210,161442,2,0,B|319:267|370:295,1,100,0|10
408,144,161829,5,0
408,144,161926,1,0
408,144,162023,1,4
128,304,174410,6,0,B|184:320|240:312,1,100,6|0
288,272,174990,1,0
224,232,175184,2,0,B|248:192|304:176,1,100,2|0
416,80,175958,2,0,B|248:80,1,150,2|0
266,80,176732,1,2
472,296,177507,6,0,B|432:328|368:336,1,100,2|0
320,288,178087,1,0
256,248,178281,2,0,B|192:256|160:288,1,100,2|0
128,352,178861,2,0,B|64:352,2,50,0|2|0
280,352,179636,1,0
280,352,179829,1,2
48,168,180603,6,0,B|80:128|128:112,1,100,2|0
88,232,181184,1,0
136,288,181378,2,0,B|112:344|64:360,1,100,2|0
88,232,181958,1,0
88,232,182152,2,0,B|240:232,1,150,2|0
238,232,182926,1,2
376,72,183507,5,0
424,128,183700,2,0,B|416:184|368:216,1,100,2|0
336,280,184281,1,0
288,224,184474,2,0,B|296:168|344:136,1,100,2|0
376,72,185055,5,0
376,72,185248,1,2
376,72,185829,1,0
376,72,186023,1,2
280,48,186216,5,0
280,48,186313,1,0
280,48,186410,1,0
96,136,186797,6,0,B|104:200|136:232,1,100,4|0
224,184,187184,1,2
216,288,187378,1,0
304,344,187571,2,0,B|352:352|408:344,1,100
472,272,187958,2,0,B|416:264|360:272,1,100,2|0
304,184,188345,6,0,B|360:192|416:184,1,100
472,112,188732,2,0,B|416:104|360:112,1,100,2|0
280,80,189119,1,0
280,80,189313,1,0
280,80,189507,1,2
176,248,189894,6,0,B|216:280|296:312,1,100
296,208,190281,1,2
224,136,190474,1,0
208,40,190668,2,0,B|160:32|104:40,1,100
40,112,191055,2,0,B|96:120|152:112,1,100,2|0
208,200,191442,6,0,B|152:192|96:200,1,100
40,272,191829,2,0,B|96:280|152:272,1,100,2|0
240,296,192216,1,0
240,296,192410,1,0
240,296,192603,1,2
400,176,192990,5,0
408,80,193184,1,0
320,24,193378,2,0,B|296:88|320:128,1,100,2|0
400,176,193765,1,0
448,264,193958,1,0
448,264,194152,1,2
384,344,194345,1,0
384,344,194539,2,0,B|272:352|168:320,1,200,0|2
120,248,195119,2,0,B|168:232|224:248,1,100
400,88,195700,5,4
104,88,196087,1,4
400,88,196474,1,4
104,88,196861,1,4
256,88,197248,1,4
256,192,197442,12,0,198410
168,328,198797,5,0
168,328,198894,1,0
168,328,198990,1,0
168,328,199087,1,0
168,328,199184,6,0,B|232:352|288:336,1,100,4|0
304,248,199571,1,8
328,224,199668,1,0
360,208,199765,1,0
416,128,199958,2,0,B|320:72|192:80,1,200,0|8
96,256,200539,1,0
96,256,200636,1,0
96,256,200732,2,0,B|192:312|320:304,1,200,0|8
376,256,201313,2,0,B|464:280|488:312,2,100
296,192,201894,5,8
264,192,201990,1,0
232,192,202087,1,0
200,192,202184,1,0
168,192,202281,1,0
72,232,202474,6,0,B|96:280|152:296,1,100,0|8
248,288,202861,1,0
328,352,203055,2,0,B|376:376|440:360,1,100
472,272,203442,1,8
472,272,203539,1,0
472,272,203636,1,0
432,184,203829,6,0,B|376:96|264:56,1,200,0|8
80,200,204410,1,0
80,200,204507,1,0
80,200,204603,2,0,B|136:288|248:328,1,200,0|8
264,224,205184,1,0
416,240,205378,6,0,B|400:136|296:64,1,200,4|8
96,144,205958,1,0
96,144,206055,1,0
96,144,206152,2,0,B|112:248|216:320,1,200,0|8
296,320,206732,1,0
392,336,206926,6,0,B|392:288|352:240,1,100
256,224,207313,1,8
192,304,207507,1,0
96,304,207700,1,0
96,304,207894,1,0
16,240,208087,1,8
16,240,208184,1,0
16,240,208281,1,0
56,144,208474,6,0,B|256:144,1,200,0|8
456,240,209055,1,0
456,240,209152,1,0
456,240,209248,2,0,B|256:240,1,200,0|8
120,56,209829,5,0
120,56,209926,1,0
120,56,210023,2,0,B|320:56,1,200,0|8
392,328,210603,1,0
392,328,210700,1,0
392,328,210797,2,0,B|192:328,1,200,0|8
128,248,211378,5,0
85,222,211474,1,0
67,175,211571,1,4
128,96,211765,2,0,B|184:72|240:104,1,100,0|8
368,176,212152,2,0,B|312:208|256:176,1,100
224,96,212539,1,0
320,56,212732,1,8
416,88,212926,1,0
416,88,213023,1,0
416,88,213119,1,0
448,184,213313,6,0,B|496:232|504:280,2,100,0|8|0
360,144,213894,2,0,B|304:112|280:56,2,100,0|0|8
336,240,214474,5,0
336,240,214571,1,0
336,240,214668,1,0
264,312,214861,1,0
168,344,215055,2,0,B|128:312|112:248,1,100,8|0
32,208,215442,2,0,B|56:144|112:128,1,100
192,112,215829,1,8
224,112,215926,1,0
256,112,216023,1,0
232,208,216216,6,0,B|304:224|352:200,1,100
360,64,216603,2,0,B|416:48|480:72,1,100,8|0
136,312,216990,2,0,B|80:328|24:312,1,100
96,232,217378,1,8
104,232,217474,1,0
112,232,217571,1,0
120,232,217668,1,0
128,232,217765,6,0,B|232:232|232:232,1,100,4|0
288,312,218152,1,8
376,256,218345,1,0
312,184,218539,2,0,B|216:120,1,100
128,128,218926,1,8
96,128,219023,1,0
64,128,219119,1,0
80,224,219313,6,0,B|144:312|256:328,1,200,0|8
432,160,219894,1,0
432,160,219990,1,0
432,160,220087,2,0,B|368:72|256:56,1,200,0|8
232,152,220668,5,0
232,152,220765,1,0
232,152,220861,1,0
168,288,221055,1,0
304,216,221248,1,8
152,200,221442,1,0
264,304,221636,6,0,B|320:320|384:288,1,100,0|0
448,176,222023,2,0,B|384:168|344:200,1,100,8|0
384,376,222410,2,0,B|440:376|488:344,2,100,0|0|12
288,264,222990,2,0,B|328:232|384:232,2,100,0|0|0
208,320,223571,5,12
200,312,223668,1,0
192,304,223765,1,0
184,296,223861,1,0
176,288,223958,5,4
104,104,224345,1,0
296,48,224732,1,6
368,232,225119,1,0
176,288,225507,1,2
368,56,225894,5,0
328,352,226281,1,6
88,168,226668,1,0
368,56,227055,1,2
424,248,227442,6,0,B|312:296|200:264,1,200,0|4
88,136,228216,2,0,B|200:88|312:120,1,200,0|4
128,320,229378,5,2
224,320,229571,2,0,B|216:256|160:224,1,100,0|0
88,184,229958,1,0
136,96,230152,1,6
232,72,230345,1,0
328,104,230539,2,0,B|392:128|416:192,1,100,0|0
376,264,230926,2,0,B|160:264,2,200,2|0|6
328,176,231894,5,0
232,192,232087,1,0
136,176,232281,1,0
80,88,232474,2,0,B|288:88,1,200,2|0
384,88,233055,1,0
384,88,233248,1,4
256,192,233345,12,0,234410
256,192,234797,12,4,239442
