osu file format v9

[General]
AudioFilename: DECO27-egomama.mp3
AudioLeadIn: 1000
PreviewTime: 198783
Countdown: 0
SampleSet: Normal
StackLeniency: 0.5
Mode: 0
LetterboxInBreaks: 1

[Editor]
DistanceSpacing: 1
BeatDivisor: 4
GridSize: 8

[Metadata]
Title:Egomama
Artist:DECO*27 feat. marina
Creator:-saku-
Version:Hard
Source:
Tags:akka mirto renkyorienai KSHR

[Difficulty]
HPDrainRate:5
CircleSize:4
OverallDifficulty:5
ApproachRate:7
SliderMultiplier:1.6
SliderTickRate:1

[Events]
//Background and Video events
Video,0,"Egomama.avi"
0,0,"1622534i.jpg"
//Break Periods
2,98738,110413
2,162222,173510
//Storyboard Layer 0 (Background)
//Storyboard Layer 1 (Fail)
//Storyboard Layer 2 (Pass)
//Storyboard Layer 3 (Foreground)
//Storyboard Sound Samples
//Background Colour Transformations
3,100,0,0,0

[TimingPoints]
991,387.096774193548,4,1,0,60,1,0
991,-133.333333333333,4,2,0,60,0,0
11055,-100,4,2,0,5,0,0
12990,-100,4,1,0,100,0,0
13281,-100,4,1,0,60,0,0
13378,-100,4,1,0,60,0,1
13426,-100,4,1,0,60,0,0
26055,-100,4,2,0,60,0,0
50490,-100,4,1,2,60,0,0
63603,-100,4,1,2,30,0,0
64474,-100,4,1,2,60,0,1
76813,-100,4,1,2,60,0,0
76861,-100,4,1,2,60,0,1
89200,-100,4,1,2,60,0,0
89249,-100,4,1,2,60,0,1
98539,-100,4,1,0,60,0,0
111216,-100,4,2,0,60,0,0
135990,-100,4,1,2,60,0,0
155442,-100,4,1,2,100,0,0
155732,-100,4,1,0,60,0,0
174313,-133.333333333333,4,2,0,45,0,0
174507,-133.333333333333,4,2,0,60,0,0
186216,-100,4,2,0,60,0,0
195603,-100,4,2,0,20,0,0
195990,-100,4,2,0,30,0,0
196378,-100,4,2,0,40,0,0
196765,-100,4,2,0,50,0,0
197152,-100,4,2,0,60,0,0
197394,-100,4,2,0,5,0,0
198700,-100,4,1,0,30,0,0
199184,-100,4,1,2,60,0,1
211523,-100,4,1,2,60,0,0
211571,-100,4,1,2,60,0,1
223910,-100,4,1,2,60,0,0
223958,-100,4,1,2,60,0,1
224055,-100,4,2,2,60,0,1
232958,-100,4,2,2,50,0,1
233249,-133.333333333333,4,2,0,45,0,0
233345,-133.333333333333,4,2,0,5,0,0
239442,-100,4,2,0,70,0,1
239490,-100,4,2,0,70,0,0

[Colours]
Combo1 : 223,213,17
Combo2 : 231,231,231
Combo3 : 0,206,206
Combo4 : 223,4,4

[HitObjects]
248,288,990,1,2
112,248,1571,1,0
112,248,1765,2,0,B|112:176|168:120,1,119.999996423721,2|0
232,192,2539,2,0,B|480:192,1,239.999992847443,2|2
288,96,4087,5,2
416,160,4668,1,0
416,160,4861,2,0,B|416:232|352:280,1,119.999996423721,2|0
288,208,5636,2,0,B|32:208,1,239.999992847443,2|2
256,280,7184,5,2
312,144,7765,1,0
312,144,7958,2,0,B|256:120|192:144,1,119.999996423721,2|0
136,224,8732,2,0,B|376:224,1,239.999992847443,2|2
328,88,10087,5,0
328,88,10281,1,0
152,88,10861,1,0
256,192,11055,12,0,12990
336,120,13378,5,4
368,192,13571,2,0,B|400:240|448:240,2,80,0|8|0
328,264,14152,2,0,B|286:296|232:299,1,80
176,304,14539,5,8
136,232,14732,2,0,B|216:216,1,80
232,136,15120,2,0,B|152:152,1,80,0|8
98,320,15507,2,0,B|186:304,1,80
256,328,15894,1,0
256,328,16087,1,8
256,328,16281,1,0
328,288,16474,5,0
392,240,16668,2,0,B|424:216|480:224,2,80,0|8|0
384,160,17249,2,0,B|376:120|400:80,1,80
352,16,17636,5,8
272,40,17829,1,0
120,88,18216,1,0
264,152,18603,1,0
104,184,18990,1,0
104,184,19184,1,8
192,320,19571,6,0,B|264:360|352:336,1,160,0|8
376,264,20152,2,0,B|416:288|432:328,2,80
304,224,20732,5,8
224,224,20926,2,0,B|136:224,1,80
184,152,21313,2,0,B|296:152,1,80,0|8
384,224,21700,2,0,B|304:224,1,80
336,152,22087,2,0,B|432:152,2,80,0|8|0
296,80,22668,5,0
224,120,22861,1,0
160,72,23055,1,8
112,136,23249,2,0,B|32:176|32:280,1,160,0|0
112,264,23829,1,12
256,336,24216,6,0,B|336:336,2,80,0|0|4
256,176,24990,2,0,B|160:176,2,80
336,176,25571,1,0
336,176,25765,1,4
224,64,26152,5,8
144,80,26345,2,0,B|112:104|40:96,2,80,0|2|2
224,216,27120,2,0,B|384:216,1,160,2|0
440,272,27700,1,10
280,304,28087,2,0,B|240:328|192:328,1,80,2|2
128,352,28474,2,0,B|72:328|40:280,1,80,10|2
192,104,29249,5,10
264,144,29442,2,0,B|312:152|360:144,2,80,0|2|2
424,112,30216,2,0,B|432:200|352:256,1,160,6|2
280,256,30797,1,8
264,336,30990,2,0,B|176:345|118:266,1,160,2|2
96,200,31571,1,10
96,200,31668,1,0
96,200,31765,1,2
96,200,31958,5,2
216,96,32345,1,8
272,152,32539,2,0,B|304:112|296:72,2,80,0|2|2
200,184,33120,1,10
256,240,33313,2,0,B|432:240,1,160,2|0
336,328,33894,2,0,B|168:328,1,160,10|2
112,280,34474,1,2
64,216,34668,1,10
112,152,34861,1,2
352,168,35442,5,10
392,104,35636,2,0,B|432:88|480:96,2,80,0|2|2
304,232,36410,2,0,B|232:232|216:312|160:320,1,160,6|2
328,344,37184,2,0,B|400:344|416:264|472:256,1,160,2|2
488,184,37765,1,10
488,184,37958,2,2,B|488:136,2,40,2|2|0
360,88,38539,6,0,B|320:128|272:144,1,80,10|0
224,96,38926,1,2
176,160,39120,1,2
48,256,39507,1,2
112,304,39700,1,0
192,320,39894,1,0
192,320,39990,1,0
192,320,40087,1,10
304,208,40474,2,0,B|344:232|360:272,1,80,2|2
280,288,40861,2,0,B|296:328|336:344,1,80,10|2
464,144,41636,5,10
408,88,41829,2,0,B|376:56|328:56,2,80,0|2|2
264,152,42603,1,6
184,160,42797,1,0
112,128,42990,1,2
216,248,43378,5,2
296,240,43571,1,0
368,200,43765,1,2
360,120,43958,2,0,B|400:112|448:128,2,80,10|6|2
216,200,44732,5,10
224,120,44925,2,0,B|184:112|136:128,2,80,0|2|2
88,200,45700,2,0,B|104:288|192:320,1,160,6|0
264,328,46281,1,10
416,272,46668,1,2
448,200,46861,1,2
448,120,47055,1,10
416,48,47249,1,2
184,104,47829,6,0,B|160:136|96:144,1,80,10|0
168,200,48216,2,0,B|128:200|96:168,1,80,2|2
72,88,48603,1,8
72,88,48797,2,0,B|128:24|224:24,1,160,6|2
288,48,49378,1,8
328,120,49571,2,0,B|384:136|416:168,2,80,2|0|2
272,176,50152,1,8
245,251,50345,1,0
245,251,50442,1,0
245,251,50539,1,0
208,96,50926,6,0,B|136:128|56:144,1,160,12|8
8,208,51507,1,0
56,272,51700,2,0,B|133:284|209:314,1,160,0|0
256,160,52474,1,8
256,320,52861,1,8
256,160,53249,5,8
256,80,53442,1,0
256,160,53636,1,8
304,312,54023,6,0,B|376:280|456:264,1,160,12|8
504,200,54604,1,0
456,136,54797,2,0,B|378:123|302:93,1,160,8|8
256,248,55571,1,8
256,88,55958,1,8
256,248,56346,5,8
256,328,56539,1,0
256,248,56733,1,8
176,112,57120,6,0,B|240:96|280:96|352:120,1,160,12|8
256,200,57700,1,0
178,285,57894,2,0,B|232:304|272:304|336:288,1,160,8|8
464,192,58668,1,8
464,192,59055,1,8
304,192,59442,5,8
224,192,59636,1,0
304,192,59829,1,8
224,56,60216,6,0,B|112:56|40:104|32:192|48:288|120:320|240:320,1,480,12|8
288,264,61571,1,8
288,264,61765,1,8
352,216,61958,1,8
352,216,62055,1,0
352,216,62152,1,8
344,136,62345,1,8
288,80,62539,1,8
240,144,62732,1,8
240,144,62829,1,8
240,144,62926,6,0,B|64:144,1,160,4|8
104,224,63507,1,0
183,224,63700,1,0
179,263,63797,1,0
156,296,63894,1,0
124,320,63990,1,0
85,330,64087,2,0,B|57:335|38:329,2,40
216,352,64474,6,0,B|256:352|320:336,2,80,4|0|8
376,361,65249,2,0,B|448:313|456:217,1,160,0|8
381,196,65829,1,0
350,270,66023,2,0,B|262:278|190:222,1,160,0|8
144,168,66603,2,0,B|64:168,1,80
192,72,67184,5,8
232,144,67378,1,0
296,192,67571,2,0,B|344:216|400:216,2,80,0|0|8
456,208,68345,1,0
416,280,68539,1,0
336,304,68732,1,8
256,288,68926,6,0,B|216:272|160:288,2,80
336,304,69507,1,8
400,352,69700,1,0
400,352,69894,1,0
488,216,70281,1,8
488,216,70378,1,0
488,216,70474,1,0
480,136,70668,6,0,B|416:80|328:56,1,160,0|8
280,104,71249,1,0
336,160,71442,2,0,B|320:240|248:288,1,160,0|8
184,240,72023,2,0,B|80:240,2,80
264,240,72603,1,8
344,240,72797,1,0
344,240,72990,1,0
488,168,73378,5,8
456,96,73571,1,0
392,48,73765,2,0,B|352:24|304:16,2,80,0|0|8
400,208,74539,1,0
368,280,74732,1,0
296,320,74926,1,8
224,352,75120,6,0,B|184:368|120:344,2,80
184,280,75700,1,8
104,272,75894,1,0
32,232,76087,1,0
96,88,76474,2,0,B|48:88,3,40,8|0|0|0
96,88,76861,6,0,B|152:152|248:152,1,160,4|8
248,72,77442,1,0
320,112,77636,2,0,B|360:184|312:280,1,160,0|8
384,312,78216,1,0
320,360,78410,2,0,B|232:368|152:320,1,160,0|8
160,248,78990,2,0,B|56:248,1,80
216,168,79571,5,8
280,120,79765,1,0
352,80,79958,2,0,B|392:64|448:80,2,80,0|0|8
384,240,80732,1,0
328,296,80926,1,0
256,336,81120,1,8
184,368,81313,6,0,B|152:392|104:384,2,80
256,336,81894,1,8
256,256,82087,1,0
216,184,82281,1,0
64,128,82668,1,8
64,128,82765,1,0
64,128,82861,1,0
96,200,83055,6,0,B|120:240|112:288,2,80,0|0|8
32,256,83636,1,0
56,336,83829,2,0,B|136:368|224:360,1,160,0|8
288,344,84410,1,0
360,312,84603,1,0
432,272,84797,2,0,B|472:248|488:192,2,80,0|8|0
368,232,85378,1,0
208,208,85765,5,8
160,272,85958,1,0
104,328,86152,2,0,B|80:360|40:376,2,80,0|0|8
256,280,86926,2,0,B|296:304|336:304,1,80
400,352,87313,2,0,B|448:336|480:296,1,80,8|0
448,232,87700,1,0
448,232,87894,1,0
448,232,88087,1,12
216,160,88474,1,0
216,160,88668,1,0
216,160,88861,1,12
336,56,89249,6,0,B|432:64|496:104,2,160,4|8|0
176,88,90410,1,8
176,88,90797,1,0
312,168,91184,5,8
200,280,91571,1,0
312,168,91958,1,8
368,320,92345,1,0
472,184,92732,6,0,B|432:104|336:64,1,160,4|0
120,48,93507,2,0,B|152:120|240:160,1,160,12|0
304,352,94668,5,0
224,336,94861,1,0
168,280,95055,2,0,B|128:248|128:192,1,80,8|0
88,144,95442,2,0,B|168:112|248:160,2,160,4|8|0
88,144,96603,1,8
192,264,96990,6,0,B|248:320|344:312,1,160,0|12
400,256,97571,1,0
480,232,97765,2,0,B|512:144|464:72,1,160,0|8
400,120,98345,2,0,B|304:120,1,80
128,104,111313,5,10
152,184,111507,2,0,B|168:232|144:288,1,80
104,328,111894,2,0,B|136:352|192:344,1,80,2|8
256,320,112281,2,0,B|336:296|416:320,2,160,2|2|0
440,160,113636,6,0,B|456:120|448:72,2,80,10|0|2
376,112,114216,2,0,B|264:112,1,80,0|8
232,64,114603,2,0,B|144:64,1,80,0|2
88,112,114990,1,10
224,200,115378,1,8
88,280,115765,1,10
240,320,116152,5,2
368,224,116539,2,0,B|448:224,2,80,2|10|2
368,224,117120,1,0
288,88,117507,5,10
288,88,117700,1,0
240,152,117894,1,2
240,152,118087,1,2
288,216,118281,2,0,B|248:248|184:232,1,80,10|0
144,200,118668,1,0
104,128,118861,1,0
24,120,119055,2,0,B|24:168|72:208,1,80,10|0
248,336,119829,5,10
248,336,120023,1,2
320,312,120216,1,2
320,312,120410,1,0
360,384,120603,2,0,B|400:360|416:312,1,80,8|0
384,248,120990,1,2
464,248,121184,2,0,B|464:88,1,160,2|2
304,88,121958,6,0,B|224:64|144:88,1,160,2|2
288,168,122732,2,0,B|336:176|384:136,2,80,2|8|2
256,240,123313,1,4
120,328,123700,5,10
88,256,123894,1,0
128,184,124087,1,2
96,24,124474,1,10
96,24,124668,2,0,B|120:104|216:144,1,160,2|0
280,152,125249,1,10
280,152,125442,1,0
352,176,125636,2,0,B|352:224|320:272,1,80,2|2
232,328,126023,2,0,B|232:280|264:232,1,80,10|2
331,253,126410,5,0
480,312,126797,2,0,B|440:344|384:344,1,80,10|0
440,184,127378,1,0
296,112,127765,1,2
216,88,127958,1,0
136,104,128152,1,2
216,240,128539,5,2
296,240,128732,1,0
368,272,128926,1,2
416,336,129120,2,0,B|456:360|512:352,2,80,10|2|0
256,336,129894,5,10
176,344,130087,2,0,B|120:336|88:304,1,80,0|2
160,256,130474,2,0,B|144:168|64:112,1,160,2|2
216,40,131249,1,0
216,40,131442,1,10
360,104,131829,1,2
400,176,132023,1,2
400,256,132216,1,10
360,328,132410,1,2
88,256,132990,6,0,B|120:296|176:320,1,80,10|0
80,352,133378,2,0,B|120:352|160:328,1,80,2|0
192,256,133765,1,10
192,256,133958,2,0,B|192:160|120:96,1,160,2|2
64,64,134539,1,10
64,64,134732,1,2
64,144,134926,6,0,B|24:144,2,40,0|0|2
144,152,135313,1,14
216,184,135507,1,2
272,240,135700,1,6
416,320,136087,6,0,B|432:248|424:144,1,160,4|0
344,176,136668,1,0
272,216,136861,2,0,B|256:136|272:40,1,160,8|0
408,128,137636,1,8
272,216,138023,1,0
408,128,138410,5,8
344,176,138603,1,0
408,128,138797,1,8
384,288,139184,6,0,B|312:320|224:320,1,160,4|0
240,240,139765,1,0
264,160,139958,2,0,B|184:168|104:200,1,160,8|0
216,320,140732,1,8
264,160,141120,1,0
216,320,141507,5,8
240,240,141700,1,0
216,320,141894,1,8
112,200,142281,6,0,B|144:120|224:64,1,160,4|0
272,128,142861,1,0
304,200,143055,2,0,B|392:200,1,80,8|0
464,200,143442,1,0
304,200,143829,1,8
464,200,144216,1,0
384,64,144603,5,8
384,64,144797,1,0
384,64,144990,1,8
224,80,145378,6,0,B|192:112|144:120,2,80,4|0|0
152,40,145958,1,0
232,176,146345,1,0
160,216,146539,2,0,B|208:288|312:320,1,160,4|0
368,312,147120,1,0
368,312,147313,1,8
480,192,147700,5,8
480,192,147894,1,0
480,192,148087,1,4
360,88,148474,2,0,B|288:48|184:56,2,160
256,192,149636,12,4,155442
176,264,155829,5,0
144,192,156023,2,0,B|112:144|64:144,2,80,0|8|0
184,120,156603,2,0,B|226:88|280:85,1,80
336,80,156990,5,8
376,152,157183,2,0,B|296:168,1,80
280,248,157571,2,0,B|360:232,1,80,0|8
414,64,157958,2,0,B|326:80,1,80
256,56,158345,1,0
256,56,158538,1,8
256,56,158732,1,0
184,96,158925,5,0
120,144,159119,2,0,B|88:168|32:160,2,80,0|12|0
128,224,159700,2,0,B|136:264|112:304,1,80
160,368,160087,5,12
240,344,160280,1,0
392,296,160667,1,0
248,224,161055,2,0,B|280:192|328:176,1,80
384,216,161442,2,0,B|424:200|456:152,1,80,0|8
448,88,161829,2,0,B|488:88,2,40,0|0|4
264,96,174410,5,4
400,136,174991,1,0
400,136,175185,2,0,B|400:208|344:264,1,119.999996423721,2|0
280,192,175959,2,0,B|32:192,1,239.999992847443,2|2
232,272,177507,5,2
96,224,178088,1,0
96,224,178281,2,0,B|96:152|160:104,1,119.999996423721,2|0
224,176,179056,2,0,B|480:176,1,239.999992847443,2|2
256,104,180604,5,2
200,240,181184,1,0
200,240,181378,2,0,B|256:264|320:240,1,119.999996423721,2|0
376,160,182152,2,0,B|136:160,1,239.999992847443,2|2
208,344,183507,6,0,B|136:344,1,59.9999982118607,0|2
304,256,184281,2,0,B|376:256,1,59.9999982118607,0|2
256,112,185055,2,0,B|176:112,1,59.9999982118607,0|2
256,112,185829,2,0,B|328:112,1,59.9999982118607,0|2
384,152,186216,6,0,B|424:192,2,40,0|0|0
328,304,186797,2,0,B|272:360|168:352,1,160,4|2
104,336,187378,1,0
40,288,187571,2,0,B|32:248|48:192,2,80,0|0|2
112,256,188152,1,0
128,176,188345,2,0,B|136:88|208:40,1,160,0|2
288,48,188926,1,0
288,48,189120,1,0
176,312,189894,6,0,B|256:344|344:328,1,160,0|2
296,256,190474,1,0
376,264,190668,2,0,B|416:304|416:352,1,80
472,280,191055,2,0,B|456:232|408:200,1,80,2|0
352,184,191442,2,0,B|272:160|176:184,1,160,0|2
128,224,192023,1,0
128,224,192216,1,0
424,96,192990,5,0
352,128,193184,2,0,B|320:152|248:152,1,80,0|2
240,80,193571,2,0,B|192:104|184:160,2,80
276,151,194152,2,0,B|287:199|335:231,1,80,2|0
248,256,194539,2,0,B|184:304|88:312,1,160,0|2
16,312,195120,1,0
16,312,195313,1,0
136,192,195700,5,4
376,192,196087,1,4
136,192,196474,1,4
376,192,196861,1,4
256,192,197248,1,4
256,192,197442,12,0,198410
360,240,198797,5,0
360,240,198894,1,0
360,240,198990,1,0
360,240,199087,1,0
360,240,199184,5,4
328,312,199378,2,0,B|288:336|240:336,2,80,0|8|0
264,256,199958,2,0,B|176:248|96:288,1,160,0|8
72,352,200539,1,0
32,280,200732,2,0,B|16:192|64:112,1,160,0|8
120,168,201313,2,0,B|208:168,1,80
320,64,201894,5,8
312,144,202087,1,0
280,216,202281,2,0,B|264:256|216:280,2,80,0|0|8
176,96,203055,1,0
152,176,203249,1,0
96,232,203442,1,8
56,304,203636,6,0,B|32:344|32:384,2,80
96,232,204216,1,8
56,160,204410,1,0
56,160,204603,1,0
216,136,204990,5,8
216,136,205087,1,0
216,136,205184,1,0
256,208,205378,2,0,B|336:184|392:112,1,160,4|8
432,184,205958,2,0,B|464:216|472:272,2,80
472,112,206539,2,0,B|456:64|400:40,1,80,8|0
386,119,206926,2,0,B|309:131|218:111,1,160,0|8
160,64,207507,1,0
160,64,207700,1,0
120,216,208087,5,8
184,264,208281,2,0,B|208:304|208:344,1,80
128,328,208668,2,0,B|88:344|40:336,2,80,0|8|0
184,264,209249,2,0,B|256:224|352:232,1,160,0|8
416,232,209829,1,0
488,272,210023,2,0,B|464:304|416:312,2,80,0|0|8
488,192,210603,2,0,B|456:152|400:144,1,80
264,160,211184,2,0,B|224:160,3,40,8|0|0|0
264,160,211571,6,0,B|344:168|408:240,1,160,4|8
328,272,212152,1,0
272,328,212345,2,0,B|192:352|96:336,1,160,0|8
136,264,212926,1,0
216,264,213120,2,0,B|200:184|136:120,1,160,0|8
88,184,213700,2,0,B|8:184,1,80
112,56,214281,5,8
192,72,214474,1,0
256,120,214668,2,0,B|296:152|344:168,2,80,0|0|8
104,168,215442,2,0,B|96:208|104:248,1,80
184,240,215829,2,0,B|200:280|184:344,1,80,8|0
120,352,216216,2,0,B|192:384|296:352,1,160,0|8
344,312,216797,1,0
344,312,216990,1,0
408,168,217378,1,8
408,168,217474,1,0
408,168,217571,1,0
344,208,217765,6,0,B|304:240|248:240,2,80,4|0|8
280,160,218345,1,0
304,80,218539,2,0,B|224:56|120:80,1,160,0|8
128,152,219120,1,0
64,200,219313,2,0,B|48:240|64:288,1,80
136,248,219700,2,0,B|216:248,2,80,8|0|0
280,320,220474,5,8
328,256,220668,1,0
344,176,220861,2,0,B|352:128|344:88,2,80,0|0|8
200,248,221636,2,0,B|168:280|104:280,1,80
144,200,222023,2,0,B|176:168|232:168,1,80,8|0
296,184,222410,1,0
296,184,222603,1,0
296,184,222797,1,12
56,240,223184,1,0
56,240,223378,1,0
56,240,223571,1,8
192,320,223958,6,0,B|272:360|384:344,2,160,4|0|6
112,184,225120,1,0
112,184,225507,1,2
224,64,225894,5,0
272,216,226281,1,6
112,184,226668,1,0
224,64,227055,1,2
376,120,227442,6,0,B|408:208|376:280,1,160,0|4
160,176,228216,2,0,B|128:88|160:16,1,160,0|4
456,136,229378,5,2
440,216,229571,1,0
384,280,229765,2,0,B|352:312|304:320,1,80
240,344,230152,2,0,B|208:256|264:184,2,160,6|0|2
240,344,231313,1,0
80,312,231700,6,0,B|48:232|88:152,1,160,2|0
160,128,232281,1,0
200,56,232474,2,0,B|288:40|368:80,1,160,2|0
328,152,233055,2,0,B|328:232,1,80,0|4
256,192,234797,12,4,239442
