osu file format v9

[General]
AudioFilename: 03 - Dummy Dummy.mp3
AudioLeadIn: 0
PreviewTime: 55918
Countdown: 0
SampleSet: Soft
StackLeniency: 0.7
Mode: 0
LetterboxInBreaks: 1

[Editor]
DistanceSpacing: 1.55
BeatDivisor: 4
GridSize: 8

[Metadata]
Title:Dummy Dummy
Artist:DECO*27 feat. marina
Creator:Garven
Version:Insane
Source:
Tags:y_u_c_a yuca AngelHoney AHO KanaRin Vocaloid Hatsune Miku

[Difficulty]
HPDrainRate:6
CircleSize:5
OverallDifficulty:8
ApproachRate:9
SliderMultiplier:1.7
SliderTickRate:2

[Events]
//Background and Video events
0,0,"dummydummy.jpg"
//Break Periods
//Storyboard Layer 0 (Background)
//Storyboard Layer 1 (Fail)
//Storyboard Layer 2 (Pass)
//Storyboard Layer 3 (Foreground)
Sprite,Foreground,Centre,"dummydummyb.jpg",320,240 F,0,38950,39700,0,0.5 M,0,38950,50200,320,240 S,0,38950,50200,0.8 F,0,48700,50200,0.5,0 F,0,98950,99700,0,0.5 M,0,98950,123700,320,240 S,0,98950,123700,0.8 F,0,123606,123700,0.5,0
//Storyboard Sound Samples
//Background Colour Transformations
3,100,163,162,255

[TimingPoints]
700,375,4,1,1,100,1,0
1450,-83.3333333333333,4,1,1,80,0,0
2106,-83.3333333333333,4,1,1,100,0,0
14950,-100,4,2,1,100,0,0
21606,-100,4,2,1,80,0,0
21793,-100,4,2,1,100,0,0
39700,-133.333333333333,4,2,2,40,0,0
44200,-133.333333333333,4,2,2,30,0,0
45700,-133.333333333333,4,2,2,40,0,0
47762,-133.333333333333,4,2,2,30,0,0
48137,-133.333333333333,4,2,2,20,0,0
49825,-133.333333333333,4,1,1,80,0,0
50200,-83.3333333333333,4,1,1,100,0,1
62200,-83.3333333333333,4,1,1,70,0,1
63512,-83.3333333333333,4,1,1,75,0,1
63559,-83.3333333333333,4,1,1,80,0,1
63606,-83.3333333333333,4,1,1,85,0,1
63653,-83.3333333333333,4,1,1,90,0,1
63700,-83.3333333333333,4,1,1,100,0,1
65200,-83.3333333333333,4,1,1,100,0,0
74200,-100,4,2,1,100,0,0
86950,-100,4,2,1,15,0,0
86996,-100,4,2,1,100,0,0
98856,-133.333333333333,4,2,1,75,0,0
99606,-133.333333333333,4,2,1,60,0,0
100075,-133.333333333333,4,2,2,40,0,0
108793,-133.333333333333,4,2,2,5,0,0
108981,-133.333333333333,4,2,2,40,0,0
110106,-133.333333333333,4,2,2,10,0,0
110293,-133.333333333333,4,2,2,40,0,0
118731,-133.333333333333,4,2,2,20,0,0
120700,-133.333333333333,4,2,2,5,0,0
123325,-133.333333333333,4,1,1,80,0,0
123700,-83.3333333333333,4,1,1,100,0,1
147793,-83.3333333333333,4,1,1,85,0,1
150418,-83.3333333333333,4,1,1,100,0,1
158106,-83.3333333333333,4,2,1,100,0,1
158293,-83.3333333333333,4,1,1,100,0,1
162700,-83.3333333333333,4,1,1,100,0,0
171700,-133.333333333333,4,2,2,5,0,0

[Colours]
Combo1 : 75,75,75
Combo2 : 237,1,7
Combo3 : 255,255,0
Combo4 : 0,0,0
Combo5 : 255,128,128
Combo6 : 255,255,128

[HitObjects]
48,96,2012,1,0
136,32,2200,1,12
248,32,2387,1,0
336,104,2575,2,0,B|360:152|360:152|416:168,1,102.00000243187,0|8
136,320,3137,2,0,B|160:272|160:272|216:256,1,102.00000243187,0|8
320,240,3512,1,0
424,200,3700,2,0,B|472:184|472:184|480:128,1,102.00000243187,8|0
488,24,4075,1,0
376,24,4262,2,0,B|304:72|304:72|184:72,1,204.000004863739,8|0
72,72,4825,1,8
16,168,5012,5,0
16,192,5106,1,0
16,216,5200,2,0,B|16:272|16:272|48:320,1,102.00000243187,12|0
120,384,5575,1,0
184,288,5762,2,0,B|240:288|240:288|288:344|288:344|368:344,1,204.000004863739,8|0
472,376,6325,1,8
512,272,6512,1,0
456,176,6700,1,8
344,176,6887,1,0
288,80,7075,1,0
392,32,7262,2,0,B|456:8|456:8|424:72|424:72|496:48,1,204.000004863739,8|0
512,160,7825,5,0
512,184,7918,1,0
512,208,8012,1,0
512,232,8106,1,0
512,256,8200,2,0,B|512:288|512:288|480:312|480:312|480:344,1,102.00000243187,12|0
368,368,8575,1,0
256,368,8762,1,8
64,248,9137,1,0
176,248,9325,1,8
280,296,9512,1,0
384,248,9700,1,8
280,208,9887,1,0
176,160,10075,1,0
64,160,10262,2,0,B|64:96|64:96|120:40|120:40|192:40,1,204.000004863739,8|0
296,40,10825,1,8
408,112,11012,53,0
424,128,11106,1,0
440,144,11200,2,12,B|472:176|472:176|472:240,1,102.00000243187,12|0
512,336,11575,1,0
408,376,11762,2,0,B|344:376|344:376|304:336|304:336|216:336,1,204.000004863739,8|0
112,336,12325,1,8
8,296,12512,1,0
8,184,12700,2,0,B|80:112,1,102.00000243187,8|0
168,184,13075,1,0
168,72,13262,2,0,B|216:24|216:24|352:24,1,204.000004863739,8|0
464,24,13825,2,0,B|520:24,3,51.0000012159348
256,344,15512,5,0
184,280,15700,2,0,B|112:224|128:128,1,170,2|8
256,136,16262,1,0
328,24,16450,2,0,B|400:80|384:176,1,170,2|8
256,208,17012,1,0
256,304,17200,2,0,B|328:336|424:336,1,170,2|8
256,80,17950,2,0,B|184:48|88:48,1,170,2|8
24,120,18512,1,0
24,216,18700,6,0,B|68:272|-20:320|24:376,1,170,0|8
136,320,19262,1,0
136,192,19450,2,0,B|240:192|264:296,1,170,2|8
288,376,20012,1,0
384,376,20200,2,0,B|384:288|328:216,1,170,0|10
72,64,20950,2,0,B|160:64|232:120,1,170,2|8
328,120,21512,1,0
408,144,21700,54,0,B|421:98|400:49|347:26|303:41,1,170,4|8
184,120,22262,1,0
199,38,22450,2,0,B|165:26|112:49|91:98|104:144,1,170,2|8
184,192,23012,1,0
256,256,23200,1,0
432,32,23762,1,0
360,96,23950,2,0,B|308:176|360:256,1,170,2|8
432,320,24512,1,0
456,232,24700,6,0,B|528:224|528:128|456:120,1,170,2|8
384,176,25262,1,0
288,176,25450,2,0,B|120:176,1,170,0|8
64,96,26012,1,0
124,24,26200,2,0,B|204:80|284:24,1,170,2|8
344,96,26762,1,0
440,96,26950,1,2
328,272,27512,5,0
256,328,27700,1,0
256,328,27793,1,2
128,328,27981,1,2
128,328,28075,1,8
56,272,28262,1,0
112,200,28450,2,0,B|152:184|152:184|192:202|232:184|232:184|272:200,1,170,2|8
328,128,29012,1,0
352,128,29106,1,0
376,128,29200,53,0
400,128,29293,1,2
480,24,29482,1,2
456,24,29575,2,0,B|360:24,1,85,8|0
352,24,29856,1,0
328,24,29950,2,0,B|280:24,2,42.5,0|0|2
480,128,30325,1,8
480,232,30512,5,0
464,248,30606,1,0
448,264,30700,2,0,B|416:288|416:288|424:296|424:296|392:320,1,85,2|0
272,344,31075,1,10
248,344,31168,1,0
224,344,31262,1,0
168,272,31450,2,0,B|168:224|168:224|144:208|144:208|144:192,1,85,2|0
144,176,31731,1,2
144,152,31825,1,8
256,56,32012,5,0
256,80,32106,1,0
256,104,32200,1,0
256,128,32293,2,0,B|256:176|312:208,1,85,2|2
316,212,32575,1,8
376,96,32762,1,0
456,144,32950,2,0,B|528:192,1,85,2|0
384,176,33325,2,0,B|392:264,1,85,10|0
144,304,33887,53,2
168,304,33981,1,0
192,304,34075,2,0,B|280:304,1,85,10|0
248,216,34450,2,0,B|296:216|296:216|368:216|384:272,1,127.5,2|2
384,264,34825,1,8
424,360,35012,1,0
464,264,35200,2,0,B|480:192|456:136,1,127.5,0|8
448,112,35575,1,2
344,112,35762,1,0
384,208,35950,1,2
360,208,36043,1,2
336,208,36137,1,0
304,304,36325,1,10
208,264,36512,5,0
169,178,36700,2,0,B|133:185|108:217|104:254|117:290,1,127.5,2|8
114,296,37075,1,2
40,384,37262,2,0,B|16:352|16:304,1,85
40,152,37637,2,0,B|16:184|16:232,1,85,0|8
112,216,38012,1,2
144,128,38200,6,0,B|184:48|280:40,1,170,0|10
368,256,38950,2,0,B|328:336|232:344,1,170,2|8
132,336,39512,1,10
184,72,40450,6,0,B|304:72|304:72|296:88,1,127.499996200204
88,272,41575,5,0
256,368,41950,1,0
424,272,42325,1,0
136,16,43075,5,0
256,112,43450,1,0
376,16,43825,1,0
176,256,44575,53,0
256,304,44950,1,0
336,256,45325,1,0
56,312,46075,5,0
112,176,46450,1,0
216,48,46825,2,0,B|256:-2|348:-5|397:72|378:134,1,254.999992400408,2|0
344,244,47950,1,0
292,324,48325,1,0
144,88,50012,21,0
256,32,50200,1,6
376,32,50387,2,0,B|480:88|448:208,1,204.000004863739,0|2
256,360,51137,1,0
136,328,51325,1,0
56,240,51512,1,0
96,120,51700,2,2,B|192:152|208:288,1,204.000004863739,2|0
416,120,52262,2,2,B|320:152|304:288,1,204.000004863739,2|2
200,344,52825,1,0
56,296,53012,21,0
12,248,53106,1,0
0,184,53200,1,6
0,64,53387,1,0
112,24,53575,1,0
232,40,53762,2,2,B|256:112|328:144|400:144,1,204.000004863739,2|2
448,32,54325,1,0
504,144,54512,1,0
408,224,54700,2,2,B|440:324|376:304|376:304|320:296|280:320,1,204.000004863739
104,224,55262,2,2,B|72:324|136:304|136:304|192:296|232:320,1,204.000004863739
256,208,55825,69,0
212,160,55918,1,0
200,96,56012,1,0
232,40,56106,1,0
292,16,56200,1,6
400,72,56387,1,0
376,192,56575,1,0
448,296,56762,2,2,B|408:360|344:376|264:368,1,204.000004863739,2|2
176,288,57325,1,0
256,208,57512,1,0
352,144,57700,2,2,B|328:60|280:28|206:21,1,204.000004863739
352,240,58262,2,2,B|328:323|280:355|206:362,1,204.000004863739
112,304,58825,1,0
88,192,59012,69,0
96,129,59106,1,0
136,80,59200,1,6
240,32,59387,1,0
456,88,59575,2,2,B|352:88,1,102.00000243187
56,296,60137,1,2
200,344,60325,1,2
352,344,60512,1,2
328,192,60700,2,2,B|240:120|136:152,1,204.000004863739
16,192,61262,1,2
272,24,61637,1,2
440,280,62012,1,6
256,192,62200,12,2,64637
256,128,64825,1,2
332,256,65012,1,2
180,256,65200,5,12
56,256,65387,1,0
8,144,65575,1,0
32,24,65762,2,0,B|128:24|128:24|120:40|120:40|216:40,1,204.000004863739,8|0
210,162,66325,1,8
336,160,66512,1,0
336,40,66700,1,8
456,72,66887,1,0
456,192,67075,2,0,B|520:280,1,102.00000243187,0|8
240,248,67637,53,0
416,288,67825,1,8
382,344,67918,1,0
320,360,68012,1,0
256,360,68106,1,0
192,360,68200,1,12
72,344,68387,1,0
0,248,68575,1,0
48,136,68762,2,0,B|144:232|144:232|216:232,1,204.000004863739,8|0
368,304,69325,1,8
368,184,69512,1,0
264,124,69700,1,8
264,4,69887,1,0
368,64,70075,1,0
464,124,70262,2,0,B|512:160|512:160|512:304,1,204.000004863739,8|0
400,360,70825,1,8
272,280,71012,5,0
208,280,71106,1,0
144,280,71200,2,0,B|72:208,1,102.00000243187,12|0
56,72,71575,2,0,B|128:144,1,102.00000243187,0|8
280,336,72137,1,0
391,289,72325,1,8
501,242,72512,1,0
402,171,72700,2,0,B|362:75,1,102.00000243187,8|0
205,19,73075,2,0,B|245:113,1,102.00000243187,0|8
208,352,73637,1,0
144,352,73731,1,0
80,352,73825,2,0,B|24:352,3,51.0000012159348,8|0|0|0
416,56,75512,5,0
360,136,75700,2,0,B|376:232|288:280,1,170,2|8
256,368,76262,1,0
220,278,76450,2,0,B|136:232|152:136,1,170,2|8
64,168,77012,1,0
16,88,77200,2,0,B|48:32|96:32|96:32|168:32,1,170,0|10
496,88,77950,2,0,B|464:32|416:32|416:32|344:32,1,170,2|8
296,112,78512,1,0
200,96,78700,54,0,B|192:160|232:216|304:208,1,170,2|8
368,136,79262,1,0
472,128,79450,2,0,B|464:184|536:200|488:288,1,170,2|8
416,360,80012,1,0
312,360,80200,2,0,B|248:360|248:360|184:360|184:288,1,170,2|8
328,40,80950,2,0,B|368:88|368:88|392:120|392:176|336:192,1,170,2|0
64,48,81887,5,2
160,48,82075,1,10
248,80,82262,1,0
344,80,82450,2,0,B|392:80|416:40|512:40,1,170,2|8
472,128,83012,1,0
508,216,83200,2,0,B|416:216|392:176|344:176,1,170,2|8
4,216,83950,2,0,B|95:216|119:176|167:176,1,170,0|10
256,8,84700,6,0,C|248:40|264:88|248:136|256:168,1,170,4|8
256,264,85262,1,0
64,192,86012,2,0,B|72:296|152:328,1,170
240,352,86575,1,10
336,360,86762,1,0
416,136,87512,53,0
320,48,87700,2,0,B|232:80,1,85,2|0
220,84,87981,1,0
200,92,88075,1,8
256,192,88262,2,0,B|168:192,1,85,2|0
148,192,88543,1,0
176,340,88825,2,0,B|88:320,1,85,10|0
72,316,89106,1,0
52,312,89200,1,0
12,192,89387,1,0
72,116,89575,1,10
72,116,89668,1,0
172,116,89856,1,0
172,116,89950,2,0,B|260:116,1,85
364,40,90325,2,0,B|424:40|464:12,2,85,10|0|0
256,116,90887,6,0,B|256:204,1,85,2|8
256,332,91262,1,0
383,332,91450,1,2
129,332,91731,1,2
129,332,91825,1,8
256,200,92012,2,0,B|256:112,1,85,2|0
492,88,92481,1,2
492,88,92575,1,8
396,88,92762,1,0
312,40,92950,1,2
292,40,93043,1,0
272,40,93137,1,8
188,88,93325,1,2
72,40,93512,5,8
64,56,93606,1,0
56,80,93700,2,0,B|40:120|40:168,1,85,2|0
128,212,94075,1,8
220,164,94262,1,0
240,164,94356,1,0
260,164,94450,2,0,B|308:164,2,42.5,0|2|0
240,268,94825,2,0,B|313:341,1,85,10|0
316,344,95106,1,0
330,358,95200,1,0
431,358,95387,1,0
432,256,95575,1,10
432,256,95668,1,0
348,192,95856,1,0
328,192,95950,1,2
264,104,96137,2,0,B|176:104,2,85,2|8|0
348,32,96700,54,0,B|376:72|384:112,1,85,2|2
384,136,96981,1,2
384,160,97075,1,8
352,284,97262,1,0
276,180,97450,2,0,B|268:81|200:33,1,170,2|8
152,152,98012,1,0
112,272,98200,2,0,B|44:224|36:120,1,170,2|8
88,20,98762,1,0
200,16,98950,2,0,B|240:16|240:16|288:16|320:64,2,127.499996200204
256,328,100450,54,0,B|352:328,1,95.624997150153
384,328,100825,2,0,B|424:328|448:304|448:264|448:264|448:112,1,254.999992400408
336,192,101950,2,0,B|336:152|312:120|312:120|336:112|336:112|336:80,1,127.499996200204,2|0
112,56,103450,5,0
40,160,103825,2,0,B|40:240|40:240|40:288|80:328|128:328|128:328|176:328,1,254.999992400408,2|0
296,328,104950,1,0
424,328,105325,1,0
176,264,106075,53,0
51,191,106450,1,0
123,67,106825,2,0,B|163:-2|251:-11|287:69|247:139,1,254.999992400408,2|0
176,264,107950,1,0
256,376,108325,6,0,B|304:376|344:312|416:312|416:368,1,191.249994300306,2|0
256,232,109450,1,2
312,120,109825,2,0,B|288:88|224:88|200:120,1,127.499996200204
96,192,110575,5,0
152,304,110950,1,0
256,376,111325,1,0
360,304,111700,2,0,B|456:304|456:304|488:312,1,127.499996200204
416,192,112450,2,0,B|312:192|312:192|288:184,1,127.499996200204,2|0
112,48,113575,54,0,B|64:64|40:112|72:168,1,127.499996200204
192,192,114325,1,0
224,344,114700,2,0,B|272:360|312:336|324:291,1,127.499996200204
360,112,115450,1,2
272,24,115825,1,0
80,248,116575,5,0
192,312,116950,2,0,B|256:320|256:312|320:312,1,127.499996200204
400,216,117700,1,0
376,88,118075,2,0,B|256:12|136:88,2,254.999992400408,2|4|0
320,208,119950,1,0
192,208,120325,1,0
256,192,120700,12,0,122012
256,192,123512,37,0
312,80,123700,2,0,B|368:104|376:168,1,102.00000243187,14|0
376,280,124075,1,0
256,320,124262,2,2,B|208:292|208:292|192:200|105:187,1,204.000004863739,10|2
80,312,124825,1,8
16,208,125012,1,0
72,104,125200,2,2,B|136:40|136:40|200:80|256:40,1,204.000004863739
448,120,125762,2,2,B|480:208|352:240|360:128|264:216,1,204.000004863739,10|0
208,280,126325,1,10
312,344,126512,5,8
376,352,126606,1,0
436,328,126700,2,6,B|484:296|484:232,1,102.00000243187,6|2
488,120,127075,1,0
392,192,127262,2,2,B|352:144|352:144|304:240|280:176|200:192,1,204.000004863739,10|2
112,176,127825,1,8
40,272,128012,1,0
144,344,128200,2,2,B|208:368|280:352|312:272,1,204.000004863739,10|2
368,40,128762,2,2,B|304:16|232:32|200:112,1,204.000004863739,10|2
224,264,129325,53,8
264,314,129418,1,8
320,344,129512,1,0
384,344,129606,1,0
448,336,129700,2,4,B|496:304|504:248,1,102.00000243187,14|0
504,128,130075,1,0
412,48,130262,2,2,B|372:44|352:80|360:114|360:114|368:148|352:184|303:183,1,204.000004863739,10|2
184,184,130825,1,8
72,144,131012,2,2,B|45:192|72:240,1,102.00000243187,2|10
440,144,131575,2,2,B|467:192|440:240,1,102.00000243187,2|10
376,344,131950,1,0
256,368,132137,1,0
136,344,132325,5,8
80,312,132418,1,8
38,263,132512,1,0
9,206,132606,1,0
2,142,132700,1,6
448,32,133262,2,2,B|512:128|447:223,1,204.000004863739,10|2
160,128,133825,1,8
64,80,134012,2,2,B|32:127|64:175,1,102.00000243187,2|10
424,80,134575,2,2,B|456:127|424:175,1,102.00000243187,2|10
244,352,135137,1,0
148,288,135325,5,8
120,232,135418,1,8
120,168,135512,1,0
152,112,135606,1,0
200,72,135700,2,2,B|248:40|296:40,1,102.00000243187,6|2
416,40,136075,1,0
288,128,136262,2,2,B|256:176|272:232,1,102.00000243187,10|0
304,344,136637,1,2
440,208,136825,2,0,B|408:248|352:272,1,102.00000243187,8|2
208,240,137200,2,2,B|152:248|104:288,1,102.00000243187,10|0
16,360,137575,1,0
160,384,137762,2,2,B|216:376|264:336,1,102.00000243187,10|0
336,256,138137,1,2
336,136,138325,1,2
240,64,138512,53,0
176,48,138606,1,0
112,40,138700,2,0,B|8:40,2,102.00000243187,6|2|0
304,80,139262,2,0,B|416:80,2,102.00000243187,10|0|2
112,128,139825,1,0
112,248,140012,1,2
304,304,140200,2,0,B|416:304,2,102.00000243187,10|0|2
112,344,140762,2,2,B|8:344,2,102.00000243187,10|0|2
304,384,141325,5,10
368,384,141418,1,8
427,361,141512,1,0
468,312,141606,1,0
488,252,141700,2,0,B|496:212|496:148,1,102.00000243187,6|2
496,24,142075,1,0
384,80,142262,2,2,B|352:120|288:120,1,102.00000243187,10|2
168,104,142637,1,0
64,32,142825,1,8
16,150,143012,1,0
40,272,143200,2,2,B|56:400|184:376,1,204.000004863739,10|0
472,272,143762,2,2,B|456:400|328:376,1,204.000004863739,10|0
192,304,144325,5,8
136,272,144418,1,8
94,224,144512,1,2
88,160,144606,1,0
96,96,144700,1,6
416,96,145075,1,10
320,304,145262,1,2
256,8,145637,2,2,B|216:72|256:104|296:136|256:200,1,204.000004863739,10|2
160,320,146200,1,10
436,192,146575,1,2
436,192,146762,1,10
76,192,147137,1,2
136,60,147325,53,10
192,28,147418,1,8
256,16,147512,1,8
320,28,147606,1,0
376,60,147700,1,4
256,192,147793,8,8,150325
256,192,150512,5,8
256,192,150606,1,0
256,192,150700,1,4
256,192,150793,8,8,152762
336,16,153137,5,8
416,96,153325,1,8
384,152,153418,1,8
335,192,153512,1,0
287,234,153606,1,0
256,288,153700,2,2,B|232:352|168:376|80:344,1,204.000004863739,6|2
256,168,154262,2,0,B|232:104|168:80|80:112,1,204.000004863739,10|2
24,228,154825,2,2,B|88:268|120:228|152:188|216:228,1,204.000004863739,10|2
320,288,155387,1,0
432,344,155575,1,2
432,344,155762,1,2
32,160,156325,53,2
112,64,156512,1,10
172,40,156606,1,0
236,32,156700,2,0,B|340:32|412:120,1,204.000004863739,14|10
236,352,157262,2,2,B|340:352|412:264,1,204.000004863739,2|10
508,192,157825,1,2
224,44,158200,6,2,B|132:61|33:192|132:323|224:340,2,408.000009727478,12|10|4
256,192,159887,12,8,161762
256,144,162137,1,0
256,248,162325,1,8
256,272,162418,1,8
256,296,162512,1,0
256,320,162606,1,0
256,344,162700,54,0,B|360:344,1,102.00000243187,4|0
459,230,163075,2,0,B|355:230,1,102.00000243187,0|8
120,40,163637,1,0
240,40,163825,1,8
360,40,164012,1,0
448,128,164200,2,0,B|384:160|384:160|384:192,1,102.00000243187,8|0
384,312,164575,2,0,B|384:342|384:342|320:374,1,102.00000243187,0|8
40,248,165137,5,0
160,248,165325,1,8
272,192,165512,1,0
296,192,165606,1,0
320,192,165700,2,0,B|368:192|368:192|408:152,1,102.00000243187,12|0
320,24,166075,2,0,B|272:24|272:24|232:64,1,102.00000243187,0|8
320,352,166637,1,0
488,272,166825,2,0,B|384:272,1,102.00000243187,8|0
264,272,167200,1,8
168,352,167387,1,0
72,272,167575,1,0
72,152,167762,2,0,B|72:48|72:48|136:80|136:80|184:80,1,204.000004863739,8|0
288,80,168325,5,8
312,80,168418,1,8
336,80,168512,1,0
360,80,168606,1,0
384,80,168700,2,0,B|456:152,1,102.00000243187,12|0
296,312,169075,2,0,B|368:240,1,102.00000243187,0|8
136,40,169637,1,0
56,128,169825,1,8
56,248,170012,1,0
208,240,170200,2,0,B|128:320,1,102.00000243187,8|0
304,144,170575,2,0,B|384:64,1,102.00000243187,0|8
400,328,171137,1,0
220,152,171325,2,0,B|140:72,1,102.00000243187,8|0
104,37,171606,1,8
256,192,171700,12,2,173575
