osu file format v9

[General]
AudioFilename: marina.mp3
AudioLeadIn: 0
PreviewTime: 48900
Countdown: 0
SampleSet: Soft
StackLeniency: 0.7
Mode: 0
LetterboxInBreaks: 0

[Editor]
Bookmarks: 21594,39880,49023,67289,67309,76451,122149,140435,158721,167864
DistanceSpacing: 1
BeatDivisor: 4
GridSize: 4

[Metadata]
Title:Aimai Elegy
Artist:DECO*27 feat. marina
Creator:Mafiamaster
Version:Crazy xier
Source:
Tags:AmatouTrio Love-Lost xierbaliti

[Difficulty]
HPDrainRate:7
CircleSize:4
OverallDifficulty:7
ApproachRate:9
SliderMultiplier:1.8
SliderTickRate:0.5

[Events]
//Background and Video events
Video,0,"marina.avi"
0,0,"aimai.jpg"
//Break Periods
2,77887,82176
//Storyboard Layer 0 (Background)
//Storyboard Layer 1 (Fail)
//Storyboard Layer 2 (Pass)
//Storyboard Layer 3 (Foreground)
//Storyboard Sound Samples
//Background Colour Transformations
3,100,163,162,255

[TimingPoints]
3330,285.714285714286,4,2,1,100,1,0
7901,-100,4,1,1,70,0,0
7972,-100,4,2,1,100,0,0
12472,-100,4,1,1,80,0,0
12544,-100,4,2,1,100,0,0
21620,-100,4,2,1,90,0,0
39263,-100,4,2,1,80,0,0
39477,-100,4,2,1,90,0,0
39906,-100,4,2,1,100,0,0
67335,-100,4,1,2,90,0,1
76477,-100,4,2,1,0,0,0
82776,449.438202247191,7,2,2,60,1,0
83000,-100,7,2,2,40,0,0
83674,-100,7,2,2,60,0,0
84910,-100,7,2,2,40,0,0
85247,-100,7,2,2,60,0,0
86146,-100,7,2,2,40,0,0
86820,-100,7,2,2,60,0,0
87719,-100,7,2,2,40,0,0
89068,-100,7,2,2,90,0,0
92101,-100,7,2,2,83,0,0
92214,-100,7,2,2,97,0,0
93113,-100,7,2,2,90,0,0
95809,-100,7,2,2,100,0,0
96259,-100,7,2,2,90,0,0
97944,-100,7,2,2,55,0,0
98169,-100,7,2,2,90,0,0
99292,-100,7,2,2,60,0,0
99629,-100,7,2,2,55,0,0
99854,-100,7,2,2,90,0,0
101090,-100,7,2,1,90,0,0
101315,-200,7,2,2,80,0,0
101540,-200,7,2,1,0,0,0
101652,-200,7,2,2,50,0,0
102101,-200,7,2,1,0,0,0
103900,285.714285714286,4,2,1,90,1,0
113542,-200,4,2,1,100,0,0
114185,-100,4,2,1,100,0,0
116400,-200,4,2,1,100,0,0
117328,-100,4,2,1,100,0,0
119328,-200,4,2,1,100,0,0
121042,-100,4,2,1,100,0,0
125614,-200,4,2,1,100,0,0
126185,-100,4,2,1,100,0,0
130185,-200,4,2,1,100,0,0
130757,-100,4,2,1,100,0,0
131328,-100,4,1,1,60,0,0
131471,-100,4,2,1,100,0,0
134757,-200,4,2,1,100,0,0
135328,-100,4,2,1,100,0,0
139900,-200,4,2,1,100,0,0
140471,-100,4,1,1,64,0,1
140614,-100,4,1,2,90,0,1
144257,-200,4,2,1,90,0,1
144757,-100,4,2,1,100,0,1
145042,-100,4,1,1,64,0,1
145114,-100,4,1,2,100,0,1
151328,-200,4,1,2,100,0,1
151828,-100,4,1,2,100,0,1
158400,-100,4,1,2,70,0,1
158757,-100,4,1,1,80,0,0
163328,-100,4,1,2,70,0,0
163864,-200,4,1,2,80,0,0
164292,-100,4,1,2,80,0,0
165006,-200,4,1,2,80,0,0
165435,-100,4,1,2,90,0,0
167757,-100,4,2,2,80,0,0

[Colours]
Combo1 : 128,255,128
Combo2 : 255,128,255
Combo3 : 128,0,64
Combo4 : 0,128,255

[HitObjects]
64,144,3330,2,0,B|272:80,1,180,0|8
320,64,3758,1,0
320,64,3901,2,0,B|520:128,1,180,0|8
368,328,4472,6,0,B|336:144,1,180,0|8
320,64,4901,1,0
320,64,5044,2,0,B|144:120,1,180,0|8
136,280,5615,6,0,B|192:192,1,90,0|0
148,120,5901,2,0,B|268:136,1,90,8|0
328,144,6187,1,0
296,232,6330,1,0
384,224,6472,2,0,B|480:200,1,90,8|0
440,120,6758,6,0,B|376:32,1,90,0|0
296,32,7044,1,8
296,32,7187,1,0
296,32,7330,2,0,B|264:104|264:104|216:136|152:120,1,180,0|8
56,304,7901,6,0,B|112:264|208:256,1,135,4|0
224,256,8187,1,8
312,264,8330,1,0
312,264,8472,2,0,B|336:190|336:190|376:164|456:168,1,180,0|8
256,40,9044,6,0,B|224:128|120:120,1,135,0|0
112,120,9329,1,8
24,96,9472,1,0
40,184,9615,2,0,B|56:252|56:252|100:284|176:272,1,180,0|8
244,236,10044,1,8
332,260,10187,6,0,B|428:244,1,90
484,156,10472,1,8
484,156,10615,1,0
204,68,10758,2,0,B|284:100|380:92,1,135,0|0
388,84,11044,1,8
156,132,11329,6,0,B|60:148,1,90
4,236,11615,1,8
4,236,11758,1,0
284,324,11901,2,0,B|204:292|108:300,1,135,0|0
100,308,12187,2,0,B|84:212,1,90,8|0
68,112,12472,5,4
144,188,12615,1,0
180,88,12758,1,8
252,168,12901,1,0
296,68,13044,2,0,B|388:132,1,90
340,224,13329,2,8,B|444:188,1,90
260,316,13615,6,0,B|240:220|136:196,1,180,0|8
32,204,14044,1,0
48,96,14187,1,0
152,124,14329,1,0
164,16,14472,1,8
268,44,14615,1,8
280,256,14758,6,0,B|380:236|408:124,1,180,0|8
208,72,15187,1,0
208,72,15329,6,0,B|108:92|80:204,1,180,0|8
280,272,15758,1,0
280,272,15901,6,0,B|380:252|408:140,1,180,0|8
208,88,16329,1,0
208,88,16472,6,0,B|108:108|80:220,1,180,0|8
280,288,16901,1,0
280,288,17044,6,0,B|388:272,1,90,0|0
456,212,17329,1,8
456,212,17472,1,0
460,104,17615,5,0
332,144,17758,1,0
196,128,17901,1,8
196,128,18187,6,0,B|108:76,1,90
12,68,18472,1,8
12,68,18615,1,0
28,176,18758,5,0
116,276,18901,1,0
248,296,19044,1,8
248,296,19329,6,0,B|368:280,1,90
436,264,19615,1,8
436,264,19758,1,0
368,76,19901,6,0,B|344:172,1,90
320,260,20187,1,8
320,260,20329,1,8
168,132,20472,6,0,B|288:160,1,90
352,172,20758,1,8
352,172,20901,1,0
352,172,21044,1,0
352,172,21187,1,0
352,172,21329,1,8
352,172,21472,1,8
352,172,21615,6,0,B|272:224|172:192,1,180,0|8
108,156,22044,1,0
176,108,22187,2,0,B|244:192|216:292,1,180,0|8
384,276,22615,1,0
384,276,22758,6,0,B|344:184|416:72,1,180,0|8
348,40,23187,1,0
304,140,23330,1,0
220,208,23472,1,2
116,232,23615,1,8
12,208,23758,1,0
52,108,23901,6,0,B|144:156|232:136,1,180,0|8
304,112,24330,1,0
352,48,24472,2,0,B|400:108|480:96,1,135
471,97,24758,1,8
484,176,24901,1,0
468,256,25044,6,0,B|384:224|284:236,1,180,0|8
212,248,25472,1,0
68,64,25758,1,0
196,112,25901,1,8
88,192,26044,1,0
212,248,26187,6,0,B|280:176|380:180,1,180,0|8
456,212,26615,1,0
420,128,26758,1,0
72,116,27044,1,8
140,172,27187,1,0
136,84,27330,2,0,B|220:56|328:72,1,180,0|8
352,152,27758,1,2
444,152,27901,2,0,B|456:108|508:88,2,90,0|2|8
108,296,28472,6,0,B|168:232|288:248,1,180,0|8
360,276,28901,1,0
380,188,29044,2,0,B|276:176,1,90
200,164,29330,1,8
180,76,29472,1,0
176,88,29615,5,0
304,224,29901,1,8
172,104,30187,5,6
132,232,30330,1,0
224,328,30472,1,8
344,264,30615,1,8
312,132,30758,6,0,B|400:152,1,90
484,184,31044,1,8
436,260,31187,1,0
436,260,31258,2,0,B|296:248,1,135
144,156,31615,1,8
108,76,31758,1,0
196,52,31901,2,0,B|332:72,1,135
372,80,32187,1,8
388,168,32330,1,0
344,248,32472,2,0,B|300:160|184:172,1,180,0|8
64,48,33044,6,0,B|68:140,1,90
80,228,33330,2,0,B|140:152|248:156,1,180,8|0
344,176,33758,1,0
272,92,33901,1,8
236,196,34044,1,0
324,132,34187,5,0
152,260,34472,1,8
408,60,34758,1,0
68,328,35044,1,10
256,192,35330,5,0
256,192,35401,1,0
48,64,35615,1,8
48,64,35687,2,0,B|208:44,1,135
288,36,36044,1,2
324,140,36187,1,8
256,224,36330,1,0
160,180,36472,5,0
160,180,36544,1,0
376,68,36758,1,8
268,80,36901,1,0
176,136,37044,1,0
100,60,37187,1,2
24,136,37330,1,8
308,336,37615,6,0,B|252:256|168:264,1,135
152,268,37901,1,8
60,272,38044,1,0
76,112,38187,2,0,B|144:172|228:160,1,135
240,148,38472,1,8
320,192,38615,1,0
396,144,38758,5,0
116,144,39044,1,8
336,300,39330,1,4
176,300,39615,1,0
256,40,39901,6,0,B|204:128|88:88,1,180,2|8
24,40,40330,1,0
48,220,40615,2,0,B|36:128,1,90,0|8
256,40,41044,6,0,B|308:128|424:88,1,180,2|8
488,40,41472,1,2
464,220,41758,2,0,B|476:128,1,90,0|8
156,56,42187,6,0,B|176:160,1,90,2|0
192,232,42472,1,8
356,56,42758,6,0,B|336:160,1,90,2|0
320,232,43044,1,8
156,56,43330,5,2
172,144,43472,1,0
188,232,43615,1,8
208,320,43758,1,2
304,320,43901,1,2
324,232,44044,1,0
339,144,44187,1,8
356,56,44330,1,8
440,88,44472,6,0,B|404:64|352:56,1,90,2|0
344,164,44758,1,8
364,268,44901,1,0
268,320,45044,2,0,B|224:304|164:308,1,90,2|0
36,200,45330,2,0,B|80:216|140:212,1,90,8|0
208,144,45615,5,2
208,144,45901,2,0,B|248:112|304:112,1,90,8|0
400,116,46187,1,2
456,208,46330,1,2
456,208,46401,1,0
456,208,46472,2,0,B|400:196|356:232,1,90,8|0
280,284,46758,6,0,B|180:280,1,90,2|0
84,300,47044,1,8
48,140,47187,1,2
136,204,47330,6,0,B|228:152,1,90
296,88,47615,1,8
448,148,47758,1,2
344,172,47901,6,0,B|304:140|240:120,1,90,0|2
224,148,48115,1,2
180,156,48187,2,0,B|132:216|136:264,1,90,8|0
204,296,48472,5,2
348,296,48615,1,2
232,208,48758,1,8
276,344,48901,1,8
312,200,49044,6,0,B|364:172|448:176,1,135
443,175,49330,2,0,B|500:60,1,90,8|0
392,100,49615,1,0
312,60,49758,1,0
264,136,49901,1,8
180,104,50044,1,0
92,120,50187,6,0,B|84:176|108:224,1,90
168,352,50472,2,0,B|176:296|152:248,1,90,8|0
244,232,50758,1,0
244,232,50830,1,0
328,200,50972,1,0
328,200,51044,1,8
416,212,51187,1,0
504,208,51330,6,0,B|464:124,1,90
416,212,51615,2,0,B|332:160,1,90,8|0
332,256,51901,2,0,B|224:276,1,90
260,360,52187,1,8
260,360,52330,1,0
260,360,52472,2,0,B|172:340|100:264,1,180,0|8
160,196,52901,1,0
236,244,53044,2,0,B|252:180|212:68,1,180,0|8
232,64,53401,1,0
248,60,53472,1,0
264,52,53544,1,0
280,44,53615,6,0,B|332:84|412:72,1,135,2|0
452,60,53901,1,8
472,148,54044,1,0
100,316,54330,1,0
188,316,54472,1,8
184,224,54615,1,0
264,260,54758,6,0,B|340:208|440:228,1,180,0|8
496,296,55187,1,0
408,308,55330,2,0,B|384:212|280:156,1,180,0|8
220,136,55758,1,0
132,112,55901,6,0,B|36:120,1,90
100,192,56187,2,0,B|204:192,1,90,8|0
228,112,56472,2,0,B|283:142|360:136,1,135
358,136,56758,2,0,B|380:236,1,90,8|0
396,312,57044,5,0
116,72,57330,1,8
56,348,57615,5,0
456,36,57901,1,8
436,124,58044,5,0
428,152,58115,1,0
412,180,58187,2,0,B|336:236|232:208,1,180,0|8
156,176,58615,1,0
220,112,58758,2,0,B|224:192|200:244,1,135
199,245,59044,2,0,B|288:308,1,90,8|0
360,320,59330,6,0,B|388:232|488:192,1,180,0|8
424,124,59758,1,0
448,36,59901,2,0,B|392:44|344:32,1,90
200,104,60187,2,0,B|256:116|312:104,1,90,8|0
324,192,60472,6,0,B|284:276|172:280,1,180,0|8
88,280,60901,1,0
76,192,61044,1,0
76,192,61115,1,0
16,124,61258,1,0
16,124,61330,1,8
96,80,61472,1,0
28,20,61615,6,0,B|144:-8,1,90
96,80,61901,2,0,B|184:88,1,90,8|0
184,180,62187,1,0
304,116,62330,1,0
396,216,62472,1,8
332,336,62615,1,8
200,304,62758,6,0,B|160:220|40:228,1,180,0|8
64,140,63187,2,0,B|28:116|16:60,2,90
148,168,63615,1,8
228,208,63758,1,0
312,180,63901,2,0,B|376:128|472:152,1,135
484,156,64187,1,8
472,68,64330,1,0
384,60,64472,2,0,B|320:88|208:64,1,135
208,56,64758,1,8
128,300,65044,6,0,B|160:208|104:104,1,180,0|8
344,304,65615,2,0,B|252:276|144:304,1,180,0|8
396,124,66187,2,4,B|368:216|388:316,2,180
360,40,66901,2,0,B|256:56,1,90,0|8
44,296,67330,6,0,B|152:296|216:208,1,180,2|8
212,136,67758,1,2
392,160,67901,5,0
392,160,68044,2,0,B|292:104,2,90,0|8|0
436,260,68472,2,0,B|344:232|232:244,1,180,2|8
172,268,68901,1,2
196,88,69044,5,0
196,88,69187,2,0,B|184:176,2,90,0|8|8
268,32,69615,2,0,B|312:108|432:104,1,180,2|8
508,76,70044,1,2
472,252,70187,5,0
472,252,70330,2,0,B|464:144,2,90,0|8|0
468,340,70758,2,0,B|384:296|252:304,1,180,2|8
204,312,71187,1,2
228,136,71330,5,0
228,136,71472,2,0,B|252:232,2,90,0|8|8
180,60,71901,2,0,B|136:152|28:148,1,180,2|8
52,236,72330,1,2
220,304,72472,5,0
220,304,72615,2,0,B|112:312,2,90,0|8|8
312,296,73044,2,0,B|348:200|456:176,1,180,2|8
448,92,73472,1,2
276,36,73615,5,0
276,36,73758,2,0,B|392:48,2,90,0|8|0
184,28,74187,2,0,B|152:124|36:136,1,180,2|8
44,224,74615,1,2
212,288,74758,5,0
212,288,74901,2,0,B|112:296,2,90,0|8|8
300,276,75329,2,0,B|288:212|288:212|336:152|428:156,1,180,2|8
212,108,75758,2,0,B|224:172|224:172|176:232|84:228,1,180,2|8
300,276,76187,1,8
300,276,76329,1,8
256,192,76472,12,0,77687
256,184,82776,5,4
184,184,83113,1,2
316,148,83450,1,2
220,80,83899,1,0
220,80,84124,1,8
220,80,84349,5,4
160,344,84686,1,4
416,264,85023,1,2
256,224,85472,1,0
256,224,85697,1,8
256,224,85922,5,4
192,276,86259,1,2
340,232,86596,1,2
288,344,87045,1,0
288,344,87270,1,8
288,344,87495,5,4
92,160,87832,1,2
348,80,88169,1,2
236,160,88618,1,0
268,264,88843,1,8
268,264,88955,1,8
268,264,89068,6,0,B|408:276,1,135,4|8
456,280,89517,1,4
488,176,89742,1,8
380,164,89967,1,8
172,108,90191,6,0,B|72:136,2,90,0|8|4
432,40,90978,1,4
468,308,91315,1,4
256,276,91540,2,0,B|344:312,2,90,8|0|8
230,267,92101,1,8
204,257,92214,5,4
280,112,92551,1,4
120,140,92888,1,4
188,56,93113,1,8
204,164,93337,1,0
308,188,93562,1,8
228,264,93787,5,4
488,196,94124,1,4
288,16,94461,1,4
328,152,94686,1,8
224,124,94910,1,0
128,176,95135,1,8
128,176,95247,1,8
128,176,95360,6,0,B|184:312,1,135,4|8
200,352,95809,1,4
308,356,96034,1,4
252,264,96259,1,8
392,100,96483,6,0,B|484:64,2,90,4|8|4
132,180,97270,1,4
336,356,97607,1,4
276,188,97832,1,8
208,104,98056,1,2
316,84,98281,1,8
232,152,98506,5,4
80,96,98843,1,4
100,256,99180,1,4
312,284,99405,1,8
312,284,99517,1,8
312,284,99629,6,0,B|436:316,2,90,2|8|4
196,40,100416,1,4
128,300,100753,1,4
184,208,100978,1,8
80,176,101202,1,8
176,128,101427,2,0,B|328:96,1,135,8|0
76,112,103900,6,0,B|180:96,1,90,2|0
248,80,104185,1,8
436,272,104471,2,0,B|332:288,1,90
264,304,104757,1,8
188,252,104899,1,0
240,180,105042,2,0,B|140:172|112:68,1,180,0|8
192,24,105471,1,0
240,100,105614,2,0,B|184:184|76:168,1,180,0|8
424,318,106185,6,0,B|368:247|385:124,1,180,0|8
406,59,106614,1,0
469,122,106757,2,0,B|379:81|280:88,1,180,0|8
204,98,107185,1,0
119,65,107328,5,0
393,319,107614,1,8
185,128,107899,5,0
235,281,108042,1,0
335,153,108185,1,8
184,213,108328,1,0
29,163,108471,6,0,B|73:85|182:73,1,180,0|8
267,71,108899,1,0
349,106,109042,2,0,B|393:83|448:87,2,90,0|0|8
410,297,109614,6,0,B|331:262|218:283,1,180,0|8
145,299,110042,1,0
104,218,110185,1,0
194,216,110328,1,0
121,269,110471,1,8
141,181,110614,1,0
184,260,110757,6,0,B|347:228,1,135
360,225,111042,1,8
447,204,111185,1,0
386,137,111328,2,0,B|254:74,1,135
224,56,111614,1,8
220,68,111757,5,0
216,80,111899,5,0
296,304,112185,1,8
212,92,112471,5,0
188,224,112614,1,0
296,304,112757,1,12
488,112,113042,6,0,B|432:192|316:172,1,180,0|8
240,152,113471,1,0
168,96,113614,2,0,B|120:76|68:80,1,90,0|8
56,328,114185,6,0,B|152:284|268:312,1,180,0|8
320,324,114614,1,0
408,320,114757,2,0,B|444:296|496:300,2,90,0|0|8
364,44,115328,6,0,B|328:160|212:128,1,180,0|8
140,140,115757,1,0
152,228,115899,2,0,B|136:300|64:320,2,135,0|0|0
244,224,116471,6,0,B|260:312,1,90,2|8
368,40,117042,2,0,B|456:24,1,90,2|8
496,104,117471,1,0
464,188,117614,6,0,B|380:144|284:160,1,180,0|8
200,180,118042,1,0
44,36,118328,1,0
44,144,118471,1,8
140,96,118614,1,0
128,204,118757,2,0,B|176:288|292:280,1,180,0|8
388,260,119185,1,0
440,164,119328,2,0,B|432:64,1,90,0|8
328,44,119899,6,0,B|232:56,1,90,0|8
184,60,120328,1,0
184,340,120471,6,0,B|280:328,1,90,0|8
328,324,120899,1,2
184,60,121042,5,0
328,324,121328,1,8
456,80,121614,5,4
56,304,121899,1,8
56,304,122042,1,8
56,304,122185,6,0,B|240:288,1,180,6|8
368,164,122614,1,0
368,164,122757,2,0,B|476:192,2,90,0|0|8
280,140,123185,1,0
232,64,123328,2,0,B|160:136|68:108,1,180,0|8
100,284,123757,5,0
184,316,123899,2,0,B|280:304,1,90,2|0
340,244,124185,2,0,B|440:272,1,90,8|0
512,300,124471,1,2
444,72,124757,6,0,B|388:148|280:128,1,180,8|0
196,108,125185,1,0
116,152,125328,1,8
28,132,125471,1,0
484,252,125757,2,0,B|392:228,1,90,0|2
312,204,126185,5,0
96,40,126471,1,8
72,308,126757,2,0,B|96:216|204:200,1,180,0|8
392,96,127185,1,0
392,96,127328,6,0,B|492:80,2,90,0|0|8
304,120,127757,1,0
232,68,127899,2,0,B|176:132|56:116,1,180,2|8
144,280,128328,1,0
144,280,128471,6,0,B|52:304,2,90,0|0|8
232,304,128899,1,0
308,260,129042,2,0,B|376:200|484:212,1,180,2|8
420,284,129471,2,0,B|396:180|312:140,1,180,2|0
236,104,129899,1,8
264,312,130185,6,0,B|244:220,1,90,2|4
212,100,130757,2,0,B|128:136|32:124,2,180,0|8|4
328,136,131614,1,8
424,52,131899,6,0,B|428:144|488:228,1,180,0|8
400,256,132328,1,0
428,340,132471,2,0,B|328:316|220:324,1,180,2|8
84,44,133042,6,0,B|184:68|292:60,1,180,0|8
256,152,133471,1,0
324,208,133614,2,0,B|228:240|160:324,1,180,2|8
20,116,134185,6,0,B|104:172,1,90
172,216,134471,1,8
260,204,134614,1,0
448,64,134899,6,0,B|344:84,1,90,0|2
272,100,135328,1,2
16,192,135614,1,8
224,368,135899,2,0,B|216:276|120:196,1,180,0|8
216,52,136328,5,0
292,104,136471,2,0,B|352:188,1,90,2|0
272,228,136757,2,0,B|308:320,1,90,8|0
384,356,137042,2,0,B|400:244|504:200,1,180,2|8
376,64,137471,5,0
292,100,137614,2,0,B|184:84,1,90,0|0
132,32,137899,2,0,B|40:72,1,90,8|0
16,152,138185,2,0,B|88:208|91:264|91:264|164:240,1,180,2|8
204,200,138614,1,0
268,264,138757,1,0
332,204,138899,2,0,B|352:120|352:120|388:86|456:84,1,180
437,85,139257,1,0
437,85,139328,1,8
364,32,139471,6,0,B|176:52,1,180,2|0
104,300,139900,2,0,B|208:292,1,90,8|8
193,293,140471,5,4
352,192,140757,1,8
296,272,140899,2,0,B|216:224|232:160|283:102,1,180,2|0
352,192,141328,1,8
416,264,141471,1,0
248,196,141614,2,0,B|192:220|152:212|88:188|104:124,1,180,2|8
296,272,142042,2,0,B|344:248|448:256|464:352,1,180
476,140,142471,5,8
436,60,142614,1,0
352,32,142757,2,0,B|299:-5|235:4|202:48|184:89,1,180,2|8
188,156,143185,1,0
136,328,143328,2,0,B|96:304|104:248,1,90
116,160,143614,1,8
152,76,143757,1,0
220,16,143899,5,2
268,92,144042,1,0
252,180,144185,1,8
256,272,144328,2,0,B|256:360,1,90,2|0
256,362,144757,5,8
336,336,144899,1,0
416,368,145042,2,0,B|464:288|432:184,1,180,4|8
256,40,145471,2,0,B|208:120|240:224,1,180
320,248,145899,1,8
352,168,146042,1,0
416,112,146185,6,0,B|360:40|240:40,1,180,2|8
80,144,146614,2,0,B|136:216|256:216,1,180
256,128,147042,5,8
160,96,147185,1,0
80,144,147328,2,0,B|80:256|176:296,1,180,2|8
347,290,147757,2,0,B|432:256|432:144,1,180
256,232,148185,2,0,B|256:344,2,90,8|0|0
256,56,148757,1,8
256,144,148899,1,0
256,144,149185,5,0
256,232,149328,1,8
256,320,149471,1,8
256,320,149614,6,0,B|256:128,1,180,2|8
256,56,150042,1,0
176,104,150328,5,0
256,56,150471,1,8
336,104,150614,1,8
408,192,150757,2,0,B|424:232|424:232|408:280,2,90,0|0|8
320,240,151185,1,0
32,156,151471,6,0,B|124:192,1,90,2|0
200,220,151900,2,0,B|368:124,1,180,2|8
432,84,152328,1,0
380,304,152614,6,0,B|480:336,2,90,0|8|0
292,284,153042,2,0,B|264:184|148:172,1,180,2|8
172,264,153471,2,0,B|276:240|312:120,1,180,2|0
140,68,153900,5,8
228,64,154042,1,0
316,84,154185,2,0,B|308:152|328:192|364:212|364:212|408:196,1,180,2|8
456,268,154614,2,0,B|420:296|420:296|364:300,2,90
416,92,155042,5,8
348,152,155185,1,0
264,124,155328,2,0,B|164:92|80:132,1,180,2|8
48,48,155757,2,0,B|91:37|91:37|144:52,2,90
24,228,156185,5,8
108,260,156328,1,8
184,208,156471,2,0,B|200:256|256:264|304:252|304:252|324:220,1,180,2|8
380,148,156900,2,0,B|344:112|344:112|296:104,2,90
448,316,157328,5,8
360,304,157471,1,0
272,328,157614,2,0,B|176:320|120:224,1,180,2|8
140,56,158042,2,0,B|232:72|308:172,1,180,2|8
296,176,158400,1,0
300,202,158471,1,0
308,227,158542,1,0
317,252,158614,1,0
328,276,158685,1,0
346,295,158757,6,4,B|420:355|528:307,1,180
166,89,159328,2,4,B|92:29|-16:77,1,180
79,140,159900,5,0
112,242,160185,1,0
217,219,160471,1,0
197,112,160757,1,0
298,77,161042,6,4,B|391:51|488:71,1,180
214,307,161614,2,4,B|121:333|24:313,1,180
109,236,162185,5,0
180,32,162471,1,0
385,97,162757,1,0
319,302,163042,1,0
352,88,163328,6,0,B|440:72,2,90,8|0|8
264,112,163757,1,0
52,288,163900,2,0,B|68:192,1,90,8|8
352,304,164471,6,0,B|448:328,2,90,8|0|8
264,280,164900,1,0
288,60,165042,2,0,B|200:68,1,90,8|8
108,80,165471,1,0
100,168,165614,6,0,B|72:264,1,90,8|0
48,340,165900,1,8
48,340,166185,5,8
464,44,166471,1,8
452,132,166614,1,0
364,112,166757,6,0,B|256:120,1,90,8|0
184,124,167042,1,8
184,124,167328,5,8
328,260,167614,2,0,B|212:240,1,90,8|4
