osu file format v9

[General]
AudioFilename: 02 - Love Distance Long Affair.mp3
AudioLeadIn: 1996
PreviewTime: 89035
Countdown: 0
SampleSet: Soft
StackLeniency: 0.7
Mode: 0
LetterboxInBreaks: 1

[Editor]
Bookmarks: 41142,68571,109714,152571,180000,221142
DistanceSpacing: 0
BeatDivisor: 2
GridSize: 8

[Metadata]
Title:Love Distance Long Affair
Artist:DECO*27 feat. Topi
Creator:Garven
Version:PoLKs
Source:
Tags:LKs Pokie Sumisola sherrie__fay Agnes Sushi

[Difficulty]
HPDrainRate:6
CircleSize:4
OverallDifficulty:6
ApproachRate:8
SliderMultiplier:1.6
SliderTickRate:1

[Events]
//Background and Video events
0,0,"717274.jpg"
//Break Periods
2,27631,40395
2,99631,108967
//Storyboard Layer 0 (Background)
//Storyboard Layer 1 (Fail)
//Storyboard Layer 2 (Pass)
//Storyboard Layer 3 (Foreground)
Sprite,Foreground,Centre,"SB\L&P\LP1.png",320,240 M,0,857,,156,104 F,0,857,2142,0,1 F,0,3000,4285,1,0
Sprite,Foreground,Centre,"SB\L&P\LP2.png",320,240 M,0,4285,,156,104 F,0,4285,5571,0,1 F,0,5571,6428,1 F,0,6428,7714,1,0
Sprite,Foreground,Centre,"SB\L&P\LP3.png",320,240 M,0,7714,,156,104 F,0,7714,9000,0,1 F,0,9000,9857,1 F,0,9857,,1 F,0,9857,13714,1,0
Sprite,Foreground,Centre,"SB\L&P\LP4.png",320,240 M,0,14571,,156,104 F,0,14571,15857,0,1 F,0,15857,16714,1 F,0,16714,18000,1,0
Sprite,Foreground,Centre,"SB\L&P\LP5.png",320,240 F,0,18000,19285,0,1 M,0,18857,,156,104 F,0,19285,19928,1 F,0,19928,21214,1,0
Sprite,Foreground,Centre,"SB\L&P\LP7.png",320,240 M,0,24857,,156,104 F,0,24857,26142,0,1 F,0,26142,27428,1 F,0,27428,29142,1,0
Sprite,Foreground,Centre,"SB\L&P\LP6.png",320,240 M,0,21214,,156,104 F,0,21214,22285,0,1 F,0,22285,23142,1 F,0,23142,24428,1,0
Sprite,Foreground,Centre,"SB\L&P\LP9.png",320,240 M,0,42000,,156,104 F,0,42000,43285,0,1 F,0,43285,43714,1 F,0,43714,45000,1,0
Sprite,Foreground,Centre,"SB\L&P\LP2A.png",320,240 M,0,48857,,156,104 F,0,48857,50142,0,1 F,0,50142,53142,1 F,0,53142,55285,1,0
Sprite,Foreground,Centre,"SB\L&P\LP1A.png",320,240 M,0,45428,,156,104 F,0,45428,46714,0,1 F,0,46714,47142,1 F,0,47142,48428,1,0
Sprite,Foreground,Centre,"SB\L&P\LP8.png",320,240 M,0,55714,,156,104 F,0,55714,57000,0,1 F,0,57000,57642,1 F,0,57642,58928,1,0
Sprite,Foreground,Centre,"SB\L&P\LP3A.png",320,240 M,0,58928,,156,104 F,0,58928,60214,0,1 F,0,60214,60857,1 F,0,60857,62142,1,0
Sprite,Foreground,Centre,"SB\L&P\LP4A.png",320,240 M,0,62357,,156,104 F,0,62357,63642,0,1 F,0,63642,66000,1 F,0,66000,68142,1,0
Sprite,Foreground,Centre,"SB\L&P\LPA1.png",320,240 M,0,68571,,156,104 F,0,68571,69857,0,1 F,0,69857,70285,1 F,0,70285,71571,1,0
Sprite,Foreground,Centre,"SB\L&P\LPA2.png",320,240 M,0,72000,,156,104 F,0,72000,73285,0,1 F,0,73285,73714,1 F,0,73714,75000,1,0
Sprite,Foreground,Centre,"SB\L&P\LPA3.png",320,240 M,0,75428,,156,104 F,0,75428,76714,0,1 F,0,76714,77142,1 F,0,77142,78428,1,0
Sprite,Foreground,Centre,"SB\L&P\LPA4.png",320,240 M,0,78857,,156,104 F,0,78857,80142,0,1 F,0,80142,80571,1 F,0,80571,81857,1,0
Sprite,Foreground,Centre,"SB\L&P\LPA5.png",320,240 M,0,82285,,156,104 F,0,82285,83571,0,1 F,0,83571,84000,1 F,0,84000,85285,1,0
Sprite,Foreground,Centre,"SB\L&P\LPA6.png",320,240 M,0,85714,,156,104 F,0,85714,87000,0,1 F,0,87000,87428,1 F,0,87428,88714,1,0
Sprite,Foreground,Centre,"SB\L&P\LPA7.png",320,240 M,0,89142,,156,104 F,0,89142,90428,0,1 F,0,90428,94285,1 F,0,94285,97714,1,0
Sprite,Foreground,Centre,"SB\L&P\LPB1.png",320,240 M,0,109714,,156,104 F,0,109714,111000,0,1 F,0,111000,111428,1 F,0,111428,112714,1,0
Sprite,Foreground,Centre,"SB\L&P\LPB2.png",320,240 M,0,113142,,156,104 F,0,113142,114428,0,1 F,0,114428,114857,1 F,0,114857,116142,1,0
Sprite,Foreground,Centre,"SB\L&P\LPB3.png",320,240 M,0,116571,,156,104 F,0,116571,117857,0,1 F,0,117857,118285,1 F,0,118285,,1 F,0,118285,120000,1,0
Sprite,Foreground,Centre,"SB\L&P\LPB4.png",320,240 M,0,120000,,156,104 F,0,120000,121285,0,1 F,0,121285,122142,1 F,0,122142,123428,1,0
Sprite,Foreground,Centre,"SB\L&P\LPC1.png",320,240 M,0,124285,,156,104 F,0,124285,125142,0,1 F,0,125142,126642,1 F,0,126642,127500,1,0
Sprite,Foreground,Centre,"SB\L&P\LPC2.png",320,240 L,3215,1 M,0,124285,,156,104 F,0,124285,125142,0,1 F,0,125142,126642,1 F,0,126642,127500,1,0
Sprite,Foreground,Centre,"SB\L&P\LPC3.png",320,240 L,6857,1 M,0,124285,,156,104 F,0,124285,125142,0,1 F,0,125142,126642,1 F,0,126642,127500,1,0
Sprite,Foreground,Centre,"SB\L&P\LPC4.png",320,240 L,10286,1 M,0,124285,,156,104 F,0,124285,125142,0,1 F,0,125142,126642,1 F,0,126642,127500,1,0
Sprite,Foreground,Centre,"SB\L&P\LPC5.png",320,240 L,13715,1 M,0,124285,,156,104 F,0,124285,125142,0,1 F,0,125142,126642,1 F,0,126642,127500,1,0
Sprite,Foreground,Centre,"SB\L&P\LPC6.png",320,240 L,17143,1 M,0,124285,,156,104 F,0,124285,125142,0,1 F,0,125142,126642,1 F,0,126642,127500,1,0
Sprite,Foreground,Centre,"SB\L&P\LPC7.png",320,240 L,20572,1 M,0,124285,,156,104 F,0,124285,125142,0,1 F,0,125142,126642,1 F,0,126642,127500,1,0
Sprite,Foreground,Centre,"SB\L&P\LPC8.png",320,240 L,24000,1 M,0,124285,,156,104 F,0,124285,125142,0,1 F,0,125142,126642,1 F,0,126642,127500,1,0
Sprite,Foreground,Centre,"SB\L&P\LPD1.png",320,240 L,55715,1 M,0,124285,,156,104 F,0,124285,125142,0,1 F,0,125142,126642,1 F,0,126642,127500,1,0
Sprite,Foreground,Centre,"SB\L&P\LPD2.png",320,240 L,59143,1 M,0,124285,,156,104 F,0,124285,125142,0,1 F,0,125142,126642,1 F,0,126642,127500,1,0
Sprite,Foreground,Centre,"SB\L&P\LPD3.png",320,240 L,62572,1 M,0,124285,,156,104 F,0,124285,125142,0,1 F,0,125142,126642,1 F,0,126642,127500,1,0
Sprite,Foreground,Centre,"SB\L&P\LPD4.png",320,240 L,66000,1 M,0,124285,,156,104 F,0,124285,125142,0,1 F,0,125142,126642,1 F,0,126642,127500,1,0
Sprite,Foreground,Centre,"SB\L&P\LPD5.png",320,240 L,69429,1 M,0,124285,,156,104 F,0,124285,125142,0,1 F,0,125142,126642,1 F,0,126642,127500,1,0
Sprite,Foreground,Centre,"SB\L&P\LPD6.png",320,240 L,72857,1 M,0,124285,,156,104 F,0,124285,125142,0,1 F,0,125142,126642,1 F,0,126642,127500,1,0
Sprite,Foreground,Centre,"SB\L&P\LPD7.png",320,240 L,76286,1 M,0,124285,,156,104 F,0,124285,125142,0,1 F,0,125142,126642,1 F,0,126642,127500,1,0
Sprite,Foreground,Centre,"SB\L&P\LPD8.png",320,240 L,79715,1 M,0,124285,,156,104 F,0,124285,125142,0,1 F,0,125142,126642,1 F,0,204857,206357,1 F,0,206357,209142,1,0
Sprite,Foreground,Centre,"SB\L&P\LPE1.png",320,240 M,0,260142,,156,104 F,0,260142,261428,0,1 F,0,261428,269142,1 F,0,269142,270857,1,0
Sprite,Foreground,Centre,"SB\4.png",320,280 F,0,0,860,0,1 F,0,27431,28288,1,0 S,0,27458,28288,1,1.3
Sprite,Foreground,Centre,"SB\3.png",320,280 L,0,2 V,0,41145,41253,1,1,1.05,1 V,0,41253,41360,1.05,1,1,1 V,0,41360,41574,1,1 F,0,41145,68574,1
Sprite,Foreground,Centre,"SB\4.png",320,280 L,-107,63 S,0,69003,69110,1,1.1 S,0,69110,69217,1.1,1 S,0,69217,69431,1 S,0,68574,68681,1,1.3 S,0,68681,68788,1.3,1 S,0,68788,69003,1 S,0,95967,96860,1,1.3 F,0,96003,96860,1,0
Sprite,Foreground,Centre,"SB\3.png",320,280 L,0,1 V,0,109717,109824,1,1,1.05,1 V,0,109824,109931,1.05,1,1,1 V,0,109931,110145,1,1 V,0,150805,151717,1,1,1.3,1.3 F,0,150860,151717,1,0
Sprite,Foreground,Centre,"SB\4.png",320,280 L,0,32 F,0,166288,166395,1,0.7 F,0,166395,166502,0.7,1 F,0,166502,166717,1 F,0,152574,153431,0,1 F,0,153431,166288,1 V,0,180002,180110,1,1,0.1,1
Sprite,Foreground,Centre,"SB\3.png",320,280 L,-107,95 V,0,180431,180538,1,1,1.05,1 V,0,180538,180645,1.05,1,1,1 V,0,180645,180860,1,1 V,0,180110,180217,0.1,1,1,1 V,0,220971,221186,1,1 V,0,221186,221253,1,1 V,0,221253,221360,1,1,0.1,1.01024
Sprite,Foreground,Centre,"SB\4.png",320,280 L,0,95 V,0,221574,221681,1,1,1.1,1.1 V,0,221681,221788,1.1,1.1,1,1 V,0,221788,222003,1,1 V,0,221360,221467,0.1,1,1,1 V,0,221467,221574,1,1 V,0,262114,262329,1,1 F,0,262288,263145,1,0 V,0,262329,263145,1,1,1.3,1.3
//Storyboard Sound Samples
//Background Colour Transformations
3,100,163,162,255

[TimingPoints]
3,428.571428571429,4,2,2,50,1,0
3,-133.333333333333,4,2,2,40,0,0
13717,-100,4,2,2,50,0,0
15003,-100,4,1,2,50,0,0
15217,-100,4,2,2,50,0,0
16717,-100,4,1,2,50,0,0
16931,-100,4,2,2,50,0,0
18431,-100,4,1,2,50,0,0
18645,-100,4,2,2,50,0,0
20145,-100,4,1,2,50,0,0
20360,-100,4,2,2,50,0,0
21860,-100,4,1,2,50,0,0
22074,-100,4,2,2,50,0,0
23574,-100,4,1,2,50,0,0
23788,-100,4,2,2,50,0,0
25288,-100,4,1,2,50,0,0
25503,-100,4,2,2,50,0,0
25931,-100,4,1,2,30,0,0
26145,-100,4,1,2,33,0,0
26360,-100,4,1,2,36,0,0
26574,-100,4,1,2,42,0,0
26788,-100,4,1,2,45,0,0
27003,-100,4,1,2,48,0,0
27217,-100,4,1,2,50,0,0
41788,-100,4,2,1,50,0,0
42431,-100,4,1,2,50,0,0
42860,-100,4,2,1,50,0,0
43288,-100,4,1,2,50,0,0
43503,-100,4,2,1,50,0,0
44145,-100,4,1,2,50,0,0
44574,-100,4,1,2,42,0,0
44895,-100,4,2,1,50,0,0
45003,-100,4,1,2,50,0,0
45217,-100,4,2,2,50,0,0
45860,-100,4,1,2,50,0,0
46288,-100,4,2,2,50,0,0
46717,-100,4,1,2,50,0,0
46931,-100,4,2,2,50,0,0
47574,-100,4,1,2,50,0,0
48003,-100,4,1,2,42,0,0
48324,-100,4,2,2,50,0,0
48431,-100,4,1,2,50,0,0
48645,-100,4,2,2,50,0,0
49288,-100,4,1,2,50,0,0
49503,-100,4,2,2,50,0,0
50145,-100,4,1,2,50,0,0
50360,-100,4,2,2,50,0,0
51003,-100,4,1,2,50,0,0
51324,-100,4,2,2,50,0,0
51431,-100,4,1,2,42,0,0
51645,-100,4,2,2,50,0,0
51860,-100,4,1,2,50,0,0
52931,-100,4,2,2,50,0,0
53145,-100,4,1,2,50,0,0
53360,-100,4,1,2,38,0,0
53574,-100,4,1,2,50,0,0
53788,-100,4,1,2,42,0,0
54003,-100,4,1,2,50,0,0
54217,-100,4,1,2,45,0,0
54431,-100,4,1,2,50,0,0
54645,-100,4,1,2,47,0,0
54860,-100,4,1,2,50,0,0
55074,-100,4,2,2,50,0,0
55288,-100,4,1,2,50,0,0
55717,-100,4,2,2,50,0,0
56145,-100,4,1,2,50,0,0
56360,-100,4,2,2,50,0,0
57003,-100,4,1,2,50,0,0
57217,-100,4,2,2,50,0,0
57860,-100,4,1,2,50,0,0
58181,-100,4,2,2,50,0,0
58288,-100,4,1,2,42,0,0
58503,-100,4,2,2,50,0,0
58717,-100,4,1,2,50,0,0
58931,-100,4,2,2,50,0,0
59145,-100,4,1,2,50,0,0
59360,-100,4,2,2,50,0,0
59574,-100,4,2,2,35,0,0
59788,-100,4,2,2,50,0,0
60003,-100,4,1,2,50,0,0
60217,-100,4,2,2,50,0,0
60431,-100,4,1,2,50,0,0
60645,-100,4,2,2,50,0,0
60860,-100,4,1,2,50,0,0
61074,-100,4,2,2,50,0,0
61288,-100,4,1,2,50,0,0
61610,-100,4,2,2,50,0,0
61717,-100,4,1,2,42,0,0
62145,-100,4,1,2,50,0,0
62360,-100,4,2,2,50,0,0
63003,-100,4,1,2,50,0,0
63217,-100,4,2,2,50,0,0
63431,-100,4,2,2,35,0,0
63645,-100,4,2,2,50,0,0
63860,-100,4,1,2,50,0,0
64181,-100,4,2,2,50,0,0
64717,-100,4,1,2,50,0,0
64931,-100,4,2,2,50,0,0
65574,-100,4,1,2,50,0,0
65788,-100,4,2,2,50,0,0
66003,-100,4,1,2,50,0,0
66324,-100,4,2,2,50,0,0
66431,-100,4,1,2,50,0,0
66645,-100,4,2,2,50,0,0
67717,-100,4,2,2,25,0,0
67931,-100,4,2,2,35,0,0
68574,-100,4,2,1,60,0,1
69217,-100,4,1,2,60,0,1
70074,-100,4,2,1,60,0,1
70717,-100,4,1,2,60,0,1
71145,-100,4,2,1,60,0,1
71574,-100,4,1,2,60,0,1
71788,-100,4,2,1,60,0,1
72645,-100,4,1,2,60,0,1
73503,-100,4,2,1,60,0,1
74145,-100,4,1,2,60,0,1
74360,-100,4,2,1,60,0,1
74467,-100,4,1,2,60,0,1
74574,-100,4,2,1,60,0,1
75003,-100,4,1,2,60,0,1
75110,-100,4,2,1,60,0,1
76074,-100,4,1,2,60,0,1
76931,-100,4,2,1,60,0,1
77574,-100,4,1,2,60,0,1
77788,-100,4,2,1,60,0,1
77895,-100,4,1,2,60,0,1
78217,-100,4,2,2,60,0,1
78431,-100,4,1,2,60,0,1
78538,-100,4,2,1,60,0,1
79288,-100,4,1,2,60,0,1
79503,-100,4,2,1,60,0,1
79717,-100,4,1,2,60,0,1
79931,-100,4,2,1,60,0,1
80145,-100,4,1,2,60,0,1
80360,-100,4,2,1,60,0,1
80574,-100,4,1,2,60,0,1
80681,-100,4,2,1,60,0,1
81003,-100,4,1,2,60,0,1
81431,-100,4,2,1,60,0,1
81645,-100,4,1,2,60,0,1
82931,-100,4,2,2,60,0,1
83574,-100,4,1,2,60,0,1
83788,-100,4,2,2,60,0,1
83895,-100,4,1,2,60,0,1
84003,-100,4,2,2,60,0,1
84431,-100,4,1,2,60,0,1
84860,-100,4,2,2,60,0,1
85288,-100,4,1,2,60,0,1
85503,-100,4,2,2,60,0,1
86145,-100,4,1,2,60,0,1
86360,-100,4,2,2,60,0,1
86574,-100,4,1,2,60,0,1
86788,-100,4,2,2,60,0,1
87003,-100,4,1,2,60,0,1
87217,-100,4,2,2,60,0,1
87860,-100,4,1,2,60,0,1
88288,-100,4,2,2,60,0,1
88717,-100,4,1,2,60,0,1
88931,-100,4,2,2,60,0,1
89145,-100,4,1,2,60,0,1
90003,-100,4,2,2,60,0,1
90217,-100,4,1,2,60,0,1
90860,-100,4,2,2,60,0,1
91288,-100,4,1,2,60,0,1
91503,-100,4,2,2,57,0,1
91717,-100,4,1,2,60,0,1
91931,-100,4,2,2,57,0,1
92145,-100,4,1,2,60,0,1
92360,-100,4,2,2,60,0,1
92574,-100,4,1,2,60,0,1
93003,-100,4,2,2,60,0,1
93217,-100,4,1,2,60,0,1
93431,-100,4,2,2,60,0,1
93645,-100,4,1,2,60,0,1
94074,-100,4,2,2,60,0,1
94503,-100,4,1,2,50,0,1
94931,-100,4,1,2,40,0,1
95145,-100,4,1,2,60,0,1
95360,-100,4,1,2,50,0,1
95574,-100,4,1,2,36,0,1
95788,-100,4,1,2,43,0,1
96003,-100,4,1,2,50,0,0
97717,-100,4,1,2,30,0,0
99431,-100,4,2,2,10,0,0
109717,-133.333333333333,4,2,2,45,0,0
121931,-133.333333333333,4,2,2,38,0,0
122145,-133.333333333333,4,2,2,45,0,0
123431,-133.333333333333,4,1,2,38,0,0
123645,-100,4,2,2,50,0,0
150645,-100,4,2,2,43,0,0
152574,-133.333333333333,4,2,1,39,0,0
166288,-133.333333333333,4,1,2,29,0,0
178503,-133.333333333333,4,1,2,23,0,0
178717,-133.333333333333,4,1,2,20,0,0
179360,-133.333333333333,4,1,2,23,0,0
179574,-133.333333333333,4,2,2,29,0,0
179788,-133.333333333333,4,1,2,38,0,0
180002,-100,4,1,2,60,0,1
186860,-100,4,1,1,45,0,1
186967,-100,4,1,2,60,0,1
190288,-100,4,1,1,52,0,1
190503,-100,4,1,2,60,0,1
192431,-100,4,1,2,53,0,1
192645,-100,4,1,2,60,0,1
193717,-100,4,1,1,60,0,1
206574,-100,4,1,1,45,0,1
207003,-100,4,1,1,48,0,1
207431,-100,4,1,1,55,0,1
207860,-133.333333333333,4,1,2,60,0,1
208288,-133.333333333333,4,2,2,60,0,1
208717,-133.333333333333,4,1,2,60,0,1
208931,-133.333333333333,4,2,2,45,0,1
209145,-133.333333333333,4,2,2,60,0,1
209574,-133.333333333333,4,1,2,60,0,1
209788,-133.333333333333,4,2,2,60,0,1
210431,-133.333333333333,4,1,2,60,0,1
210860,-133.333333333333,4,2,2,60,0,1
211288,-133.333333333333,4,1,2,60,0,1
211717,-133.333333333333,4,2,2,60,0,1
212145,-133.333333333333,4,1,2,60,0,1
212360,-133.333333333333,4,2,2,60,0,1
213003,-133.333333333333,4,1,2,60,0,1
213217,-133.333333333333,4,1,2,45,0,1
213431,-133.333333333333,4,1,2,50,0,1
213860,-133.333333333333,4,2,2,60,0,1
214288,-133.333333333333,4,1,2,45,0,1
214717,-133.333333333333,4,1,2,60,0,1
214931,-133.333333333333,4,2,2,60,0,1
215574,-133.333333333333,4,1,2,60,0,1
215788,-133.333333333333,4,2,2,60,0,1
216003,-133.333333333333,4,1,2,60,0,1
216324,-133.333333333333,4,2,2,60,0,1
216431,-133.333333333333,4,1,2,50,0,1
216645,-133.333333333333,4,2,2,60,0,1
216860,-133.333333333333,4,1,2,60,0,1
217181,-133.333333333333,4,2,2,60,0,1
217288,-133.333333333333,4,1,2,60,0,1
217717,-133.333333333333,4,1,1,45,0,1
218145,-133.333333333333,4,1,2,60,0,1
218360,-133.333333333333,4,2,2,60,0,1
218574,-133.333333333333,4,1,2,45,0,1
218788,-133.333333333333,4,2,2,60,0,1
219003,-133.333333333333,4,1,2,60,0,1
219217,-133.333333333333,4,2,2,60,0,1
219431,-133.333333333333,4,2,2,45,0,1
219645,-133.333333333333,4,2,2,60,0,1
219860,-133.333333333333,4,1,2,45,0,1
220074,-133.333333333333,4,2,2,60,0,1
220288,-133.333333333333,4,1,2,38,0,1
220503,-133.333333333333,4,1,2,43,0,1
220717,-133.333333333333,4,1,2,47,0,1
220931,-133.333333333333,4,1,2,54,0,1
221145,-100,4,1,2,40,0,1
221360,-100,4,2,1,55,0,1
222860,-100,4,2,0,52,0,1
223074,-100,4,2,1,55,0,1
223503,-100,4,2,0,52,0,1
223717,-100,4,2,1,55,0,1
223931,-100,4,2,0,52,0,1
224145,-100,4,2,1,55,0,1
226288,-100,4,2,0,52,0,1
226503,-100,4,1,2,38,0,1
226717,-100,4,2,1,52,0,1
227145,-100,4,2,0,52,0,1
227360,-100,4,2,1,55,0,1
229074,-100,4,2,0,52,0,1
229288,-100,4,2,1,55,0,1
229503,-100,4,2,0,52,0,1
229717,-100,4,2,1,55,0,1
234003,-100,4,2,0,52,0,1
234431,-100,4,2,1,55,0,1
235074,-100,4,2,2,55,0,1
261431,-100,4,2,1,35,0,1
261645,-100,4,2,1,45,0,1
261860,-100,4,2,1,55,0,1
262288,-100,4,2,1,30,0,0

[Colours]
Combo1 : 239,118,112
Combo2 : 82,210,233
Combo3 : 118,132,228
Combo4 : 121,232,149
Combo5 : 218,133,192
Combo6 : 150,105,173

[HitObjects]
32,32,3,2,0,B|72:144,1,119.999996423721,0|0
72,145,645,1,0
8,248,860,5,0
193,153,1288,1,0
224,360,1717,2,0,B|208:272,1,89.9999973177911
207,271,2145,1,0
320,328,2360,2,0,B|360:280|336:208,2,119.999996423721
120,360,3431,6,0,B|61:338|46:264,1,119.999996423721,0|0
47,270,4074,1,0
48,160,4288,53,0
160,277,4717,1,0
304,272,5145,2,0,B|336:360,1,89.9999973177911
334,356,5574,1,0
504,320,5788,2,0,B|480:392|400:368,1,119.999996423721
240,328,6431,2,0,B|176:312,1,59.9999982118607
104,344,6860,5,0
40,168,7288,2,0,B|112:192|112:192,1,59.9999982118607
184,144,7717,2,0,B|248:136,1,59.9999982118607
328,224,8145,6,0,B|269:232,1,59.9999982118607
472,216,8574,2,0,B|432:184|376:200,1,89.9999973177911
387,197,9002,1,0
264,312,9217,2,0,B|316:355|384:328,1,119.999996423721
488,64,10288,54,0,B|436:21|368:48,1,119.999996423721,0|0
288,96,10931,1,0
192,144,11145,2,0,B|152:176|96:144,1,89.9999973177911
80,136,11574,1,0
16,256,11788,6,0,B|72:240,1,59.9999982118607
73,239,12431,1,0
73,239,12860,1,0
73,239,13288,1,0
32,160,13502,1,0
48,72,13717,6,0,B|97:29|168:56,1,120,4|2
224,96,14145,2,0,B|260:123|312:104,1,80,0|2
464,152,14574,2,0,B|480:72,1,80,0|2
368,64,15002,53,0
360,152,15217,1,0
408,224,15431,2,0,B|464:304|400:368,1,160,0|2
312,288,16074,2,0,B|240:320,1,80,2|0
200,96,16502,6,0,B|272:64,1,80,2|0
96,80,17145,2,0,B|8:120|48:224,1,160,0|2
142,233,17788,1,0
112,328,18003,1,0
142,233,18217,1,2
44,212,18431,5,0
112,328,18645,1,0
246,343,18860,2,0,B|312:360|368:328,1,120,0|2
362,330,19288,1,0
496,344,19503,2,0,B|448:272,2,80,2|0|2
488,160,20145,54,0,B|392:136|352:216,1,160,0|0
152,344,21003,1,2
72,280,21217,1,0
16,176,21431,6,0,B|96:160|96:160,1,80,0|2
160,256,21860,2,0,B|208:272|240:240,1,80,0|0
352,128,22288,6,0,B|304:112|272:144,1,80,0|2
496,208,22717,2,0,B|416:224|416:224,1,80,0|2
176,144,23145,54,0,B|152:64,1,80,0|2
40,136,23574,2,0,B|64:216,1,80
96,328,24003,5,2
96,328,24217,1,0
96,328,24431,1,0
96,328,24645,1,2
208,296,24860,5,0
208,296,25074,1,2
208,296,25288,1,0
208,296,25503,1,2
320,264,25717,54,0,B|400:240,1,80
168,112,26145,6,0,B|88:136,1,80
344,272,26574,70,0,B|424:248,1,80
192,120,27003,6,0,B|112:144,1,80
115,142,27324,1,0
115,142,27431,1,4
404,92,41145,21,4
256,336,41574,1,0
212,250,41788,1,0
221,345,42003,6,0,B|300:369|378:347,1,160,0|0
272,159,42860,2,0,B|211:140|151:159,1,120,0|0
135,175,43288,2,0,B|128:136|136:92,1,80
212,250,43717,5,0
118,270,43931,1,0
135,175,44145,1,0
135,175,44574,54,0,B|196:194|256:175,1,120,0|0
272,159,45002,2,0,B|295:192|327:215,1,80
352,71,45431,6,0,B|273:47|195:69,1,160,0|0
272,264,46288,2,0,B|312:277|350:264,1,80
445,337,46717,1,0
445,337,46931,5,0
469,219,47145,1,0
350,198,47360,1,0
326,315,47574,1,0
326,315,48002,54,0,B|270:289|208:297,1,120
186,309,48431,1,0
127,233,48645,1,0
189,159,48860,6,0,B|228:169|270:160,1,80
367,74,49288,2,0,B|328:64|286:73,1,80
196,42,49717,1,0
196,42,49931,1,0
115,94,50145,1,0
136,187,50360,1,0
231,197,50574,1,0
267,108,50788,1,0
196,42,51002,6,0,B|255:64|320:43,1,120
333,29,51431,2,0,B|352:66|359:108,1,80
451,224,51860,2,0,B|371:245|290:226,1,160
292,226,52717,1,0
322,317,52931,1,0
197,245,53145,54,0,B|186:207|192:164,1,80,0|0
333,106,53574,6,0,B|344:144|338:187,1,80,0|0
150,198,54002,70,0,B|139:160|145:117,1,80,0|0
283,60,54431,6,0,B|294:98|288:141,1,80,0|0
288,139,54752,1,0
288,139,54860,1,4
314,231,55074,1,2
404,198,55288,2,0,B|385:118|403:30,1,160,0|0
401,39,56145,5,0
476,98,56360,1,0
390,141,56574,2,0,B|349:134|307:141,1,80,0|2
256,272,57002,1,0
256,272,57217,2,0,B|297:279|339:272,1,80,0|2
413,216,57645,1,0
398,120,57860,54,0,B|337:106|276:118,1,120,0|0
257,105,58288,2,0,B|273:147|284:190,1,80
256,272,58717,5,0
187,204,58931,1,0
215,315,59145,2,0,B|256:322|298:315,1,80,0|0
227,160,59574,2,0,B|186:153|144:160,1,80,4|0
72,207,60002,5,0
72,207,60217,1,0
96,89,60431,1,0
213,113,60645,1,2
184,229,60860,1,0
266,281,61074,53,0
336,213,61288,2,0,B|395:198|461:203,1,120
455,202,61717,1,0
455,202,62145,5,0
420,112,62360,1,0
334,155,62574,2,0,B|303:177|261:182,1,80,2|0
162,64,63002,1,0
162,64,63217,2,0,B|193:86|235:91,1,80,0|4
324,52,63645,5,0
366,180,63860,2,0,B|318:216|255:224,1,120
208,228,64288,2,0,B|247:246|274:275,1,80,0|2
345,352,64717,2,0,B|341:309|352:271,1,80
366,180,65145,1,4
421,91,65360,54,0,B|381:88|343:78,1,80,2|0
286,177,65788,2,0,B|321:184|366:180,1,80,0|0
471,296,66324,1,2
471,296,66431,2,0,B|433:315|390:316,1,80
297,319,66860,5,2
200,217,67074,1,0
341,187,67288,1,0
297,319,67717,5,4
297,319,67931,1,0
184,66,68360,1,2
296,48,68574,6,0,B|408:32,1,80,4|0
512,80,69002,2,0,B|432:91,1,80,0|0
352,192,69431,6,0,B|385:225|368:272,1,80,0|0
272,360,69860,2,0,B|239:327|256:280,1,80,0|0
272,360,70288,5,0
172,241,70502,1,0
56,344,70717,1,0
40,152,71038,54,0,B|16:192,1,40
120,120,71360,2,0,B|104:80|48:64,1,80
106,204,71788,1,0
152,328,72002,6,0,B|240:304,1,80
320,160,72431,2,0,B|296:248,1,80
384,384,72860,2,0,B|319:319,1,80
408,280,73288,1,0
488,328,73502,1,0
488,216,73717,6,0,B|520:160|488:96,1,120
480,80,74145,1,0
368,88,74360,1,0
360,72,74467,1,0
352,56,74574,1,0
256,128,74788,2,0,B|200:64,1,80
203,67,75217,1,0
80,56,75431,54,0,B|32:104|56:168,1,120,0|0
64,184,75860,2,0,B|96:264,1,80
131,348,76288,2,0,B|184:288,1,80
248,216,76717,2,0,B|169:200,1,80
64,184,77145,5,0
248,216,77360,1,0
132,348,77574,1,0
232,344,77788,1,0
232,344,78002,2,0,B|200:264,1,80
280,40,78431,6,0,B|312:120,1,80
440,96,78860,1,0
416,168,79074,1,0
392,240,79288,1,0
368,312,79502,1,0
296,288,79717,53,0
392,240,79931,1,0
336,144,80145,1,0
240,192,80360,1,0
112,104,80574,5,0
128,120,80681,1,0
144,136,80788,2,0,B|120:224,1,80
176,360,81324,2,0,B|192:304,1,40
288,288,81645,1,0
384,336,81860,1,0
472,288,82074,1,0
472,288,82288,5,4
496,112,82717,2,0,B|480:232,1,80,0|2
496,112,83145,1,0
360,64,83360,2,0,B|368:144,1,80,2|0
280,256,83788,1,0
280,256,83895,1,0
280,256,84002,1,0
104,344,84431,54,0,B|40:318|56:240,1,120
64,224,84860,1,0
104,344,85074,5,2
77,202,85288,1,0
48,64,85502,1,2
160,48,85717,6,0,B|200:40|240:32,1,80,0|0
240,128,86145,2,0,B|280:120|320:112,1,80,0|0
438,45,86574,2,0,B|496:88|464:152,1,120,0|0
390,200,87002,2,0,B|352:208|312:216,1,80,0|2
496,296,87431,54,0,B|456:384|352:344,1,160
248,320,88074,1,0
248,320,88288,2,0,B|152:296,1,80,0|2
48,184,88717,6,0,B|144:208,1,80,0|0
72,288,89145,5,4
24,80,89574,1,0
120,48,89788,1,0
136,64,89895,1,0
152,80,90002,2,0,B|232:56|232:56,1,80,0|0
368,88,90431,2,0,B|371:86|291:110,1,80,0|0
192,176,90860,54,0,B|160:272|256:304,1,160
352,336,91502,1,2
456,336,91717,2,0,B|544:352,3,80,0|2|0|2
504,232,92574,6,0,B|448:240|384:248,1,120
385,247,93002,1,0
264,272,93217,1,0
376,168,93431,2,0,B|368:88,1,80
256,192,93860,2,0,B|264:272,1,80
240,104,94288,5,0
136,80,94502,1,0
94,180,94717,1,0
238,95,94931,53,0
124,68,95145,1,0
77,178,95360,1,0
238,95,95574,5,0
240,104,95681,1,0
243,112,95788,1,0
244,120,95895,1,0
245,129,96002,1,4
256,192,96110,12,2,99431
330,125,109717,21,4
351,226,109931,1,2
253,195,110145,1,0
330,125,110360,2,0,B|392:126|448:107,1,119.999996423721,2|2
253,195,111002,1,0
351,226,111217,2,0,B|289:225|233:244,1,119.999996423721,2|2
151,150,111860,5,0
151,150,112074,1,2
361,234,112502,1,2
447,268,112717,1,0
361,234,112931,1,2
301,301,113145,6,0,B|278:271|272:239,1,59.9999982118607,4|0
280,145,113574,1,0
212,68,113788,2,0,B|150:69|94:50,1,119.999996423721,2|2
280,145,114431,1,0
232,197,114645,2,0,B|289:172|348:169,1,119.999996423721,2|2
321,326,115288,53,0
321,326,115502,1,2
191,58,115931,1,2
91,35,116145,1,0
191,58,116360,5,2
91,35,116574,2,0,B|108:65|114:97,1,59.9999982118607,4|0
127,194,117002,1,0
181,255,117217,2,0,B|127:232|63:236,1,119.999996423721,2|2
266,168,117860,1,0
266,168,118074,2,0,B|329:171|383:148,1,119.999996423721,2|2
427,45,118717,5,0
427,45,118931,1,2
87,106,119360,1,2
174,86,119574,1,0
147,171,119788,1,2
174,86,120002,54,0,B|203:107|237:108,1,59.9999982118607,4|2
362,136,120431,1,0
362,136,120645,2,0,B|320:184|252:190,1,119.999996423721,2|2
148,266,121288,1,0
148,266,121502,2,0,B|190:314|258:320,1,119.999996423721,2|4
340,301,122145,6,0,B|370:287|403:287,1,59.9999982118607,0|2
374,199,122574,2,0,B|407:197|437:210,1,59.9999982118607,0|2
460,122,123002,2,0,B|490:133|513:157,1,59.9999982118607,0|0
372,104,123431,5,4
294,160,123645,1,0
388,64,123860,2,0,B|304:92|224:73,1,160,8|0
102,217,124717,1,8
192,184,124931,1,0
173,277,125145,1,0
77,264,125360,54,0,B|52:230|56:187,1,80,0|8
132,83,125788,2,0,B|157:117|153:160,1,80,0|0
132,83,126217,5,0
214,34,126431,1,10
39,70,126645,1,0
39,70,127074,2,0,B|35:111|60:145,1,80,0|10
208,111,127502,5,0
193,205,127717,2,0,B|190:245|171:280,1,80,0|0
87,221,128145,2,0,B|89:180|108:145,1,80,8|0
208,111,128574,53,0
285,167,128788,1,0
193,205,129002,1,8
208,111,129217,1,0
208,111,129645,5,0
268,268,129860,1,10
285,167,130074,2,0,B|320:148|363:144,1,80,0|0
268,268,130502,5,0
193,205,130717,2,0,B|158:186|115:182,1,80,10|0
37,309,131145,54,0,B|116:349|193:303,1,160,0|8
345,191,132002,1,0
362,96,132217,1,0
438,153,132431,1,8
378,39,132645,6,0,B|347:70|304:75,1,80
202,126,133074,1,0
202,126,133288,6,0,B|158:131|121:108,1,80,8|2
217,221,133717,2,0,B|252:203|300:200,1,80,0|2
361,147,134145,54,0,B|326:165|278:168,1,80,8|2
164,299,134574,2,0,B|207:293|244:316,1,80,0|2
323,264,135002,1,8
323,264,135217,1,2
256,192,135431,1,0
256,192,135645,5,2
406,193,135860,1,8
406,193,136074,1,2
256,192,136502,5,2
406,193,136717,1,8
486,122,136931,1,2
419,52,137145,2,0,B|381:65|333:47,1,80,0|0
419,52,137574,54,0,B|350:92|262:78,1,160,10|0
122,237,138431,1,8
203,291,138645,1,0
122,237,138860,2,0,B|162:256|204:249,1,80
281,200,139288,1,8
389,307,139502,6,0,B|312:344|233:344,1,160,0|0
122,237,140145,1,8
122,237,140360,2,0,B|204:258|282:243,1,160,0|0
280,243,141002,5,8
370,95,141431,1,0
451,145,141645,1,0
370,95,141860,2,0,B|328:88|291:108,1,80,8|0
228,179,142288,1,0
276,262,142502,1,0
370,247,142717,1,8
379,151,142931,54,0,B|304:120|221:116,1,160
143,251,143574,1,8
143,251,143788,2,0,B|218:282|301:286,1,160
298,285,144431,5,8
481,344,144860,1,0
511,252,145074,1,0
416,277,145288,2,0,B|393:244|400:198,1,80,8|0
491,89,145717,2,0,B|514:122|507:168,1,80
391,88,146145,5,8
391,88,146360,2,0,B|325:45|232:58,1,160
215,183,147003,1,8
215,183,147217,2,0,B|281:226|374:213,1,160
357,309,147860,54,0,B|395:312|435:289,1,80,8|0
509,136,148288,2,0,B|471:133|431:156,1,80
326,276,148717,6,0,B|288:279|248:256,1,80,8|0
174,103,149145,2,0,B|212:100|252:123,1,80
326,181,149574,5,8
341,86,149788,1,2
436,96,150003,1,0
422,190,150217,1,2
341,86,150431,53,8
179,43,150645,1,4
448,288,152574,37,0
240,360,153217,2,0,B|208:304,1,59.9999982118607
140,284,153645,2,0,B|68:280|44:344,1,119.999996423721
120,360,154288,5,0
56,232,154717,1,0
200,248,155145,2,0,B|176:192,2,59.9999982118607
344,264,156003,6,0,B|399:306|368:376,1,119.999996423721
440,352,156645,1,0
480,213,157074,2,0,B|464:277,2,59.9999982118607
416,165,157717,54,0,B|432:101,1,59.9999982118607
448,37,158145,1,0
296,29,158467,2,0,B|312:69,1,29.9999991059304
272,125,158788,2,0,B|232:176|158:153,1,119.999996423721
64,93,159431,5,0
40,309,160074,2,0,B|32:245,1,59.9999982118607
104,237,160503,2,0,B|172:218|216:269,1,119.999996423721
264,320,161145,5,0
408,344,161574,1,0
496,232,162003,1,0
432,200,162217,2,0,B|416:128|480:96,1,119.999996423721
464,24,162860,53,0
328,64,163288,1,0
264,96,163503,1,0
192,104,163717,1,0
64,32,164145,2,0,B|48:96,1,59.9999982118607
88,200,164574,5,0
120,272,164788,1,0
176,328,165003,1,0
251,352,165217,1,0
360,368,165431,6,0,B|424:352,1,59.9999982118607
496,232,165860,2,0,B|432:248,1,59.9999982118607
360,192,166288,54,0,B|296:208,1,59.9999982118607
216,152,166717,1,0
216,152,167145,6,0,B|152:168,1,59.9999982118607
264,64,167574,1,0
264,64,167788,1,0
416,88,168003,6,0,B|352:104,1,59.9999982118607
480,8,168431,1,0
408,208,168860,54,0,B|344:224,1,59.9999982118607
496,272,169288,1,0
496,272,169503,1,0
288,336,169717,6,0,B|344:320,1,59.9999982118607
437,344,170145,1,0
240,256,170574,6,0,B|184:272,1,59.9999982118607
88,248,171003,1,0
88,248,171217,1,0
24,104,171431,53,0
120,144,171645,1,0
216,176,171860,1,0
320,208,172074,1,0
336,200,172181,1,0
352,192,172288,1,0
472,152,172503,6,0,B|480:224|416:256,1,119.999996423721
336,320,173145,1,0
424,88,173574,1,0
296,248,174003,5,0
256,176,174217,1,0
216,104,174431,1,0
176,32,174645,1,0
272,32,174860,2,0,B|312:56|360:48,1,89.9999973177911
385,43,175288,1,0
128,96,175717,54,0,B|64:88,1,59.9999982118607
80,192,176145,2,0,B|16:216,1,59.9999982118607
104,304,176574,6,0,B|134:362|214:349,1,119.999996423721
205,350,177217,1,0
392,376,177431,6,0,B|362:318|282:331,1,119.999996423721
290,329,178074,1,0
232,264,178288,2,0,B|240:160,2,89.9999973177911
88,136,179360,2,0,B|64:64,2,59.9999982118607
256,192,180003,6,0,B|329:163|415:174,1,160,4|8
454,260,180645,1,0
469,107,180860,2,0,B|430:88|389:88,1,80,0|0
335,165,181288,2,0,B|291:166|254:149,1,80,8|0
138,92,181717,6,0,B|120:153|151:209,1,120
140,237,182145,2,0,B|174:223|220:222,1,80,8|0
268,304,182574,2,0,B|304:306|346:294,1,80
437,236,183003,1,8
437,236,183431,6,0,B|367:198|275:204,1,160,0|8
204,260,184074,1,0
147,136,184288,2,0,B|186:119|234:121,1,80
365,59,184717,2,0,B|326:60|287:43,1,80,8|0
268,202,185145,54,0,B|320:178|394:184,1,120
407,160,185574,1,8
453,245,185788,2,0,B|479:292,2,40
407,160,186217,1,0
451,75,186431,1,8
451,75,186860,6,0,B|366:88|285:53,1,160,4|8
213,110,187503,1,0
147,248,187717,2,0,B|183:230|228:230,1,80
353,330,188145,2,0,B|311:330|275:312,1,80,8|0
319,229,188574,1,0
273,144,188788,5,0
330,67,189003,2,0,B|385:99|452:98,1,120,8|0
467,75,189431,2,0,B|480:114|481:159,1,80,0|0
407,314,189860,2,0,B|394:275|393:230,1,80,8|0
393,139,190288,1,4
308,185,190503,53,0
212,180,190717,2,0,B|190:121|213:55,1,120,8|0
192,35,191145,1,0
115,93,191360,2,0,B|108:135|117:180,1,80,0|8
164,255,191788,5,0
258,210,192003,1,8
350,258,192217,1,0
256,303,192431,1,0
258,210,192645,5,0
258,210,192753,1,0
258,210,192860,1,8
350,258,193074,1,8
390,162,193288,1,8
390,162,193395,1,0
390,162,193503,1,0
295,119,193717,54,0,B|256:127|212:123,1,80,4|2
148,42,194145,2,0,B|206:30|272:36,1,120,8|0
267,35,194574,2,0,B|311:42|355:32,1,80,0|2
451,25,195003,6,0,B|472:81|460:144,1,120,8|0
460,143,195431,1,0
383,213,195645,1,2
460,143,195860,6,0,B|403:113|342:118,1,120,8|0
344,117,196288,1,8
383,213,196503,1,2
414,311,196717,2,0,B|355:315|298:285,1,120,8|2
258,252,197145,54,0,B|217:259|178:257,1,80,0|2
235,149,197574,2,0,B|292:137|356:146,1,120,8|2
354,145,198003,1,0
446,194,198217,1,2
432,71,198431,2,0,B|378:48|313:44,1,120,8|2
315,45,198860,6,0,B|303:88|285:122,1,80,0|2
237,211,199288,1,8
345,246,199503,1,2
345,246,199610,1,0
345,246,199717,1,10
237,211,199931,1,0
127,242,200145,2,0,B|88:265|41:264,1,80,8|0
50,263,200467,1,0
50,263,200574,1,4
120,146,200788,5,2
219,177,201003,2,0,B|279:208|338:196,1,120,8|2
372,160,201431,1,0
444,267,201645,1,2
440,95,201860,2,0,B|386:62|321:76,1,120,8|2
324,75,202288,1,0
372,160,202503,1,2
268,155,202717,54,0,B|299:205|308:272,1,120,8|0
334,310,203145,1,8
413,242,203360,1,2
334,310,203574,6,0,B|294:320|248:309,1,80,8|0
254,310,203895,1,0
254,310,204003,1,4
182,235,204217,1,2
228,142,204431,6,0,B|289:128|350:150,1,120,8|2
383,178,204860,2,0,B|392:134|383:90,1,80,0|2
282,27,205288,2,0,B|273:71|282:115,1,80,8|2
265,227,205717,1,4
256,192,205824,12,4,207431
42,325,207860,53,0
30,62,208288,1,2
99,128,208503,1,2
127,36,208717,1,0
30,62,208931,1,2
84,173,209145,6,0,B|127:148|178:157,1,89.9999973177911,0|2
205,121,209574,1,0
257,201,209788,1,2
310,121,210003,2,0,B|358:159|434:146,1,119.999996423721
423,147,210645,1,0
464,268,210860,6,0,B|416:230|340:243,1,119.999996423721,4|0
350,241,211717,1,2
276,180,211931,1,0
364,144,212145,1,0
438,205,212360,1,2
426,300,212574,54,0,B|364:280|307:307,1,119.999996423721,4|0
207,285,213217,1,0
213,189,213431,2,0,B|158:215|96:195,1,119.999996423721,0|2
25,129,214074,1,0
47,35,214288,5,4
47,35,214717,2,0,B|112:65,1,59.9999982118607,0|2
193,88,215145,2,0,B|125:79|77:123,1,119.999996423721,0|0
256,160,215788,1,2
321,220,216003,2,0,B|372:228|416:196,1,89.9999973177911,0|2
444,231,216431,2,0,B|444:159,1,59.9999982118607,0|2
470,43,216860,2,0,B|419:35|375:67,1,89.9999973177911,0|2
383,108,217288,6,0,B|324:78|256:82,1,119.999996423721,0|4
267,81,218145,1,0
227,169,218360,1,0
299,232,218574,1,0
382,184,218788,1,2
360,90,219003,1,0
267,81,219217,1,2
171,89,219431,54,0,B|143:80|103:76,1,59.9999982118607,4|2
114,174,219860,2,0,B|80:177|46:182,1,59.9999982118607,4|2
114,174,220288,5,0
248,151,220503,1,0
271,285,220717,1,0
139,313,220931,1,0
248,151,221145,21,4
448,352,221574,2,0,B|512:290|472:200,1,160,2|2
408,131,222217,1,0
320,88,222431,2,0,B|240:32|168:104,1,160,2|2
248,152,223074,5,2
104,144,223288,2,0,B|32:192,1,80,2|2
29,308,223717,2,0,B|96:264,1,80,2|2
232,280,224145,2,0,B|160:328,1,80,2|0
30,309,224574,5,4
16,64,225003,2,0,B|24:128|48:160|128:168,1,160,2|2
216,164,225645,1,0
312,144,225860,2,0,B|376:128|432:160,1,120,2|0
472,168,226288,53,2
472,168,226503,1,8
472,168,226717,2,0,B|520:128|504:48,1,120,10|0
496,40,227145,5,2
496,40,227360,1,8
496,40,227574,1,10
496,40,227788,1,0
344,72,228003,6,0,B|278:76|252:39|186:44,1,160,4|2
48,168,228860,2,0,B|128:160,3,80,2|2|2|2
32,256,229717,54,0,B|96:304|184:288,1,160,0|2
440,296,230574,2,0,B|376:248|288:264,1,160,0|2
256,192,231110,12,2,232717
176,80,233145,6,0,B|256:112|336:80,1,160,0|6
112,192,234003,1,0
112,192,234217,1,2
176,304,234431,6,0,B|256:272|336:304,1,160,2|4
416,344,235074,1,2
472,208,235288,2,0,B|488:288,1,80,0|2
416,344,235717,53,0
336,288,235931,1,2
304,200,236145,1,0
312,104,236360,1,2
120,48,236788,6,0,B|136:128,2,80,2|0|2
64,160,237431,1,8
184,216,237645,1,0
240,104,237860,1,8
120,48,238074,1,0
80,256,238288,6,0,B|0:272,1,80,0|2
136,320,238717,1,0
208,360,238931,2,0,B|288:392|368:352,2,160,2|2|0
40,336,240217,53,0
56,248,240431,1,8
32,160,240645,1,0
64,80,240860,1,8
64,80,240967,1,0
64,80,241074,1,8
152,104,241288,2,0,B|240:88,1,80,8|0
320,24,241717,6,0,B|352:56|336:96,1,80,0|2
335,97,242145,1,0
440,48,242360,2,0,B|448:136|456:208,2,160,2|2|0
384,216,243645,5,0
424,304,243860,1,8
504,352,244074,1,0
352,352,244288,2,0,B|272:352,1,80
192,296,244717,2,0,B|112:296,1,80,8|0
48,144,245145,53,0
96,216,245360,1,2
176,192,245574,1,0
128,120,245788,5,2
384,120,246217,1,2
256,312,246645,1,2
336,328,246860,6,0,B|354:284|318:249,1,80,8|0
168,296,247288,2,0,B|156:341|192:376,1,80,8|0
322,253,247717,53,0
186,370,247931,1,8
336,328,248145,1,8
168,296,248360,1,8
152,280,248467,1,8
136,264,248574,2,0,B|128:176,1,80,4|2
48,128,249003,1,8
24,24,249217,6,0,B|96:64|184:40,1,160,2|2
424,40,250074,2,0,B|352:0|264:24,1,160,2|2
179,41,250717,1,8
268,22,250931,1,0
296,120,251145,1,0
392,120,251360,1,2
408,224,251574,1,8
504,248,251788,1,0
456,352,252003,6,0,B|368:344,1,80,0|2
376,344,252431,1,8
272,288,252645,2,0,B|184:280|136:360,2,160,2|2|0
320,96,253931,2,0,B|296:192,2,80,0|8|0
320,96,254574,1,0
320,96,254788,1,8
320,96,255003,1,8
320,96,255217,1,0
240,24,255431,54,0,B|152:24|96:88,1,160,0|2
88,168,256074,2,0,B|131:244|215:260,2,160,0|2|2
48,272,257145,1,0
100,362,257360,1,2
203,362,257574,1,8
255,272,257788,1,0
208,184,258003,5,0
260,94,258217,1,2
363,94,258431,1,8
415,184,258645,1,0
360,272,258860,6,0,B|418:339|512:312,1,160,0|8
505,313,259503,1,0
360,272,259717,54,0,B|302:205|208:232,1,160,0|8
64,280,260574,1,0
8,120,261003,1,0
8,120,261217,1,0
64,280,261431,5,8
120,216,261645,1,8
176,152,261860,1,8
232,88,262074,1,8
288,16,262288,1,0
