osu file format v9

[General]
AudioFilename: 02 - Love Distance Long Affair.mp3
AudioLeadIn: 1996
PreviewTime: 89035
Countdown: 0
SampleSet: Soft
StackLeniency: 0.7
Mode: 0
LetterboxInBreaks: 1

[Editor]
Bookmarks: 13714,29142,41142,54857,68571,82285,99428,109714,123428,137142,150857,152571,166285,179999,193714,207428,214285,221142,228857,234857,248571,262285
DistanceSpacing: 0.9
BeatDivisor: 4
GridSize: 4

[Metadata]
Title:Love Distance Long Affair
Artist:DECO*27 feat. Topi
Creator:Garven
Version:AgneSushi
Source:
Tags:LKs Pokie Sumisola sherrie__fay Agnes Sushi

[Difficulty]
HPDrainRate:4
CircleSize:3
OverallDifficulty:4
ApproachRate:5
SliderMultiplier:1.3
SliderTickRate:1

[Events]
//Background and Video events
0,0,"717274.jpg"
//Break Periods
2,29345,39945
2,99631,108517
//Storyboard Layer 0 (Background)
//Storyboard Layer 1 (Fail)
//Storyboard Layer 2 (Pass)
//Storyboard Layer 3 (Foreground)
Sprite,Foreground,Centre,"SB\2.png",320,280 F,0,860,1717,0,1 V,0,13717,13931,1,1,0.1,1
Sprite,Foreground,Centre,"SB\1.png",320,280 V,0,13931,14145,0.1,1,1,1 F,0,29145,30002,1,0
Sprite,Foreground,Centre,"SB\2.png",320,280 V,0,41145,41252,1,1,1.15,1.15 V,0,41252,41360,1.15,1.15,1,1 V,0,54860,55074,1,1,0.1,1
Sprite,Foreground,Centre,"SB\1.png",320,280 V,0,55074,55288,0.1,1,1,1 F,0,66860,68145,1,0
Sprite,Foreground,Centre,"SB\2.png",320,280 L,0,29 V,0,69431,69538,1,1,1.1,1.1 V,0,69538,69645,1.1,1.1,1,1 V,0,69645,69860,1,1 F,0,68574,68788,0,1 V,0,68574,68788,1.3,1.3,1,1 V,0,68788,69431,1,1 V,0,82288,82502,1,1,0.1,1
Sprite,Foreground,Centre,"SB\1.png",320,280 L,0,30 V,0,83145,83252,1,1,1.1,1.1 V,0,83252,83360,1.1,1.1,1,1 V,0,83360,83574,1,1 V,0,82502,82717,0.1,1,1,1 F,0,96002,97717,1,0
Sprite,Foreground,Centre,"SB\2.png",320,240 M,0,109717,109931,300,280,320,280 F,0,109717,109931,0,1 M,0,123431,123645,320,280,340,280 F,0,123431,123645,1,0
Sprite,Foreground,Centre,"SB\1.png",320,240 M,0,123431,123645,300,280,320,280 F,0,123431,123645,0,1 V,0,137145,137360,1,1,0.1,1
Sprite,Foreground,Centre,"SB\2.png",320,280 V,0,137360,137574,0.1,1,1,1 F,0,150860,151074,1,0 V,0,150860,151074,1,1,1.3,1.3
Sprite,Foreground,Centre,"SB\1.png",320,280 L,0,4 F,0,166288,166395,1,0.5 F,0,166395,166502,0.5,1 F,0,166502,166717,1 F,0,152574,,1 F,0,168002,169717,1,0
Sprite,Foreground,Centre,"SB\1.png",320,280 F,0,152574,153431,1,0 S,0,152574,153431,1,1.3
Sprite,Foreground,Centre,"SB\2.png",320,280 F,0,169717,169931,0,0.4 F,0,169931,170145,0.4,0.2 F,0,170145,170388,0.2,0.6 F,0,170388,170574,0.6,0.4 F,0,170574,170788,0.4,0.8 F,0,170788,171002,0.8,0.6 F,0,171002,171217,0.6,1 F,0,171217,171431,1 V,0,180002,180217,1,1,0.1,1
Sprite,Foreground,Centre,"SB\2.png",320,280 F,0,171431,172288,1,0 S,0,171431,172288,1,1.3
Sprite,Foreground,Centre,"SB\1.png",320,280 L,0,30 V,0,180860,180967,1,1,1.1,1.1 V,0,180967,181074,1.1,1.1,1,1 V,0,181074,181288,1,1 V,0,180217,180431,0.1,1,1,1 V,0,193717,193931,1,1,0.1,1
Sprite,Foreground,Centre,"SB\2.png",320,280 V,0,193931,194145,0.1,1,1,1 F,0,207431,208288,1,0
Sprite,Foreground,Centre,"SB\1.png",320,280 F,0,207431,208288,0,1 V,0,214288,214502,1,1,0.1,1
Sprite,Foreground,Centre,"SB\2.png",320,280 V,0,214502,214717,0.1,1,1,1 F,0,234860,235074,1,0 V,0,234860,235074,1,1,1.3,1.3
Sprite,Foreground,Centre,"SB\1.png",320,225 F,0,222002,223717,0,1 V,0,248574,248788,1,1,0.1,1
Sprite,Foreground,Centre,"SB\2.png",320,225 V,0,248788,249002,0.1,1,1,1 F,0,262288,262502,1,0 V,0,262288,262502,1,1,1.3,1.3
//Storyboard Sound Samples
//Background Colour Transformations
3,100,163,162,255

[TimingPoints]
3,428.571428571429,4,2,2,70,1,0
217,-100,4,2,2,75,0,0
13610,-100,4,2,2,60,0,0
13824,-100,4,2,2,100,0,0
29145,-100,4,2,2,40,0,0
41038,-100,4,2,2,60,0,0
41360,-100,4,2,2,75,0,0
41788,-100,4,2,2,100,0,0
43181,-100,4,2,2,75,0,0
43395,-100,4,2,2,100,0,0
44895,-100,4,2,2,75,0,0
45110,-100,4,2,2,100,0,0
46610,-100,4,2,2,75,0,0
46824,-100,4,2,2,100,0,0
48324,-100,4,2,2,75,0,0
48538,-100,4,2,2,100,0,0
50038,-100,4,2,2,75,0,0
50252,-100,4,2,2,100,0,0
51752,-100,4,2,2,75,0,0
51967,-100,4,2,2,100,0,0
55181,-100,4,2,2,75,0,0
55395,-100,4,2,2,100,0,0
56895,-100,4,2,2,75,0,0
57110,-100,4,2,2,100,0,0
58610,-100,4,2,2,75,0,0
58824,-100,4,2,2,100,0,0
60324,-100,4,2,2,75,0,0
60538,-100,4,2,2,100,0,0
62038,-100,4,2,2,75,0,0
62252,-100,4,2,2,100,0,0
63752,-100,4,2,2,75,0,0
63967,-100,4,2,2,100,0,0
65467,-100,4,2,2,75,0,0
65681,-100,4,2,2,100,0,0
68145,-100,4,2,2,45,0,0
68574,-90.9090909090909,4,1,1,75,0,1
69592,-90.9090909090909,4,1,1,60,0,1
69699,-90.9090909090909,4,1,1,75,0,1
70020,-90.9090909090909,4,1,1,60,0,1
70342,-90.9090909090909,4,1,1,75,0,1
73020,-90.9090909090909,4,1,1,60,0,1
73127,-90.9090909090909,4,1,1,75,0,1
73449,-90.9090909090909,4,1,1,60,0,1
73770,-90.9090909090909,4,1,1,75,0,1
76449,-90.9090909090909,4,1,1,60,0,1
76556,-90.9090909090909,4,1,1,75,0,1
76877,-90.9090909090909,4,1,1,60,0,1
77199,-90.9090909090909,4,1,1,75,0,1
83949,-90.9090909090909,4,1,1,60,0,1
84056,-90.9090909090909,4,1,1,75,0,1
85074,-90.9090909090909,4,2,2,100,0,1
85502,-90.9090909090909,4,1,1,75,0,1
99431,-100,4,2,2,25,0,0
109502,-100,4,2,2,100,0,0
123752,-100,4,2,2,75,0,0
123967,-100,4,2,2,100,0,0
127181,-100,4,2,2,75,0,0
127395,-100,4,2,2,100,0,0
128895,-100,4,2,2,75,0,0
129110,-100,4,2,2,100,0,0
130610,-100,4,2,2,75,0,0
130824,-100,4,2,2,53,0,0
131038,-100,4,2,2,100,0,0
132324,-100,4,2,2,75,0,0
132538,-100,4,2,2,100,0,0
134038,-100,4,2,2,75,0,0
134252,-100,4,2,2,100,0,0
135752,-100,4,2,2,75,0,0
135967,-100,4,2,2,100,0,0
137467,-100,4,2,2,75,0,0
137681,-100,4,2,2,100,0,0
139181,-100,4,2,2,75,0,0
139395,-100,4,2,2,100,0,0
140895,-100,4,2,2,75,0,0
141110,-100,4,2,2,100,0,0
142610,-100,4,2,2,75,0,0
142824,-100,4,2,2,100,0,0
144324,-100,4,2,2,75,0,0
144538,-100,4,2,2,100,0,0
146038,-100,4,2,2,75,0,0
146252,-100,4,2,2,100,0,0
150645,-100,4,2,2,45,0,0
152360,-100,4,2,2,50,0,0
165860,-100,4,2,2,75,0,0
179145,-100,4,2,2,45,0,0
180002,-90.9090909090909,4,1,1,75,0,1
180967,-90.9090909090909,4,1,1,60,0,1
181181,-90.9090909090909,4,1,1,75,0,1
181395,-90.9090909090909,4,1,1,60,0,1
181824,-90.9090909090909,4,1,1,75,0,1
185038,-90.9090909090909,4,1,1,60,0,1
185252,-90.9090909090909,4,1,1,75,0,1
187824,-90.9090909090909,4,1,1,60,0,1
188038,-90.9090909090909,4,1,1,75,0,1
188252,-90.9090909090909,4,1,1,60,0,1
188681,-90.9090909090909,4,1,1,75,0,1
194681,-90.9090909090909,4,1,1,60,0,1
194895,-90.9090909090909,4,1,1,75,0,1
195110,-90.9090909090909,4,1,1,60,0,1
195538,-90.9090909090909,4,1,1,75,0,1
196610,-90.9090909090909,4,2,2,75,0,1
196824,-90.9090909090909,4,1,1,75,0,1
198110,-90.9090909090909,4,1,1,60,0,1
198324,-90.9090909090909,4,1,1,75,0,1
198538,-90.9090909090909,4,1,1,60,0,1
198967,-90.9090909090909,4,1,1,75,0,1
199717,-90.9090909090909,4,2,2,80,0,1
200360,-90.9090909090909,4,1,1,75,0,1
201538,-90.9090909090909,4,1,1,60,0,1
201752,-90.9090909090909,4,1,1,75,0,1
201967,-90.9090909090909,4,1,1,60,0,1
202395,-90.9090909090909,4,1,1,75,0,1
203467,-90.9090909090909,4,2,2,75,0,1
203681,-90.9090909090909,4,1,1,75,0,1
207431,-100,4,1,1,100,0,0
207860,-100,4,2,2,100,0,0
210538,-100,4,2,2,60,0,0
210752,-100,4,2,2,100,0,0
220395,-100,4,2,2,60,0,0
220610,-100,4,2,2,80,0,0
220824,-100,4,2,2,60,0,0
221038,-100,4,2,2,100,0,0
228645,-90.9090909090909,4,2,2,100,0,0
230788,-100,4,2,2,100,0,0
261324,-100,4,2,2,60,0,0
261538,-100,4,2,2,70,0,0
261752,-100,4,2,2,80,0,0
261967,-100,4,2,2,90,0,0
262181,-100,4,2,2,69,0,0

[Colours]
Combo1 : 255,0,255
Combo2 : 151,255,47
Combo3 : 0,215,0
Combo4 : 0,128,0
Combo5 : 0,0,255
Combo6 : 0,255,255
Combo7 : 113,179,232
Combo8 : 255,0,0

[HitObjects]
40,192,2,53,4
88,296,431,1,0
200,336,860,2,0,B|256:360|304:328|304:264,2,130,2|0|2
168,224,2145,1,0
168,224,2360,1,0
224,120,2788,2,0,B|284:97|349:147|416:120,1,195,2|0
512,192,3860,1,0
456,296,4288,6,0,B|440:328|407:339|368:328|352:296,1,130,2|0
304,184,5145,2,0,B|256:144|176:144,1,130,2|0
136,184,5788,2,0,B|128:256|168:320|232:344,1,195,2|2
344,360,6860,1,2
400,352,7074,1,0
440,304,7288,1,0
480,192,7717,6,0,B|482:141|460:97|406:74,2,130,2|0|2
360,184,9002,1,0
360,184,9217,1,0
296,88,9645,2,0,B|235:110|170:60|104:88,1,195,2|0
40,184,10717,1,0
88,288,11145,85,2
184,352,11574,1,0
304,352,12002,2,0,B|456:352|474:248|456:144|304:144,1,390,2|0
224,232,13717,70,0,B|168:168|168:168|200:112,2,130,6|0|2
304,320,15002,1,8
424,320,15431,1,2
344,232,15860,1,0
400,232,16074,2,0,B|488:236|488:116|400:120,1,195,0|8
272,104,17145,6,0,B|232:136|212:120|192:104|144:136,2,130,2|0|2
392,104,18431,1,8
496,56,18860,2,0,B|526:112|512:160|472:192|472:192|472:248,1,195,2|2
296,232,20145,1,8
176,232,20574,6,0,B|176:312,2,65,2|0|2
184,112,21431,2,0,B|136:48|80:144|0:72,2,195,2|0|2
224,160,22931,2,0,B|224:232,3,65,0|0|2|8
288,324,24002,1,0
320,208,24431,86,0,B|304:144|304:144|320:80,2,130,0|2|8
392,296,25717,1,2
480,144,26360,1,0
256,192,26788,12,2,29145
200,88,41145,37,4
104,152,41574,1,8
104,272,42002,2,0,B|104:320|136:360|184:360,2,130,2|8|2
216,232,43288,1,8
272,216,43502,2,0,B|312:200|360:200|400:216,1,130,0|0
384,272,44145,2,0,B|424:288|472:288|512:272,1,130,8|2
488,160,45002,5,8
440,120,45217,1,0
384,136,45431,2,0,B|352:160|288:160|256:136,2,130,2|8|2
360,248,46717,1,8
304,232,46931,2,0,B|264:216|224:216|176:232,1,130,2|0
168,288,47574,2,0,B|120:303|80:303|40:287,1,130,8|2
40,168,48431,5,8
80,128,48645,1,0
136,136,48860,2,0,B|176:152|224:152|264:136,2,130,2|8|2
200,232,50145,1,8
144,248,50360,2,0,B|96:272|72:304|56:344,1,130
104,376,51002,2,0,B|232:376,1,130,8|2
272,264,51860,85,8
304,312,52074,1,0
352,336,52288,1,2
464,368,52717,1,8
456,256,53145,2,0,B|344:288|264:168|424:112|344:0|240:32,1,390,2|8
136,88,54860,70,0,B|184:136|184:136|120:200,2,130,4|8|2
64,176,56145,2,0,B|64:312,1,130,8|2
176,312,57002,2,0,B|240:352|304:304,2,130,8|0|8
240,216,58288,2,0,B|240:152,2,65,2|0|8
360,216,59145,1,2
480,216,59574,5,8
424,112,60002,1,0
360,216,60431,1,8
432,312,60860,2,0,B|376:360|296:304,1,130,2|8
192,312,61717,2,0,B|240:360,2,65,2|0|8
112,224,62574,6,0,B|160:180|160:180|208:220|208:220|260:180,2,195,2|2|8
96,112,64288,1,0
216,112,64717,1,8
336,112,65145,2,0,B|368:176|368:176|328:248,3,130,2|8|0|2
256,192,66860,12,2,68145
256,320,68574,6,0,B|176:352|112:312,1,142.999995738268,4|0
96,160,69431,2,0,B|64:88,2,71.499997869134,8|2|8
128,232,70074,1,2
200,200,70288,2,0,B|232:176|304:176|336:200,2,142.999995738268,0|10|12
384,56,72002,6,0,B|432:72|456:120|448:176,1,142.999995738268,6|0
344,288,72860,2,0,B|376:352,2,71.499997869134,8|2|8
304,216,73502,1,2
240,264,73717,2,0,B|200:296|144:296|104:264,2,142.999995738268,0|10|12
320,64,75431,6,0,B|296:40|256:24|216:40|192:64,2,142.999995738268,6|0|8
352,136,76502,1,2
320,208,76717,1,8
352,280,76931,1,2
320,352,77145,2,0,B|296:376|256:392|216:376|192:352,2,142.999995738268,0|10|12
160,208,78860,6,0,B|70:207|2:177|14:92|64:49|122:73|122:73|136:14|201:0|276:44|257:115|203:186,1,571.999982953072,6|0
256,336,81002,1,12
256,336,81431,1,8
336,96,82288,22,0,B|376:120|384:152|376:192|336:208,2,142.999995738268,6|0|10
224,152,83574,1,10
96,152,84002,2,0,B|96:240|192:256,2,142.999995738268,0|10|12
224,152,85288,1,2
352,152,85717,6,0,B|508:152,1,142.999995738268,4|0
496,284,86574,2,0,B|340:284,1,142.999995738268,8|8
232,324,87431,2,0,B|176:184|408:240|184:128|344:64,1,285.999991476536,2|2
484,276,89145,5,4
408,380,89574,1,0
388,252,90002,1,8
320,364,90431,1,8
232,268,90860,2,0,B|164:204|76:304|28:216,1,214.499993607402
76,176,91717,2,0,B|76:96,3,71.499997869134,12|0|8|0
136,128,92574,86,0,B|212:100|212:100|244:156|244:156|308:132|308:132|348:196,1,285.999991476536,12|10
268,296,93860,2,0,B|312:392|472:376|484:268,2,285.999991476536,2|4|2
256,192,96002,12,2,99431
248,144,109717,37,4
344,80,110145,1,8
400,80,110360,2,0,B|448:80|488:104|512:136,2,130,2|2|2
424,192,111645,1,0
304,192,112074,1,0
184,192,112502,2,0,B|152:192|128:232,2,65,0|8|2
232,224,113145,6,0,B|232:272|272:304|320:304,1,130,4|8
376,304,113788,1,2
464,224,114217,1,2
440,112,114645,2,0,B|408:48|337:46,2,130,2|0|0
336,168,115931,1,2
336,168,116145,1,8
232,120,116574,6,0,B|184:112|144:120|112:152,1,130,4|8
144,200,117217,2,0,B|111:232|71:240|23:232,2,130,2|2|2
256,240,118502,2,0,B|288:264|296:296,2,65,2|8|2
256,120,119360,1,2
256,120,119788,1,0
256,192,120002,12,0,122574
256,192,123431,38,0,B|344:192,2,65,4|0|8
196,192,124074,1,0
156,148,124288,2,0,B|220:84|220:84|280:120,1,130,2|8
360,152,125145,2,0,B|422:196|422:196|344:264|400:320,2,195,2|0|8
284,240,126860,6,0,B|284:328,2,65,2|0|8
168,236,127717,1,2
52,236,128145,1,8
108,132,128574,1,2
224,132,129002,2,0,B|280:96|332:184|408:104,2,195,8|0|2
228,192,130502,2,0,B|228:288,2,65,0|8|2
288,192,131145,6,0,B|352:192|352:192|400:136,1,130,2|8
452,244,132002,2,0,B|384:252|384:252|348:316,1,130,2|8
236,316,132860,2,0,B|156:280|156:280|192:184,2,130,0|8|0
292,328,133931,2,0,B|292:264,2,65,2|8|2
352,328,134574,86,0,B|456:328|460:212,1,130,0|8
456,144,135431,1,2
348,192,135860,2,0,B|284:272|164:108|112:224,1,260,8|8
200,336,137145,37,0
256,336,137360,1,0
312,336,137574,1,10
400,256,138002,2,0,B|384:216|336:192|288:200,2,130,0|8|2
448,152,139288,1,8
456,96,139502,2,0,B|464:32,2,65,0|2|0
400,88,140145,2,0,B|350:82|312:96|286:135,2,130,8|0|8
376,200,141431,5,2
280,264,141860,1,8
160,272,142288,2,0,B|104:280|48:240|40:184,1,130,2|8
80,160,142931,2,0,B|136:152|192:192|200:248,1,130,2|0
232,256,143574,2,0,B|264:283|318:282|354:253,2,130,8|2|8
288,152,144860,6,0,B|296:104|344:80|392:96,1,130,2|8
472,176,145717,1,2
424,280,146145,1,8
384,320,146360,2,0,B|344:360|264:360,1,130
208,352,147002,1,8
152,328,147217,2,0,B|96:296|72:224,2,130,0|2|0
184,280,148288,86,0,B|192:232|256:200|320:232|328:280,1,195
256,192,149145,12,2,150645
256,192,152574,69,2
372,172,153002,2,0,B|368:256|300:288,1,130,0|2
196,272,153860,2,0,B|124:212|168:128,2,130,2|0|0
256,192,155145,1,2
36,116,156002,6,0,B|128:224|208:52|296:160,1,260,2|2
300,256,157288,1,2
376,168,157717,2,0,B|440:216|408:296,2,130,0|0|2
196,316,159431,5,2
164,268,159645,1,0
176,212,159860,2,0,B|200:176|256:168|296:204,2,130,0|2|0
88,136,161145,1,0
88,136,161574,1,2
88,136,162002,1,2
312,92,162860,86,0,B|392:132|392:244|312:324,1,260,2|2
200,92,164574,2,0,B|120:132|120:244|200:324,1,260,0|2
424,320,166288,101,2
308,296,166717,1,0
292,184,167145,2,0,B|345:226|413:223,1,130,2|2
500,216,167788,2,0,B|458:135|438:120|413:120|398:140|352:126|352:100|332:85|306:85|226:127,1,325,0|2
176,336,169717,53,0
72,288,170145,1,2
40,176,170574,2,0,B|40:104|104:64,1,130,2|0
152,40,171217,1,2
208,32,171431,2,0,B|280:16|392:56|408:160,1,260,0|2
208,352,173145,6,0,B|280:376|352:344,2,130,2|8|2
160,320,174217,1,0
136,264,174431,1,8
136,144,174860,2,0,B|192:88|320:88|376:144,1,260,2|2
256,192,176574,12,0,179145
184,136,180002,54,0,B|128:196|128:196|160:248,1,142.999995738268,4|0
288,220,180860,2,0,B|288:300,1,71.499997869134,8|2
348,316,181288,2,0,B|428:316,1,71.499997869134,8|2
448,256,181717,2,0,B|408:188|304:212,2,142.999995738268,0|10|12
168,248,183431,5,4
168,248,183860,1,0
288,292,184288,2,0,B|256:372|164:348,2,142.999995738268,8|8|0
252,168,185574,2,0,B|180:124|116:172,1,142.999995738268,10|12
360,260,186860,6,0,B|300:316|212:264,1,142.999995738268,4|0
112,260,187717,2,0,B|112:336,3,71.499997869134,8|2|8|2
176,344,188574,2,0,B|240:296|312:344,1,142.999995738268,0|10
436,336,189431,1,12
296,124,190288,70,0,B|376:96|396:192|356:228|288:256,1,214.499993607402,4|0
211,250,191145,2,0,B|156:228|116:192|136:96|216:124,1,214.499993607402,4|0
256,56,192002,2,0,B|328:16|424:32|488:88|492:160,1,285.999991476536,2|4
388,312,193717,54,0,B|428:304|456:232|428:192,1,142.999995738268,4|0
416,36,194574,2,0,B|456:12|488:20,2,71.499997869134,8|2|8
348,76,195217,1,2
280,116,195431,2,0,B|200:164|104:68|0:124,1,285.999991476536,0|12
8,280,196717,1,2
156,328,197145,6,0,B|204:376|284:384,1,142.999995738268,4|0
240,232,198002,1,8
300,280,198217,1,2
376,292,198431,1,8
440,248,198645,1,2
484,184,198860,2,0,B|544:120|524:28|436:4|364:80,1,285.999991476536,2|2
220,136,200145,1,10
264,288,200574,5,4
264,288,201002,1,0
108,320,201431,2,0,B|44:280,1,71.499997869134,8|2
92,216,201860,2,0,B|52:152,1,71.499997869134,8|2
128,124,202288,2,0,B|120:40|216:-8|312:40|296:128,1,285.999991476536,0|10
248,264,203574,1,10
392,336,204002,86,0,B|456:312|504:232|456:152,1,214.499993607402,4|0
424,88,204860,2,0,B|400:24|304:-8|248:56,1,214.499993607402,2|2
256,192,205717,12,4,207431
168,176,208288,70,8,B|189:126|244:116|281:140,3,130,2|8|2|8
240,204,209788,1,0
240,204,210002,1,8
348,248,210431,2,0,B|348:336,2,65,8|10|4
260,36,211717,5,2
352,108,212145,1,8
352,224,212574,2,0,B|376:300|284:356|192:300|216:224,1,260,2|8
392,72,214288,21,4
448,296,215145,2,0,B|392:328|320:320,1,130,2|8
222,251,216002,2,0,B|136:210|184:98|298:120|296:208,2,260,2|8|4
320,320,218145,1,2
208,352,218574,6,0,B|144:368|80:352,1,130,2|8
80,232,219431,2,0,B|232:264|352:208,1,260,2|8
384,184,220502,1,8
424,136,220717,1,8
416,80,220931,1,10
392,32,221145,1,4
216,128,222002,22,0,B|160:88|32:192|256:300,1,260,0|2
288,128,223717,2,0,B|344:88|472:192|256:300,1,260,2|4
156,88,225431,5,0
272,88,225860,1,2
308,200,226288,2,0,B|288:268|212:304|140:268|116:196,1,260,2|0
116,196,227788,1,2
352,208,228860,102,0,B|442:207|510:177|498:92|448:49|390:73|390:73|376:14|311:0|236:44|255:115|312:184,1,571.999982953072,2|0
256,192,231002,12,2,233145
256,304,234002,5,0
56,168,234860,6,0,B|96:144|120:168|144:192|184:168,3,130,4|8|2|0
256,256,236574,1,8
304,224,236788,1,0
304,168,237002,1,8
424,168,237431,5,8
408,224,237645,1,2
456,256,237860,1,10
360,320,238288,6,0,B|296:312|296:312|244:268,3,130,4|8|2|0
152,200,240002,1,8
152,200,240217,1,0
152,200,240431,1,8
248,136,240860,85,8
248,136,241074,1,2
248,136,241288,1,8
336,208,241717,6,0,B|336:280,2,65,4|2|8
392,208,242360,1,2
392,328,242788,1,2
392,328,243217,1,2
280,280,243645,6,0,B|264:200|168:208,2,130,0|2|0
216,312,244717,2,0,B|80:312,1,130,8|4
88,256,245360,2,0,B|88:184,2,65,2|8|2
16,156,246217,1,2
160,156,246645,1,0
160,216,246860,102,0,B|264:272|288:88|384:144,1,260,2|0
488,200,248145,1,2
408,288,248574,21,4
408,288,249002,1,8
288,288,249431,1,0
232,288,249645,2,0,B|176:288|160:304|104:304,3,130,2|2|0|2
32,208,251360,1,0
16,152,251574,1,8
112,88,252002,5,4
112,88,252431,1,8
232,88,252860,1,0
288,88,253074,2,0,B|336:88|384:144|368:184,1,130,2|2
320,280,253931,2,0,B|272:280|224:224|240:184,1,130
128,152,254788,2,0,B|80:152|32:208|48:248,1,130,2|0
48,296,255431,5,4
48,296,255860,1,8
152,344,256288,2,0,B|224:368,2,65,0|2|8
152,288,256931,2,0,B|144:224|200:168,2,130,0|2|0
272,288,258217,1,0
328,288,258431,1,8
384,288,258645,1,2
440,288,258860,86,0,B|488:240|504:168|488:96|440:48,1,260,4|0
328,72,260145,2,0,B|260:100|260:176,2,130,2|2|0
384,192,261431,5,8
384,192,261645,1,8
384,192,261860,1,8
384,192,262074,1,8
384,192,262288,1,2
