osu file format v9

[General]
AudioFilename: l.mp3
AudioLeadIn: 0
PreviewTime: 69917
Countdown: 0
SampleSet: Soft
StackLeniency: 0.4
Mode: 0
LetterboxInBreaks: 0

[Editor]
Bookmarks: 124998,208988,213274,216702,220131,223560,226988,234274,243274,253131,259988
DistanceSpacing: 0.8
BeatDivisor: 4
GridSize: 8

[Metadata]
Title:Love Distance Long Affair
Artist:DECO*27 feat. Topi
Creator:Blove
Version:S h i a's Normal
Source:
Tags:vocaloid hatsune miku shia s_h_i_a freefish

[Difficulty]
HPDrainRate:3
CircleSize:4
OverallDifficulty:3
ApproachRate:5
SliderMultiplier:1.1
SliderTickRate:2

[Events]
//Background and Video events
Video,137,"l.flv"
0,0,"19.jpg"
//Break Periods
2,29187,41502
2,97760,110074
2,236616,242074
//Storyboard Layer 0 (Background)
//Storyboard Layer 1 (Fail)
//Storyboard Layer 2 (Pass)
//Storyboard Layer 3 (Foreground)
//Storyboard Sound Samples
//Background Colour Transformations
3,100,163,162,255

[TimingPoints]
1560,428.571428571429,4,2,1,40,1,0
14631,-100,4,2,2,40,0,0
15488,-100,4,2,1,40,0,0
28881,-100,4,1,0,40,0,0
42595,-100,4,2,1,50,0,0
68310,-100,4,1,2,20,0,0
68524,-100,4,1,2,5,0,0
69167,-100,4,1,2,20,0,0
70131,-100,4,1,2,50,0,1
97560,-100,4,2,0,40,0,0
111167,-100,4,2,1,50,0,0
149738,-100,4,2,1,30,0,0
150595,-100,4,2,1,38,0,0
151452,-100,4,2,1,46,0,0
152310,-100,4,2,1,54,0,0
154024,-100,4,2,1,40,0,0
181560,-100,4,1,2,50,0,1
236417,-100,4,1,2,40,0,0
243167,-100,4,2,1,65,0,0
263738,-100,4,2,1,40,0,0

[Colours]
Combo1 : 200,133,134
Combo2 : 142,165,165

[HitObjects]
128,112,1560,1,2
128,112,2417,2,0,B|160:64|224:112|224:112|272:40|328:104,1,220,8|2
232,248,4131,1,8
232,248,4988,5,2
96,144,5845,2,0,B|128:88|184:88,1,110,8|0
272,104,6702,2,0,B|336:136|336:256|264:288,2,220,2|8|2
128,208,9274,6,0,B|192:168|240:200,1,110,8|0
192,272,10131,2,0,B|112:336|16:264|40:176,2,220,2|8|2
144,104,12702,1,8
136,192,13131,5,0
216,160,13560,1,2
392,160,14417,5,4
248,264,15274,1,4
168,296,15702,1,0
248,264,16131,6,0,B|312:248|352:304,1,110,2|4
424,256,16988,2,0,B|504:224|504:112|416:80,1,220,2|2
392,168,18274,2,0,B|344:192|280:168,2,110,4|2|0
336,96,19560,6,0,B|312:32|232:48,1,110,2|4
256,136,20417,2,0,B|240:208|144:256|72:184,1,220,2|2
144,128,21702,2,0,B|104:80|32:112,2,110,4|2|0
192,200,22988,6,0,B|224:248|288:232,1,110,2|4
368,200,23845,1,2
336,120,24274,1,0
256,152,24702,1,2
224,72,25131,2,0,B|328:32,2,110,4|2|0
144,112,26417,6,0,B|88:152|96:224,1,110,2|4
184,192,27274,2,0,B|152:248|180:320|252:332,1,165,2|0
264,240,28345,2,0,B|336:192|424:192,1,165,4|4
256,192,42702,5,8
328,136,43131,1,4
352,216,43560,2,0,B|416:200|416:128,1,110,2|4
496,176,44417,2,0,B|512:64|400:48,2,165,8|2|4
424,232,46131,1,8
408,144,46560,1,4
344,200,46988,6,0,B|320:264|384:312,1,110,2|4
440,352,47845,2,0,B|384:272|288:320,2,165,8|2|4
480,272,49560,2,0,B|480:144,1,110,8|4
480,72,50417,5,2
416,128,50845,1,4
352,72,51274,2,0,B|296:144|296:144|208:160,2,165,8|2|4
264,48,52988,1,8
264,48,53417,1,4
176,40,53845,6,0,B|80:120,1,110,2|4
176,144,54702,2,0,B|132:261,1,110,8|4
224,232,55560,2,0,B|245:355,2,110,2|4|8
368,136,57274,5,2
336,216,57702,1,4
424,208,58131,2,0,B|424:280|368:320|296:296,2,165,8|2|4
368,136,59845,6,0,B|328:112|248:144|248:224,2,165,8|2|4
448,104,61560,2,0,B|416:48|344:48,2,110,8|4|8
448,192,62845,2,0,B|376:256|376:256|248:256,1,220,4|4
168,256,64131,6,0,B|72:336,1,110,8|4
72,240,64988,2,0,B|-8:144,1,110,2|4
88,144,65845,2,0,B|184:64,1,110,8|4
184,160,66702,2,0,B|264:256,1,110,2|4
320,184,67560,2,0,B|392:272,1,110,8|4
448,336,68417,6,0,B|504:248|424:192|424:192|424:128,1,220,0|0
256,88,70131,6,0,B|288:152|240:208,2,110,4|2|8
184,136,71417,1,2
152,216,71845,2,0,B|120:216|120:216|96:184|96:184|64:256|64:256|40:216|40:216|8:216,1,220,0|8
176,328,73560,6,0,B|248:320|264:256,1,110,8|2
208,200,74417,2,0,B|224:136|288:120,1,110,0|2
328,200,75274,2,0,B|400:192|416:128,2,110,8|2|4
216,88,76988,5,8
256,168,77417,1,2
176,208,77845,1,0
216,288,78274,1,2
128,288,78702,2,0,B|56:232|80:128|176:112,1,220,8|4
328,64,80417,6,0,B|372:5|459:58|424:129|424:129|500:107|547:213|500:294|378:261|294:248|294:248|279:167|307:101,1,660,0|4
128,160,83845,6,0,B|80:208|112:280,2,110,0|2|8
200,112,85131,1,2
216,200,85559,2,0,B|248:200|248:200|272:168|272:168|304:240|304:240|328:200|328:200|352:200,1,220,0|8
448,336,87274,6,0,B|440:272|376:264,1,110,0|2
288,248,88131,2,0,B|336:208|320:144,1,110,8|2
248,104,88988,2,0,B|288:56|352:64,2,110,0|2|4
96,192,90702,5,0
176,152,91131,1,2
256,184,91559,1,8
344,168,91988,1,2
408,224,92416,2,0,B|472:144|360:88|480:32,1,220,0|8
256,192,94131,12,4,97560
256,192,111274,5,2
240,280,111702,2,0,B|312:288|360:224|336:160,1,165
296,104,112774,1,2
8,192,114702,5,2
96,168,115131,2,0,B|152:168,1,55
224,216,115774,2,0,B|352:216,1,110,0|2
416,88,118131,6,0,B|376:40|296:40|264:104,1,165
344,136,119202,2,0,B|296:184|232:168,1,110,0|2
192,96,120060,2,0,B|144:136|160:200,2,110,0|0|2
64,128,121560,6,0,B|32:224|104:288,2,165,2|0|0
152,112,123274,2,0,B|216:120|264:56,1,110,2|0
280,152,124131,2,0,B|328:192|392:152,1,110,2|0
400,72,124988,6,0,B|344:80|272:64,1,110,8|4
208,104,125845,2,0,B|152:104|80:144,2,110,2|4|8
184,192,127131,2,0,B|224:264|296:328,2,165,4|2|8
152,112,128845,2,0,B|216:80,1,55,4|0
248,88,129274,6,0,B|304:80|360:56,1,110,2|4
440,40,130131,2,0,B|456:96|448:168,1,110,8|4
424,184,130774,2,0,B|384:264|368:352,1,165,2|4
288,304,131845,1,8
208,344,132274,1,4
144,288,132702,5,2
184,208,133131,1,4
272,216,133560,1,8
320,144,133988,2,0,B|328:80,1,55,4|2
240,72,134631,2,0,B|232:136,1,55,2|4
152,96,135274,2,0,B|104:112|48:160,1,110,8|4
32,240,136131,6,0,B|64:288|112:328,1,110,2|4
192,320,136988,2,0,B|250:349|336:321|372:230|318:144|260:126|199:137|151:170|145:238,1,440,8|8
104,312,139131,1,4
56,240,139560,6,0,B|64:184|104:120,1,110,2|4
160,80,140417,2,0,B|208:40|280:32,1,110,8|4
304,32,141060,2,0,B|360:48|432:48,1,110,2|2
456,56,141702,2,0,B|464:120|488:184,1,110,4|8
496,248,142560,1,4
464,328,142988,6,0,B|416:296|384:232,1,110,2|4
328,304,143845,2,0,B|280:272|200:264,1,110,8|4
192,296,144488,2,0,B|136:288|72:256,1,110,2|2
48,280,145131,2,0,B|16:232|8:176,2,110,4|8|4
104,208,146417,5,2
184,176,146845,1,4
272,200,147274,2,0,B|328:224|376:280,1,110,8|4
408,256,147917,2,0,B|456:192|480:104,1,165,2|4
456,72,148774,2,0,B|368:56|272:80,1,165,8|4
208,64,149845,5,2
128,224,150702,1,2
264,336,151560,1,2
424,256,152417,1,2
104,112,154131,5,2
104,112,154988,2,0,B|160:96|224:64,1,110,0|2
296,48,155845,2,0,B|360:48|424:72,2,110,0|0|2
448,144,157560,5,2
288,216,158417,2,0,B|240:248|160:248,1,110,0|2
120,304,159274,2,0,B|64:288|16:224,2,110,0|0|2
104,128,160988,6,0,B|160:112|232:112,1,110,2|0
304,104,161845,2,0,B|360:120,1,55
392,96,162274,2,0,B|424:144,1,55,2|0
464,152,162702,2,0,B|464:208|448:280,2,110,0|0|2
288,184,164417,6,0,B|184:232|240:288|120:328,2,220,0|2|0
376,336,166988,1,2
440,168,167845,5,0
288,80,168702,2,0,B|208:64|120:88,1,165,2|0
96,120,169560,2,0,B|144:160|176:224,2,110,0|2|0
160,288,171274,6,0,B|216:280|280:240,1,110,0|2
336,200,172131,1,0
384,128,172560,2,0,B|408:64,1,55,2|0
368,48,172988,2,0,B|256:64|136:48,1,220
24,176,174702,6,0,B|72:208|104:272,1,110,0|2
8,264,175560,2,0,B|120:248|248:280,2,220,0|2|0
256,192,178131,12,0,180702
256,192,181560,5,4
296,112,181988,1,2
232,48,182417,2,0,B|160:32,3,55,8|0|2|0
136,48,183274,2,0,B|48:112|8:224,1,220,0|8
152,320,184988,5,0
224,264,185417,1,2
296,312,185845,2,0,B|360:312,1,55,8|0
384,280,186274,2,0,B|448:256,1,55,2|0
456,224,186702,2,0,B|448:160|416:112,2,110,0|2|8
368,72,188417,6,0,B|320:104|304:160,1,110,0|2
232,208,189274,2,0,B|160:200,3,55,8|0|2|0
136,200,190131,2,0,B|88:184|48:208|48:264,1,110
48,328,190988,2,0,B|96:344|136:320|136:264,1,110
256,192,191845,12,0,194417
176,136,195274,6,0,B|184:200|216:256,1,110,0|8
224,328,196131,2,0,B|272:304|312:248,1,110,2|8
392,240,196988,2,0,B|360:176|320:136,2,110,0|8|4
360,64,198702,6,0,B|304:64|248:104,1,110,0|8
192,152,199560,1,2
120,200,199988,2,0,B|88:264,1,55,8|0
64,280,200417,2,0,B|0:264|16:184,2,110,0|2|4
248,88,202131,5,0
336,112,202560,1,8
416,72,202988,2,0,B|464:112,1,55
456,152,203417,2,0,B|448:208,1,55,2|0
480,240,203845,2,0,B|400:256|368:288,1,110,0|8
304,320,204702,1,4
136,280,205560,6,0,B|64:232|32:144,1,165,0|2
72,128,206417,2,0,B|152:112|232:64,1,165,8|2
272,64,207274,2,0,B|368:48|440:144|424:256|336:296|256:312|192:216,1,440,8|4
112,88,209845,6,0,B|160:136|112:192,1,110,0|8
32,160,210702,2,0,B|8:248|88:304|152:272|184:248,1,220,0|8
192,168,211988,2,0,B|256:176|264:248,1,110,2|4
416,336,213274,6,0,B|440:288|448:224,1,110,0|8
360,256,214131,2,0,B|320:216|248:192,1,110,2|8
184,184,214988,2,0,B|112:184|80:80|144:32|192:32,1,220,0|4
352,72,216702,6,0,B|416:96|408:168,1,110,0|8
320,168,217560,2,0,B|336:240|408:248,1,110,2|8
472,216,218417,2,0,B|344:240|336:368,1,220,8|4
160,336,220131,6,0,B|104:304|80:240,1,110,0|8
56,176,220988,2,0,B|56:120|24:72,1,110,2|8
112,80,221845,2,0,B|176:64|240:88|264:136|256:200,1,220,0|4
144,128,223560,6,0,B|144:96|224:64|256:128|256:128|280:64|392:72|424:144|368:256|256:296|256:296|152:256|144:184,1,660,0|4
424,200,226988,6,0,B|416:256|360:296,1,110,0|8
283,327,227845,2,0,B|239:373|181:367|127:336|94:285|108:185|194:138|278:172|303:231,1,440,2|4
440,120,230417,5,0
352,120,230845,1,8
272,80,231274,2,0,B|224:48|160:48,2,110,2|8|2
200,136,232560,2,0,B|208:288|400:208|440:336,1,330,0|4
488,256,234274,5,0
472,168,234702,2,0,B|448:80|336:64|288:160,2,220,8|0|4
56,128,243274,5,0
136,160,243702,2,0,B|168:216,1,55,0|2
160,296,244345,2,0,B|232:288|256:216,1,110,2|4
248,238,246274,6,0,B|264:166,2,55,0|0|2
176,184,247131,2,0,B|152:120,1,55,0|2
72,120,247774,2,0,B|88:48|160:48,1,110,2|4
144,48,249702,6,0,B|224:48,2,55,0|0|2
64,96,250560,2,0,B|120:144,1,55,0|2
80,216,251202,2,0,B|144:232|184:168,1,110,2|4
456,56,253131,6,0,B|432:112,1,55,0|2
392,120,253560,2,0,B|352:152|320:224,1,110,0|2
312,248,254202,2,0,B|256:288|192:280,2,110,0|2|2
88,80,256560,6,0,B|160:96,1,55,2|0
184,80,256988,2,0,B|208:136|208:192,1,110,2|0
184,224,257631,2,0,B|248:232|304:280,1,110
360,312,258488,1,2
144,216,259988,6,0,B|152:152|216:128,1,110,0|4
305,131,260845,2,0,B|360:152|368:216,1,110,0|4
256,208,261702,1,0
256,192,262131,12,4,263845
