osu file format v13

[General]
AudioFilename: DECO27 feat. Hatsune Miku - Streaming Heart.mp3
AudioLeadIn: 0
PreviewTime: 56383
Countdown: 0
SampleSet: Normal
StackLeniency: 0.7
Mode: 1
LetterboxInBreaks: 0
WidescreenStoryboard: 1

[Editor]
Bookmarks: 526,141240
DistanceSpacing: 0.5
BeatDivisor: 4
GridSize: 32
TimelineZoom: 2.899998

[Metadata]
Title:Streaming Heart
TitleUnicode:Streaming Heart
Artist:DECO*27 feat. Hatsune Miku
ArtistUnicode:DECO*27 feat. Hatsune Miku
Creator:koko6162006
Version:Oni
Source:Conti New
Tags:DECO*27 gagame
BeatmapID:431764
BeatmapSetID:179593

[Difficulty]
HPDrainRate:5
CircleSize:5
OverallDifficulty:5
ApproachRate:5
SliderMultiplier:1.4
SliderTickRate:1

[Events]
//Background and Video events
0,0,"BG.jpg",0,0
//Break Periods
2,74995,82738
//Storyboard Layer 0 (Background)
//Storyboard Layer 1 (Fail)
//Storyboard Layer 2 (Pass)
//Storyboard Layer 3 (Foreground)
//Storyboard Sound Samples
//Background Colour Transformations
3,100,163,162,255

[TimingPoints]
510,285.714285714286,4,1,0,100,1,0
47295,-100,4,1,0,60,0,0
47438,-100,4,1,0,100,0,0
48438,-100,4,1,0,60,0,0
48581,-100,4,1,0,100,0,0
49581,-100,4,1,0,60,0,0
49724,-100,4,1,0,100,0,0
50724,-100,4,1,0,60,0,0
50867,-100,4,1,0,100,0,0
56510,-100,4,1,0,100,0,1
74867,-100,4,1,0,100,0,0
120438,-100,4,1,0,60,0,0
120581,-100,4,1,0,100,0,0
121581,-100,4,1,0,60,0,0
121724,-100,4,1,0,100,0,0
122724,-100,4,1,0,60,0,0
122867,-100,4,1,0,100,0,0
123867,-100,4,1,0,60,0,0
124010,-100,4,1,0,100,0,0
130795,-100,4,1,0,100,0,1
167438,-100,4,1,0,100,0,0

[Colours]
Combo1 : 175,221,254
Combo2 : 171,252,203

[HitObjects]
277,207,510,5,0,0:0:0:0:
277,207,795,1,0,0:0:0:0:
277,207,1081,1,0,0:0:0:0:
277,207,1367,1,0,0:0:0:0:
277,207,1652,1,0,0:0:0:0:
277,207,1938,1,0,0:0:0:0:
277,207,2224,1,0,0:0:0:0:
277,207,2510,1,0,0:0:0:0:
256,192,2652,1,8,0:0:0:0:
277,207,2795,1,0,0:0:0:0:
277,207,3081,1,0,0:0:0:0:
277,207,3367,1,0,0:0:0:0:
277,207,3652,1,0,0:0:0:0:
277,207,3938,1,0,0:0:0:0:
277,207,4224,1,0,0:0:0:0:
277,207,4510,1,0,0:0:0:0:
256,192,4652,1,8,0:0:0:0:
277,207,4795,1,0,0:0:0:0:
256,192,4938,1,8,0:0:0:0:
277,207,5081,1,0,0:0:0:0:
277,207,5367,1,0,0:0:0:0:
277,207,5652,1,0,0:0:0:0:
277,207,5938,1,0,0:0:0:0:
277,207,6224,1,0,0:0:0:0:
277,207,6510,1,0,0:0:0:0:
277,207,6795,1,0,0:0:0:0:
277,207,7081,1,0,0:0:0:0:
277,207,7224,1,8,0:0:0:0:
277,207,7367,1,0,0:0:0:0:
245,197,8510,1,4,0:0:0:0:
245,197,8795,1,0,0:0:0:0:
245,197,8938,1,0,0:0:0:0:
245,197,9081,1,8,0:0:0:0:
245,197,9367,1,8,0:0:0:0:
245,197,9510,1,8,0:0:0:0:
245,197,9652,1,4,0:0:0:0:
245,197,10081,1,0,0:0:0:0:
245,197,10224,1,8,0:0:0:0:
245,197,10510,1,8,0:0:0:0:
245,197,10795,1,0,0:0:0:0:
245,197,11081,1,0,0:0:0:0:
245,197,11367,1,8,0:0:0:0:
245,197,11652,1,8,0:0:0:0:
245,197,11938,1,0,0:0:0:0:
245,197,12367,1,0,0:0:0:0:
245,197,12510,1,8,0:0:0:0:
245,197,12795,1,8,0:0:0:0:
245,197,13081,1,0,0:0:0:0:
245,197,13367,1,0,0:0:0:0:
245,197,13652,1,8,0:0:0:0:
245,197,13938,1,8,0:0:0:0:
245,197,14224,1,0,0:0:0:0:
245,197,14652,1,0,0:0:0:0:
245,197,14795,1,8,0:0:0:0:
245,197,15081,1,0,0:0:0:0:
245,197,15224,1,8,0:0:0:0:
245,197,15367,1,0,0:0:0:0:
245,197,15652,1,8,0:0:0:0:
245,197,15795,1,8,0:0:0:0:
245,197,15938,1,0,0:0:0:0:
245,197,16224,1,0,0:0:0:0:
245,197,16510,1,0,0:0:0:0:
245,197,16938,1,0,0:0:0:0:
245,197,17081,1,8,0:0:0:0:
245,197,17367,1,0,0:0:0:0:
245,197,17510,1,8,0:0:0:0:
245,197,17652,1,0,0:0:0:0:
245,197,17938,1,8,0:0:0:0:
245,197,18081,1,8,0:0:0:0:
245,197,18224,1,0,0:0:0:0:
245,197,18510,1,0,0:0:0:0:
245,197,18795,1,4,0:0:0:0:
245,197,19224,1,0,0:0:0:0:
245,197,19367,1,8,0:0:0:0:
216,172,19652,1,8,0:0:0:0:
245,197,19795,1,8,0:0:0:0:
245,197,19938,1,0,0:0:0:0:
256,160,20081,1,0,0:0:0:0:
245,197,20224,1,0,0:0:0:0:
275,186,20367,1,8,0:0:0:0:
245,197,20510,1,0,0:0:0:0:
245,197,20795,1,0,0:0:0:0:
245,197,21081,1,0,0:0:0:0:
245,197,21510,1,0,0:0:0:0:
245,197,21652,1,8,0:0:0:0:
245,197,21938,1,8,0:0:0:0:
245,197,22081,1,8,0:0:0:0:
245,197,22224,1,0,0:0:0:0:
160,160,22367,1,0,0:0:0:0:
245,197,22510,1,0,0:0:0:0:
160,128,22652,1,0,0:0:0:0:
245,197,22795,1,8,0:0:0:0:
245,197,23081,1,8,0:0:0:0:
245,197,23367,1,0,0:0:0:0:
245,197,23796,1,0,0:0:0:0:
245,197,23939,1,8,0:0:0:0:
212,174,24224,1,8,0:0:0:0:
245,197,24367,1,0,0:0:0:0:
245,197,24510,1,0,0:0:0:0:
160,160,24652,1,0,0:0:0:0:
256,160,24795,1,8,0:0:0:0:
275,186,24939,1,8,0:0:0:0:
256,160,25081,1,0,0:0:0:0:
256,160,25367,1,0,0:0:0:0:
245,197,25653,1,0,0:0:0:0:
245,197,26082,1,0,0:0:0:0:
245,197,26224,1,8,0:0:0:0:
245,197,26510,1,8,0:0:0:0:
245,197,26653,1,8,0:0:0:0:
245,197,26796,1,0,0:0:0:0:
245,197,26938,1,8,0:0:0:0:
245,197,27082,1,0,0:0:0:0:
245,197,27224,1,0,0:0:0:0:
245,197,27367,1,8,0:0:0:0:
245,197,27510,1,8,0:0:0:0:
245,197,27653,1,0,0:0:0:0:
245,197,29081,1,0,0:0:0:0:
245,197,29510,1,0,0:0:0:0:
245,197,29652,1,8,0:0:0:0:
245,197,30081,1,0,0:0:0:0:
245,197,30367,1,0,0:0:0:0:
245,197,30652,1,0,0:0:0:0:
245,197,30795,1,8,0:0:0:0:
256,224,30938,1,0,0:0:0:0:
256,192,31224,1,0,0:0:0:0:
245,197,31367,1,0,0:0:0:0:
245,197,31795,1,0,0:0:0:0:
245,197,31938,1,8,0:0:0:0:
245,197,32367,1,0,0:0:0:0:
245,197,32652,1,0,0:0:0:0:
245,197,32938,1,0,0:0:0:0:
245,197,33081,1,8,0:0:0:0:
320,192,33224,1,0,0:0:0:0:
245,197,33652,1,0,0:0:0:0:
245,197,34081,1,0,0:0:0:0:
245,197,34224,1,8,0:0:0:0:
245,197,34652,1,0,0:0:0:0:
245,197,34938,1,0,0:0:0:0:
245,197,35224,1,0,0:0:0:0:
245,197,35367,1,8,0:0:0:0:
256,192,35510,1,0,0:0:0:0:
192,192,35795,1,0,0:0:0:0:
224,179,35938,5,0,0:0:0:0:
224,179,36367,1,0,0:0:0:0:
224,179,36510,1,8,0:0:0:0:
224,179,36795,1,0,0:0:0:0:
242,205,37081,5,0,0:0:0:0:
242,205,37224,1,8,0:0:0:0:
242,205,37295,1,8,0:0:0:0:
242,205,37367,1,8,0:0:0:0:
242,205,37510,1,8,0:0:0:0:
242,205,37652,1,0,0:0:0:0:
242,205,37795,1,0,0:0:0:0:
242,205,37938,1,8,0:0:0:0:
242,205,38081,1,8,0:0:0:0:
242,205,38224,1,4,0:0:0:0:
242,205,38367,1,0,0:0:0:0:
242,205,38438,1,0,0:0:0:0:
242,205,38510,1,8,0:0:0:0:
242,205,38652,1,0,0:0:0:0:
242,205,38795,1,8,0:0:0:0:
242,205,38938,1,0,0:0:0:0:
242,205,39081,1,8,0:0:0:0:
242,205,39224,1,0,0:0:0:0:
242,205,39367,1,8,0:0:0:0:
242,205,39510,1,0,0:0:0:0:
242,205,39581,1,0,0:0:0:0:
242,205,39653,1,8,0:0:0:0:
242,205,39795,1,0,0:0:0:0:
242,205,39938,1,0,0:0:0:0:
242,205,40081,1,8,0:0:0:0:
242,205,40224,1,0,0:0:0:0:
242,205,40367,1,8,0:0:0:0:
242,205,40510,1,4,0:0:0:0:
242,205,40653,1,0,0:0:0:0:
242,205,40724,1,0,0:0:0:0:
242,205,40796,1,8,0:0:0:0:
242,205,40938,1,0,0:0:0:0:
242,205,41081,1,8,0:0:0:0:
242,205,41224,1,0,0:0:0:0:
242,205,41367,1,8,0:0:0:0:
242,205,41510,1,8,0:0:0:0:
242,205,41652,1,0,0:0:0:0:
242,205,41795,1,0,0:0:0:0:
242,205,41866,1,0,0:0:0:0:
242,205,41938,1,8,0:0:0:0:
242,205,42080,1,0,0:0:0:0:
242,205,42223,1,0,0:0:0:0:
242,205,42366,1,8,0:0:0:0:
242,205,42509,1,0,0:0:0:0:
242,205,42652,1,8,0:0:0:0:
242,205,42795,1,4,0:0:0:0:
242,205,42938,1,0,0:0:0:0:
242,205,43009,1,0,0:0:0:0:
242,205,43081,1,8,0:0:0:0:
242,205,43223,1,0,0:0:0:0:
242,205,43366,1,8,0:0:0:0:
242,205,43509,1,0,0:0:0:0:
242,205,43652,1,8,0:0:0:0:
242,205,43795,1,0,0:0:0:0:
242,205,43938,1,8,0:0:0:0:
242,205,44081,1,0,0:0:0:0:
242,205,44152,1,0,0:0:0:0:
242,205,44224,1,8,0:0:0:0:
242,205,44366,1,8,0:0:0:0:
242,205,44509,1,0,0:0:0:0:
242,205,44652,1,0,0:0:0:0:
242,205,44795,1,8,0:0:0:0:
242,205,44938,1,0,0:0:0:0:
242,205,45081,1,4,0:0:0:0:
242,205,45224,1,0,0:0:0:0:
242,205,45295,1,0,0:0:0:0:
242,205,45367,1,8,0:0:0:0:
242,205,45509,1,8,0:0:0:0:
242,205,45652,1,0,0:0:0:0:
242,205,45795,1,0,0:0:0:0:
242,205,45938,1,8,0:0:0:0:
242,205,46081,1,8,0:0:0:0:
222,178,46224,1,0,0:0:0:0:
222,178,46367,1,8,0:0:0:0:
222,178,46438,1,8,0:0:0:0:
222,178,46510,1,0,0:0:0:0:
222,178,46652,1,8,0:0:0:0:
222,178,46795,1,0,0:0:0:0:
222,178,46938,1,8,0:0:0:0:
222,178,47081,1,0,0:0:0:0:
222,178,47367,1,4,0:0:0:0:
222,178,47795,1,0,0:0:0:0:
222,178,48224,1,8,0:0:0:0:
222,178,48510,1,4,0:0:0:0:
222,178,48938,1,0,0:0:0:0:
222,178,49367,1,8,0:0:0:0:
222,178,49652,1,4,0:0:0:0:
222,178,50081,1,0,0:0:0:0:
222,178,50510,1,8,0:0:0:0:
222,178,50795,1,4,0:0:0:0:
222,178,51224,1,0,0:0:0:0:
222,178,51367,1,8,0:0:0:0:
222,178,51652,1,8,0:0:0:0:
222,178,51938,1,4,0:0:0:0:
222,178,52224,1,0,0:0:0:0:
222,178,52510,1,0,0:0:0:0:
222,178,52795,1,0,0:0:0:0:
222,178,53081,1,0,0:0:0:0:
222,178,53367,1,0,0:0:0:0:
222,178,53652,1,0,0:0:0:0:
222,178,53938,1,0,0:0:0:0:
222,178,54224,1,0,0:0:0:0:
222,178,54367,1,0,0:0:0:0:
222,178,54510,1,8,0:0:0:0:
222,178,54652,1,8,0:0:0:0:
222,178,54795,1,0,0:0:0:0:
222,178,54938,1,0,0:0:0:0:
222,178,55081,1,8,0:0:0:0:
222,178,55224,1,8,0:0:0:0:
222,178,55367,1,0,0:0:0:0:
222,178,55510,1,0,0:0:0:0:
222,178,55581,1,0,0:0:0:0:
222,178,55652,1,8,0:0:0:0:
222,178,55724,1,8,0:0:0:0:
222,178,55795,1,8,0:0:0:0:
160,160,55867,1,8,0:0:0:0:
222,178,55938,1,8,0:0:0:0:
222,178,56510,1,4,0:0:0:0:
222,178,56652,1,0,0:0:0:0:
222,178,56724,1,0,0:0:0:0:
222,178,56795,1,8,0:0:0:0:
222,178,56938,1,8,0:0:0:0:
241,158,57081,1,0,0:0:0:0:
222,178,57367,1,0,0:0:0:0:
222,178,57510,1,8,0:0:0:0:
222,178,57652,1,0,0:0:0:0:
222,178,57795,1,0,0:0:0:0:
222,178,57867,1,0,0:0:0:0:
222,178,57938,1,8,0:0:0:0:
222,178,58081,1,8,0:0:0:0:
222,178,58224,1,0,0:0:0:0:
222,178,58367,1,8,0:0:0:0:
222,178,58510,1,0,0:0:0:0:
241,158,58652,1,8,0:0:0:0:
222,178,58795,1,0,0:0:0:0:
222,178,58938,1,0,0:0:0:0:
222,178,59010,1,0,0:0:0:0:
222,178,59081,1,8,0:0:0:0:
222,178,59224,1,8,0:0:0:0:
222,178,59367,1,0,0:0:0:0:
222,178,59510,1,8,0:0:0:0:
222,178,59652,1,0,0:0:0:0:
222,178,59795,1,8,0:0:0:0:
222,178,59938,1,0,0:0:0:0:
222,178,60081,1,8,0:0:0:0:
241,158,60152,1,8,0:0:0:0:
241,158,60224,1,0,0:0:0:0:
222,178,60367,1,8,0:0:0:0:
222,178,60510,1,0,0:0:0:0:
222,178,60652,1,8,0:0:0:0:
222,178,60795,1,0,0:0:0:0:
222,178,60938,1,8,0:0:0:0:
222,178,61081,1,0,0:0:0:0:
216,141,61152,1,0,0:0:0:0:
222,178,61224,1,0,0:0:0:0:
222,178,61295,1,0,0:0:0:0:
222,178,61367,1,8,0:0:0:0:
222,178,61510,1,8,0:0:0:0:
222,178,61652,1,0,0:0:0:0:
222,178,61938,1,0,0:0:0:0:
222,178,62081,1,8,0:0:0:0:
241,158,62224,1,0,0:0:0:0:
241,158,62295,1,0,0:0:0:0:
241,158,62367,1,0,0:0:0:0:
241,158,62438,1,0,0:0:0:0:
241,158,62510,1,8,0:0:0:0:
222,178,62652,1,8,0:0:0:0:
222,178,62795,1,0,0:0:0:0:
222,178,62938,1,8,0:0:0:0:
222,178,63081,1,0,0:0:0:0:
222,178,63224,1,8,0:0:0:0:
241,158,63367,1,0,0:0:0:0:
222,178,63438,1,0,0:0:0:0:
222,178,63510,1,8,0:0:0:0:
222,178,63581,1,8,0:0:0:0:
224,160,63652,1,0,0:0:0:0:
241,158,63795,1,8,0:0:0:0:
241,158,63938,1,0,0:0:0:0:
241,158,64081,1,8,0:0:0:0:
222,178,64224,1,0,0:0:0:0:
222,178,64367,1,8,0:0:0:0:
222,178,64510,1,0,0:0:0:0:
268,171,65081,1,8,0:0:0:0:
268,171,65152,1,8,0:0:0:0:
268,171,65224,1,8,0:0:0:0:
268,171,65295,1,8,0:0:0:0:
268,171,65367,1,8,0:0:0:0:
268,171,65438,1,8,0:0:0:0:
268,171,65510,1,8,0:0:0:0:
288,160,65581,1,8,0:0:0:0:
268,171,65652,1,0,0:0:0:0:
268,171,65938,1,0,0:0:0:0:
293,164,66081,1,8,0:0:0:0:
268,171,66224,1,0,0:0:0:0:
293,164,66367,1,0,0:0:0:0:
268,171,66510,1,8,0:0:0:0:
268,171,66652,1,0,0:0:0:0:
268,171,66795,1,8,0:0:0:0:
268,171,66938,1,8,0:0:0:0:
268,171,67010,1,8,0:0:0:0:
268,171,67081,1,0,0:0:0:0:
268,171,67224,1,8,0:0:0:0:
268,171,67367,1,0,0:0:0:0:
268,171,67510,1,8,0:0:0:0:
268,171,67652,1,0,0:0:0:0:
268,171,67795,1,8,0:0:0:0:
293,164,67938,1,0,0:0:0:0:
268,171,68010,1,0,0:0:0:0:
268,171,68081,1,0,0:0:0:0:
268,171,68152,1,0,0:0:0:0:
268,171,68224,1,8,0:0:0:0:
268,171,68367,1,0,0:0:0:0:
268,171,68510,1,8,0:0:0:0:
268,171,68652,1,0,0:0:0:0:
268,171,68795,1,8,0:0:0:0:
268,171,68938,1,0,0:0:0:0:
268,171,69081,1,0,0:0:0:0:
268,171,69224,1,8,0:0:0:0:
268,171,69295,1,8,0:0:0:0:
268,171,69367,1,0,0:0:0:0:
293,164,69510,1,8,0:0:0:0:
268,171,69652,1,0,0:0:0:0:
268,171,69795,1,8,0:0:0:0:
268,171,69938,1,8,0:0:0:0:
268,171,70081,1,8,0:0:0:0:
268,171,70224,1,0,0:0:0:0:
268,171,70295,1,0,0:0:0:0:
268,171,70367,1,0,0:0:0:0:
268,171,70438,1,0,0:0:0:0:
268,171,70510,1,8,0:0:0:0:
268,171,70652,1,8,0:0:0:0:
268,171,70795,1,0,0:0:0:0:
268,171,70938,1,8,0:0:0:0:
293,164,71081,1,0,0:0:0:0:
268,171,71224,1,8,0:0:0:0:
268,171,71367,1,0,0:0:0:0:
268,171,71510,1,8,0:0:0:0:
268,171,71581,1,8,0:0:0:0:
268,171,71652,1,0,0:0:0:0:
268,171,71795,1,8,0:0:0:0:
268,171,71938,1,0,0:0:0:0:
268,171,72081,1,0,0:0:0:0:
268,171,72224,1,8,0:0:0:0:
268,171,72367,1,0,0:0:0:0:
268,171,72510,1,0,0:0:0:0:
268,171,72581,1,0,0:0:0:0:
268,171,72652,1,0,0:0:0:0:
268,171,72724,1,0,0:0:0:0:
268,171,72795,1,8,0:0:0:0:
268,171,72938,1,0,0:0:0:0:
268,171,73081,1,8,0:0:0:0:
268,171,73224,1,0,0:0:0:0:
268,171,73367,1,8,0:0:0:0:
268,171,73510,1,8,0:0:0:0:
268,171,73652,1,0,0:0:0:0:
268,171,73795,1,0,0:0:0:0:
268,171,73938,1,8,0:0:0:0:
268,171,74081,1,8,0:0:0:0:
268,171,74152,1,8,0:0:0:0:
268,171,74224,1,8,0:0:0:0:
268,171,74367,1,8,0:0:0:0:
268,171,74510,1,8,0:0:0:0:
268,171,74652,1,8,0:0:0:0:
268,171,74795,1,4,0:0:0:0:
250,197,83938,5,0,0:0:0:0:
256,192,84224,1,8,0:0:0:0:
250,197,84367,1,0,0:0:0:0:
256,192,84795,1,8,0:0:0:0:
250,197,85081,1,0,0:0:0:0:
256,192,85367,1,8,0:0:0:0:
250,197,85510,1,0,0:0:0:0:
256,192,85938,1,8,0:0:0:0:
250,197,86224,1,0,0:0:0:0:
256,192,86510,1,8,0:0:0:0:
250,197,86652,1,0,0:0:0:0:
256,192,87081,1,8,0:0:0:0:
250,197,87367,1,0,0:0:0:0:
256,192,87652,1,8,0:0:0:0:
250,197,87795,1,0,0:0:0:0:
256,192,88224,1,8,0:0:0:0:
250,197,88510,1,0,0:0:0:0:
256,192,88795,1,8,0:0:0:0:
250,197,88938,1,0,0:0:0:0:
256,192,89367,1,8,0:0:0:0:
250,197,89652,1,0,0:0:0:0:
256,192,89938,1,8,0:0:0:0:
250,197,90081,1,0,0:0:0:0:
256,192,90510,1,8,0:0:0:0:
250,197,90795,1,0,0:0:0:0:
256,192,91081,1,8,0:0:0:0:
250,197,91224,1,0,0:0:0:0:
256,192,91652,1,8,0:0:0:0:
250,197,91938,1,8,0:0:0:0:
250,197,92224,1,8,0:0:0:0:
250,197,92295,1,8,0:0:0:0:
250,197,92367,1,0,0:0:0:0:
250,197,92438,1,0,0:0:0:0:
250,197,92510,1,0,0:0:0:0:
277,200,92581,1,0,0:0:0:0:
277,200,92652,1,8,0:0:0:0:
250,197,93081,1,4,0:0:0:0:
250,197,93224,1,8,0:0:0:0:
250,197,93367,1,0,0:0:0:0:
250,197,93510,1,8,0:0:0:0:
250,197,93581,1,8,0:0:0:0:
250,197,93652,1,0,0:0:0:0:
250,197,93795,1,8,0:0:0:0:
250,197,93938,1,0,0:0:0:0:
250,197,94081,1,8,0:0:0:0:
250,197,94224,1,0,0:0:0:0:
250,197,94367,1,8,0:0:0:0:
250,197,94438,1,8,0:0:0:0:
250,197,94510,1,8,0:0:0:0:
250,197,94652,1,8,0:0:0:0:
276,192,94795,1,0,0:0:0:0:
276,192,94938,1,0,0:0:0:0:
276,192,95081,1,8,0:0:0:0:
276,192,95224,1,8,0:0:0:0:
276,192,95367,1,4,0:0:0:0:
285,156,95510,1,8,0:0:0:0:
285,156,95652,1,0,0:0:0:0:
285,156,95795,1,8,0:0:0:0:
285,156,95867,1,8,0:0:0:0:
285,156,95938,1,0,0:0:0:0:
285,156,96081,1,0,0:0:0:0:
285,156,96224,1,8,0:0:0:0:
285,156,96367,1,8,0:0:0:0:
285,156,96510,1,0,0:0:0:0:
285,156,96652,1,0,0:0:0:0:
285,156,96724,1,0,0:0:0:0:
285,156,96795,1,0,0:0:0:0:
285,156,96938,1,8,0:0:0:0:
285,156,97081,1,0,0:0:0:0:
285,156,97224,1,8,0:0:0:0:
285,156,97367,1,0,0:0:0:0:
285,156,97510,1,8,0:0:0:0:
285,156,97652,1,4,0:0:0:0:
285,156,97795,1,0,0:0:0:0:
285,156,97867,1,0,0:0:0:0:
285,156,97938,1,8,0:0:0:0:
285,156,98081,1,0,0:0:0:0:
285,156,98224,1,0,0:0:0:0:
285,156,98367,1,0,0:0:0:0:
285,156,98510,1,8,0:0:0:0:
285,156,98652,1,0,0:0:0:0:
285,156,98795,1,0,0:0:0:0:
285,156,98938,1,8,0:0:0:0:
285,156,99081,1,0,0:0:0:0:
285,156,99152,1,0,0:0:0:0:
285,156,99224,1,8,0:0:0:0:
285,156,99295,1,8,0:0:0:0:
285,156,99367,1,0,0:0:0:0:
285,156,99510,1,8,0:0:0:0:
285,156,99652,1,0,0:0:0:0:
285,156,99795,1,8,0:0:0:0:
285,156,99938,1,4,0:0:0:0:
277,131,100081,1,0,0:0:0:0:
277,131,100224,1,8,0:0:0:0:
277,131,100367,1,0,0:0:0:0:
277,131,100438,1,0,0:0:0:0:
277,131,100510,1,8,0:0:0:0:
277,131,100652,1,0,0:0:0:0:
277,131,100795,1,8,0:0:0:0:
277,131,100938,1,0,0:0:0:0:
277,131,101081,1,8,0:0:0:0:
277,131,101224,1,0,0:0:0:0:
277,131,101295,1,0,0:0:0:0:
277,131,101367,1,8,0:0:0:0:
277,131,101510,1,8,0:0:0:0:
260,181,101652,5,0,0:0:0:0:
260,181,101795,1,0,0:0:0:0:
260,181,101938,1,8,0:0:0:0:
260,181,102081,1,8,0:0:0:0:
260,181,102224,1,0,0:0:0:0:
277,131,102510,1,8,0:0:0:0:
277,131,102652,1,8,0:0:0:0:
260,110,103081,1,8,0:0:0:0:
260,110,103652,1,8,0:0:0:0:
260,110,104224,1,8,0:0:0:0:
281,132,104795,1,8,0:0:0:0:
281,132,104938,1,8,0:0:0:0:
260,110,105367,1,8,0:0:0:0:
281,132,105938,1,8,0:0:0:0:
281,132,106510,1,8,0:0:0:0:
281,132,107081,1,8,0:0:0:0:
281,132,107224,1,8,0:0:0:0:
281,132,107652,1,8,0:0:0:0:
281,132,108224,1,8,0:0:0:0:
281,132,108795,1,8,0:0:0:0:
281,132,109367,1,8,0:0:0:0:
281,132,109510,1,8,0:0:0:0:
281,132,109938,1,8,0:0:0:0:
281,132,110367,1,8,0:0:0:0:
281,132,110652,1,8,0:0:0:0:
281,132,110938,1,8,0:0:0:0:
281,132,111367,1,4,0:0:0:0:
256,160,111652,1,8,0:0:0:0:
256,160,111795,1,8,0:0:0:0:
256,160,111938,1,0,0:0:0:0:
256,160,112081,1,8,0:0:0:0:
256,160,112367,1,0,0:0:0:0:
256,160,112510,1,8,0:0:0:0:
256,160,112652,1,0,0:0:0:0:
281,132,112938,1,0,0:0:0:0:
281,132,113081,1,8,0:0:0:0:
281,132,113367,1,8,0:0:0:0:
281,132,113652,1,4,0:0:0:0:
281,132,113938,1,8,0:0:0:0:
281,132,114081,1,8,0:0:0:0:
281,132,114224,1,0,0:0:0:0:
281,132,114367,1,0,0:0:0:0:
281,132,114652,1,8,0:0:0:0:
281,132,114795,1,0,0:0:0:0:
256,128,114938,1,0,0:0:0:0:
281,132,115224,1,0,0:0:0:0:
281,132,115367,1,8,0:0:0:0:
281,132,115652,1,8,0:0:0:0:
281,132,115938,1,4,0:0:0:0:
281,132,116224,1,0,0:0:0:0:
281,132,116367,1,8,0:0:0:0:
281,132,116510,1,0,0:0:0:0:
281,132,116795,1,8,0:0:0:0:
281,132,116938,1,0,0:0:0:0:
281,132,117081,1,0,0:0:0:0:
281,132,117367,1,0,0:0:0:0:
281,132,117652,1,8,0:0:0:0:
281,132,117938,1,8,0:0:0:0:
251,97,118224,1,4,0:0:0:0:
281,132,118510,1,8,0:0:0:0:
281,132,118652,1,0,0:0:0:0:
281,132,118795,1,0,0:0:0:0:
281,132,119081,1,0,0:0:0:0:
281,132,119224,1,8,0:0:0:0:
281,132,119367,1,0,0:0:0:0:
281,132,119652,1,0,0:0:0:0:
281,132,119938,1,8,0:0:0:0:
281,132,120510,1,4,0:0:0:0:
266,110,120938,1,0,0:0:0:0:
266,110,121367,1,8,0:0:0:0:
266,110,121652,1,4,0:0:0:0:
248,135,122081,1,0,0:0:0:0:
248,135,122510,1,8,0:0:0:0:
248,135,122795,1,4,0:0:0:0:
248,135,123224,1,0,0:0:0:0:
248,135,123652,1,8,0:0:0:0:
248,135,123938,1,4,0:0:0:0:
248,135,124367,1,0,0:0:0:0:
248,135,124795,1,8,0:0:0:0:
248,135,125081,1,4,0:0:0:0:
248,135,125510,1,0,0:0:0:0:
248,135,125938,1,8,0:0:0:0:
215,140,126224,1,4,0:0:0:0:
248,135,126652,1,0,0:0:0:0:
248,135,127081,1,8,0:0:0:0:
248,135,127367,1,4,0:0:0:0:
215,140,127652,1,0,0:0:0:0:
248,135,127938,1,0,0:0:0:0:
248,135,128224,1,0,0:0:0:0:
248,135,128510,1,8,0:0:0:0:
248,135,128652,1,0,0:0:0:0:
248,135,128724,1,0,0:0:0:0:
248,135,128795,1,8,0:0:0:0:
248,135,128938,1,8,0:0:0:0:
215,140,129081,1,8,0:0:0:0:
248,135,130510,1,4,0:0:0:0:
227,151,130795,1,0,0:0:0:0:
227,151,130938,1,0,0:0:0:0:
198,182,131010,1,0,0:0:0:0:
227,151,131081,1,8,0:0:0:0:
227,151,131224,1,8,0:0:0:0:
227,151,131367,1,0,0:0:0:0:
198,182,131652,1,8,0:0:0:0:
198,182,131795,1,8,0:0:0:0:
198,182,131938,1,0,0:0:0:0:
198,182,132081,1,0,0:0:0:0:
198,182,132152,1,0,0:0:0:0:
198,182,132224,1,8,0:0:0:0:
198,182,132367,1,8,0:0:0:0:
198,182,132510,1,0,0:0:0:0:
198,182,132652,1,8,0:0:0:0:
198,182,132795,1,0,0:0:0:0:
198,182,132938,1,8,0:0:0:0:
198,182,133081,1,0,0:0:0:0:
198,182,133224,1,8,0:0:0:0:
198,182,133295,1,8,0:0:0:0:
198,182,133367,1,8,0:0:0:0:
198,182,133510,1,8,0:0:0:0:
198,182,133652,1,0,0:0:0:0:
198,182,133795,1,8,0:0:0:0:
198,182,133938,1,0,0:0:0:0:
198,182,134081,1,8,0:0:0:0:
198,182,134224,1,0,0:0:0:0:
198,182,134367,1,8,0:0:0:0:
198,182,134438,1,8,0:0:0:0:
198,182,134510,1,0,0:0:0:0:
198,182,134652,1,8,0:0:0:0:
198,182,134795,1,0,0:0:0:0:
198,182,134938,1,8,0:0:0:0:
198,182,135081,1,0,0:0:0:0:
198,182,135367,1,4,0:0:0:0:
198,182,135510,1,0,0:0:0:0:
198,182,135581,1,0,0:0:0:0:
198,182,135652,1,8,0:0:0:0:
198,182,135795,1,8,0:0:0:0:
198,182,135938,1,0,0:0:0:0:
198,182,136224,1,8,0:0:0:0:
209,154,136367,1,8,0:0:0:0:
209,154,136510,1,0,0:0:0:0:
209,154,136652,1,0,0:0:0:0:
209,154,136795,1,8,0:0:0:0:
209,154,136938,1,0,0:0:0:0:
209,154,137010,1,0,0:0:0:0:
209,154,137081,1,0,0:0:0:0:
209,154,137224,1,0,0:0:0:0:
209,154,137367,1,8,0:0:0:0:
209,154,137510,1,8,0:0:0:0:
209,154,137652,1,0,0:0:0:0:
209,154,137795,1,8,0:0:0:0:
209,154,137938,1,0,0:0:0:0:
209,154,138010,1,0,0:0:0:0:
209,154,138081,1,8,0:0:0:0:
209,154,138152,1,8,0:0:0:0:
209,154,138224,1,0,0:0:0:0:
209,154,138367,1,8,0:0:0:0:
209,154,138510,1,0,0:0:0:0:
209,154,138652,1,0,0:0:0:0:
209,154,139938,1,4,0:0:0:0:
209,154,140081,1,8,0:0:0:0:
209,154,140224,1,0,0:0:0:0:
209,154,140367,1,8,0:0:0:0:
209,154,140510,1,0,0:0:0:0:
209,154,140652,1,8,0:0:0:0:
209,154,140795,1,0,0:0:0:0:
209,154,140938,1,8,0:0:0:0:
209,154,141081,1,4,0:0:0:0:
209,154,141224,1,0,0:0:0:0:
209,154,141367,1,8,0:0:0:0:
209,154,141510,1,8,0:0:0:0:
209,154,141653,1,0,0:0:0:0:
209,154,141796,1,0,0:0:0:0:
209,154,141938,1,8,0:0:0:0:
209,154,142081,1,8,0:0:0:0:
209,154,142224,1,4,0:0:0:0:
209,154,142367,1,0,0:0:0:0:
209,154,142510,1,8,0:0:0:0:
209,154,142653,1,0,0:0:0:0:
209,154,142796,1,0,0:0:0:0:
209,154,142939,1,0,0:0:0:0:
209,154,143082,1,8,0:0:0:0:
209,154,143224,1,0,0:0:0:0:
209,154,143367,1,4,0:0:0:0:
209,154,143510,1,8,0:0:0:0:
209,154,143653,1,0,0:0:0:0:
209,154,143795,1,0,0:0:0:0:
209,154,143938,1,8,0:0:0:0:
209,154,144081,1,0,0:0:0:0:
209,154,144224,1,8,0:0:0:0:
209,154,144367,1,8,0:0:0:0:
209,154,144509,1,12,0:0:0:0:
209,154,144652,1,0,0:0:0:0:
209,154,144795,1,0,0:0:0:0:
209,154,144938,1,8,0:0:0:0:
209,154,145081,1,0,0:0:0:0:
209,154,145224,1,8,0:0:0:0:
209,154,145367,1,0,0:0:0:0:
209,154,145510,1,0,0:0:0:0:
209,154,145653,1,12,0:0:0:0:
209,154,145795,1,0,0:0:0:0:
209,154,145938,1,0,0:0:0:0:
209,154,146081,1,8,0:0:0:0:
209,154,146224,1,8,0:0:0:0:
209,154,146367,1,0,0:0:0:0:
209,154,146510,1,0,0:0:0:0:
209,154,146653,1,8,0:0:0:0:
209,154,146796,1,4,0:0:0:0:
209,154,146939,1,8,0:0:0:0:
209,154,147081,1,0,0:0:0:0:
209,154,147224,1,8,0:0:0:0:
209,154,147367,1,0,0:0:0:0:
209,154,147510,1,8,0:0:0:0:
209,154,147652,1,0,0:0:0:0:
209,154,147795,1,8,0:0:0:0:
209,154,147938,1,4,0:0:0:0:
209,154,148081,1,0,0:0:0:0:
209,154,148224,1,8,0:0:0:0:
209,154,148366,1,8,0:0:0:0:
209,154,148509,1,0,0:0:0:0:
209,154,148652,1,0,0:0:0:0:
209,154,148795,1,8,0:0:0:0:
209,154,149367,1,4,0:0:0:0:
209,154,149652,1,0,0:0:0:0:
209,154,149795,1,0,0:0:0:0:
209,154,149938,1,8,0:0:0:0:
320,160,150081,1,0,0:0:0:0:
209,154,150224,1,0,0:0:0:0:
209,154,150367,1,8,0:0:0:0:
209,154,150510,1,0,0:0:0:0:
192,128,150652,1,8,0:0:0:0:
209,154,150795,1,0,0:0:0:0:
209,154,150938,1,0,0:0:0:0:
209,154,151081,1,8,0:0:0:0:
288,160,151224,1,8,0:0:0:0:
209,154,151367,1,0,0:0:0:0:
209,154,151510,1,8,0:0:0:0:
209,154,151652,1,8,0:0:0:0:
209,154,151938,1,0,0:0:0:0:
209,154,152081,1,8,0:0:0:0:
192,160,152224,1,8,0:0:0:0:
209,154,152510,1,0,0:0:0:0:
209,154,152652,1,8,0:0:0:0:
209,154,152795,1,0,0:0:0:0:
192,128,152938,1,8,0:0:0:0:
209,154,153081,1,0,0:0:0:0:
209,154,153224,1,0,0:0:0:0:
209,154,153367,1,8,0:0:0:0:
209,154,153652,1,4,0:0:0:0:
209,154,153795,1,0,0:0:0:0:
209,154,153938,1,8,0:0:0:0:
192,128,154081,1,0,0:0:0:0:
209,154,154224,1,0,0:0:0:0:
209,154,154367,1,0,0:0:0:0:
209,154,154510,1,8,0:0:0:0:
192,128,154652,1,0,0:0:0:0:
209,154,154795,1,0,0:0:0:0:
209,154,154938,1,0,0:0:0:0:
209,154,155081,1,8,0:0:0:0:
209,154,155367,1,0,0:0:0:0:
209,154,155510,1,0,0:0:0:0:
209,154,155652,1,8,0:0:0:0:
209,154,155938,1,0,0:0:0:0:
209,154,156081,1,8,0:0:0:0:
258,193,156224,1,0,0:0:0:0:
256,128,156367,1,8,0:0:0:0:
209,154,156510,1,0,0:0:0:0:
209,154,156653,1,8,0:0:0:0:
209,154,156795,1,0,0:0:0:0:
209,154,157081,1,0,0:0:0:0:
209,154,157224,1,8,0:0:0:0:
258,193,157367,1,0,0:0:0:0:
224,128,157510,1,8,0:0:0:0:
264,158,157652,1,0,0:0:0:0:
264,158,157795,1,0,0:0:0:0:
264,158,157938,1,8,0:0:0:0:
237,153,158224,1,4,0:0:0:0:
264,158,158367,1,0,0:0:0:0:
264,158,158438,1,0,0:0:0:0:
264,158,158510,1,8,0:0:0:0:
264,158,158652,1,8,0:0:0:0:
264,158,158795,1,0,0:0:0:0:
264,158,158938,1,8,0:0:0:0:
264,158,159081,1,0,0:0:0:0:
264,158,159224,1,8,0:0:0:0:
264,158,159367,1,4,0:0:0:0:
264,158,159510,1,0,0:0:0:0:
237,153,159652,1,8,0:0:0:0:
237,153,159795,1,8,0:0:0:0:
264,158,159938,1,0,0:0:0:0:
264,158,160081,1,0,0:0:0:0:
264,158,160224,1,8,0:0:0:0:
264,158,160367,1,8,0:0:0:0:
264,158,160510,1,4,0:0:0:0:
264,158,160652,1,8,0:0:0:0:
264,158,160795,1,0,0:0:0:0:
264,158,160938,1,8,0:0:0:0:
264,158,161081,1,0,0:0:0:0:
237,153,161224,1,8,0:0:0:0:
237,153,161367,1,0,0:0:0:0:
264,158,161510,1,0,0:0:0:0:
264,158,161652,1,4,0:0:0:0:
264,158,161795,1,8,0:0:0:0:
264,158,161938,1,8,0:0:0:0:
264,158,162081,1,8,0:0:0:0:
264,158,162224,1,0,0:0:0:0:
264,158,162367,1,0,0:0:0:0:
264,158,162510,1,8,0:0:0:0:
237,153,162795,1,4,0:0:0:0:
237,153,162938,1,0,0:0:0:0:
322,177,163010,1,0,0:0:0:0:
264,158,163081,1,8,0:0:0:0:
264,158,163224,1,8,0:0:0:0:
264,158,163367,1,0,0:0:0:0:
264,158,163510,1,8,0:0:0:0:
264,158,163652,1,0,0:0:0:0:
264,158,163795,1,8,0:0:0:0:
264,158,163938,1,0,0:0:0:0:
264,158,164081,1,0,0:0:0:0:
264,158,164224,1,8,0:0:0:0:
237,153,164367,1,8,0:0:0:0:
237,153,164510,1,0,0:0:0:0:
264,158,164652,1,8,0:0:0:0:
264,158,164795,1,8,0:0:0:0:
264,158,164938,1,8,0:0:0:0:
264,158,165081,1,4,0:0:0:0:
264,158,165224,1,8,0:0:0:0:
264,158,165367,1,0,0:0:0:0:
264,158,165510,1,8,0:0:0:0:
264,158,165652,1,0,0:0:0:0:
264,158,165795,1,0,0:0:0:0:
237,153,165938,1,8,0:0:0:0:
237,153,166081,1,8,0:0:0:0:
264,158,166224,1,0,0:0:0:0:
264,158,166367,1,0,0:0:0:0:
264,158,166510,1,8,0:0:0:0:
264,158,166652,1,8,0:0:0:0:
264,158,166795,1,0,0:0:0:0:
264,158,166938,1,8,0:0:0:0:
264,158,167081,1,0,0:0:0:0:
264,158,167224,1,0,0:0:0:0:
291,173,167367,5,4,0:0:0:0:
291,173,167652,1,8,0:0:0:0:
291,173,167795,1,0,0:0:0:0:
291,173,168081,1,0,0:0:0:0:
264,158,168367,1,8,0:0:0:0:
264,158,168652,1,0,0:0:0:0:
291,143,168938,1,0,0:0:0:0:
291,173,169224,1,0,0:0:0:0:
291,143,169367,1,8,0:0:0:0:
291,173,169510,1,8,0:0:0:0:
291,143,169652,1,0,0:0:0:0:
291,143,169938,1,8,0:0:0:0:
291,143,170081,1,0,0:0:0:0:
319,155,170367,1,0,0:0:0:0:
319,155,170652,1,8,0:0:0:0:
319,155,170938,1,0,0:0:0:0:
319,155,171224,1,0,0:0:0:0:
319,155,171510,1,8,0:0:0:0:
319,155,171652,1,8,0:0:0:0:
319,155,171795,1,8,0:0:0:0:
319,155,171938,1,0,0:0:0:0:
319,155,172224,1,0,0:0:0:0:
319,155,172367,1,8,0:0:0:0:
319,155,172652,1,8,0:0:0:0:
319,155,172938,1,0,0:0:0:0:
319,155,173224,1,8,0:0:0:0:
319,155,173510,1,8,0:0:0:0:
319,155,173795,1,0,0:0:0:0:
319,155,173938,1,8,0:0:0:0:
319,155,174081,1,8,0:0:0:0:
319,155,174224,1,0,0:0:0:0:
319,155,174510,1,0,0:0:0:0:
319,155,174652,1,8,0:0:0:0:
319,155,174938,1,8,0:0:0:0:
319,155,175224,1,0,0:0:0:0:
319,155,175510,1,8,0:0:0:0:
319,155,175795,1,8,0:0:0:0:
322,160,176081,1,8,0:0:0:0:
322,160,176224,1,8,0:0:0:0:
322,160,176367,1,8,0:0:0:0:
