osu file format v13

[General]
AudioFilename: DECO27 feat. Hatsune Miku - Streaming Heart.mp3
AudioLeadIn: 0
PreviewTime: 56383
Countdown: 0
SampleSet: Normal
StackLeniency: 0.7
Mode: 1
LetterboxInBreaks: 0
WidescreenStoryboard: 1

[Editor]
DistanceSpacing: 0.5
BeatDivisor: 4
GridSize: 4
TimelineZoom: 4.199996

[Metadata]
Title:Streaming Heart
TitleUnicode:Streaming Heart
Artist:DECO*27 feat. Hatsune Miku
ArtistUnicode:DECO*27 feat. Hatsune Miku
Creator:koko6162006
Version:Inner Oni
Source:Conti New
Tags:DECO*27 gagame
BeatmapID:431761
BeatmapSetID:179593

[Difficulty]
HPDrainRate:6
CircleSize:5
OverallDifficulty:6
ApproachRate:5
SliderMultiplier:1.4
SliderTickRate:1

[Events]
//Background and Video events
0,0,"BG.jpg",0,0
//Break Periods
2,74995,82738
//Storyboard Layer 0 (Background)
//Storyboard Layer 1 (Fail)
//Storyboard Layer 2 (Pass)
//Storyboard Layer 3 (Foreground)
//Storyboard Sound Samples
//Background Colour Transformations
3,100,163,162,255

[TimingPoints]
510,285.714285714286,4,1,0,100,1,0
47295,-100,4,1,0,60,0,0
47438,-100,4,1,0,100,0,0
48438,-100,4,1,0,60,0,0
48581,-100,4,1,0,100,0,0
49581,-100,4,1,0,60,0,0
49724,-100,4,1,0,100,0,0
50724,-100,4,1,0,60,0,0
50867,-100,4,1,0,100,0,0
56510,-83.3333333333333,4,1,0,100,0,1
74867,-100,4,1,0,100,0,0
120438,-100,4,1,0,60,0,0
120581,-100,4,1,0,100,0,0
121581,-100,4,1,0,60,0,0
121724,-100,4,1,0,100,0,0
122724,-100,4,1,0,60,0,0
122867,-100,4,1,0,100,0,0
123867,-100,4,1,0,60,0,0
124010,-100,4,1,0,100,0,0
130795,-83.3333333333333,4,1,0,100,0,1
167438,-100,4,1,0,100,0,0

[Colours]
Combo1 : 175,221,254
Combo2 : 171,252,203

[HitObjects]
256,192,510,5,0,0:0:0:0:
256,192,795,1,0,0:0:0:0:
256,192,1081,1,0,0:0:0:0:
256,192,1367,1,0,0:0:0:0:
256,192,1652,1,0,0:0:0:0:
256,192,1938,1,0,0:0:0:0:
256,192,2224,1,0,0:0:0:0:
256,192,2510,1,0,0:0:0:0:
256,192,2652,1,8,0:0:0:0:
256,192,2795,1,0,0:0:0:0:
256,192,3081,1,0,0:0:0:0:
256,192,3367,1,0,0:0:0:0:
256,192,3652,1,0,0:0:0:0:
256,192,3938,1,0,0:0:0:0:
256,192,4224,1,0,0:0:0:0:
256,192,4510,1,0,0:0:0:0:
256,192,4652,1,8,0:0:0:0:
256,192,4795,1,0,0:0:0:0:
256,192,4938,1,8,0:0:0:0:
256,192,5081,1,0,0:0:0:0:
256,192,5367,1,0,0:0:0:0:
224,192,5652,1,0,0:0:0:0:
256,192,5938,1,0,0:0:0:0:
256,192,6224,1,0,0:0:0:0:
256,192,6510,1,0,0:0:0:0:
256,192,6795,1,0,0:0:0:0:
256,192,7081,1,0,0:0:0:0:
224,160,7224,1,8,0:0:0:0:
288,192,7367,1,0,0:0:0:0:
256,192,7652,1,0,0:0:0:0:
256,192,7795,1,0,0:0:0:0:
256,160,8224,1,0,0:0:0:0:
256,160,8367,1,8,0:0:0:0:
256,192,8510,1,0,0:0:0:0:
256,192,8581,1,0,0:0:0:0:
256,192,8652,1,0,0:0:0:0:
256,192,8724,1,0,0:0:0:0:
256,192,8795,1,8,0:0:0:0:
256,192,8867,1,8,0:0:0:0:
256,192,8938,1,0,0:0:0:0:
256,192,9081,1,0,0:0:0:0:
256,192,9224,1,0,0:0:0:0:
256,192,9367,1,8,0:0:0:0:
256,192,9510,1,0,0:0:0:0:
256,192,9557,1,0,0:0:0:0:
256,192,9605,1,0,0:0:0:0:
256,192,9652,1,8,0:0:0:0:
256,192,10081,1,0,0:0:0:0:
256,192,10224,1,8,0:0:0:0:
256,192,10510,1,8,0:0:0:0:
256,192,10652,1,0,0:0:0:0:
256,192,10795,1,0,0:0:0:0:
256,192,10938,1,0,0:0:0:0:
256,192,11010,1,0,0:0:0:0:
256,192,11081,1,8,0:0:0:0:
256,192,11224,1,8,0:0:0:0:
256,192,11367,1,0,0:0:0:0:
256,192,11510,1,0,0:0:0:0:
256,192,11652,1,8,0:0:0:0:
224,192,11795,1,0,0:0:0:0:
256,160,11843,1,0,0:0:0:0:
256,192,11890,1,0,0:0:0:0:
224,192,11938,1,8,0:0:0:0:
256,192,12367,1,0,0:0:0:0:
256,192,12510,1,8,0:0:0:0:
256,192,12795,1,8,0:0:0:0:
256,192,12938,1,8,0:0:0:0:
256,192,13081,1,0,0:0:0:0:
256,192,13224,1,8,0:0:0:0:
256,192,13295,1,8,0:0:0:0:
256,192,13367,1,0,0:0:0:0:
256,192,13510,1,0,0:0:0:0:
160,152,13652,1,8,0:0:0:0:
256,192,13795,1,0,0:0:0:0:
256,192,13867,1,0,0:0:0:0:
256,192,13938,1,8,0:0:0:0:
224,192,14081,1,0,0:0:0:0:
256,128,14128,1,0,0:0:0:0:
256,128,14176,1,0,0:0:0:0:
256,128,14224,1,8,0:0:0:0:
224,192,14652,1,0,0:0:0:0:
224,192,14795,1,8,0:0:0:0:
224,192,15081,1,8,0:0:0:0:
224,192,15224,1,8,0:0:0:0:
224,192,15367,1,0,0:0:0:0:
224,192,15510,1,8,0:0:0:0:
224,192,15581,1,8,0:0:0:0:
224,192,15652,1,0,0:0:0:0:
224,192,15795,1,8,0:0:0:0:
224,192,15938,1,0,0:0:0:0:
224,192,16081,1,0,0:0:0:0:
224,160,16152,1,0,0:0:0:0:
224,192,16224,1,8,0:0:0:0:
224,192,16367,1,0,0:0:0:0:
256,128,16414,1,0,0:0:0:0:
224,160,16462,1,0,0:0:0:0:
224,192,16510,1,8,0:0:0:0:
224,160,16938,1,0,0:0:0:0:
224,160,17081,1,8,0:0:0:0:
224,160,17367,1,8,0:0:0:0:
224,160,17510,1,0,0:0:0:0:
224,160,17652,1,0,0:0:0:0:
224,160,17795,1,8,0:0:0:0:
192,160,17867,1,8,0:0:0:0:
224,160,17938,1,0,0:0:0:0:
224,160,18081,1,0,0:0:0:0:
224,160,18152,1,0,0:0:0:0:
224,160,18224,1,8,0:0:0:0:
224,160,18367,1,8,0:0:0:0:
224,160,18510,1,0,0:0:0:0:
256,160,18795,1,0,0:0:0:0:
256,160,18867,1,0,0:0:0:0:
256,160,18938,1,0,0:0:0:0:
256,160,19010,1,0,0:0:0:0:
256,160,19081,1,8,0:0:0:0:
256,160,19224,1,8,0:0:0:0:
256,160,19367,1,0,0:0:0:0:
256,192,19652,1,0,0:0:0:0:
256,192,19938,1,0,0:0:0:0:
256,192,20081,1,8,0:0:0:0:
256,192,20224,1,0,0:0:0:0:
256,192,20367,1,8,0:0:0:0:
256,192,20510,1,8,0:0:0:0:
256,160,20652,1,8,0:0:0:0:
256,192,20795,1,0,0:0:0:0:
256,192,21081,1,8,0:0:0:0:
256,192,21152,1,8,0:0:0:0:
256,192,21224,1,8,0:0:0:0:
256,192,21295,1,8,0:0:0:0:
256,192,21367,1,0,0:0:0:0:
256,192,21510,1,8,0:0:0:0:
256,192,21652,1,0,0:0:0:0:
256,192,21938,1,0,0:0:0:0:
256,192,22224,1,0,0:0:0:0:
256,192,22367,1,8,0:0:0:0:
256,192,22510,1,0,0:0:0:0:
256,192,22652,1,0,0:0:0:0:
256,192,22724,1,0,0:0:0:0:
256,192,22795,1,8,0:0:0:0:
256,192,22938,1,0,0:0:0:0:
256,192,23081,1,8,0:0:0:0:
256,192,23367,1,0,0:0:0:0:
256,192,23510,1,8,0:0:0:0:
256,192,23581,1,8,0:0:0:0:
256,192,23652,1,0,0:0:0:0:
256,192,23795,1,0,0:0:0:0:
256,192,23938,1,8,0:0:0:0:
256,192,24224,1,0,0:0:0:0:
256,192,24367,1,8,0:0:0:0:
256,192,24510,1,0,0:0:0:0:
256,192,24652,1,0,0:0:0:0:
256,192,24724,1,0,0:0:0:0:
256,192,24795,1,8,0:0:0:0:
256,192,24938,1,8,0:0:0:0:
256,192,25010,1,8,0:0:0:0:
256,192,25081,1,0,0:0:0:0:
256,192,25224,1,0,0:0:0:0:
256,192,25367,1,8,0:0:0:0:
256,192,25652,1,0,0:0:0:0:
256,192,25724,1,0,0:0:0:0:
256,192,25795,1,8,0:0:0:0:
256,192,25867,1,8,0:0:0:0:
256,192,25938,1,0,0:0:0:0:
256,192,26081,1,0,0:0:0:0:
256,192,26224,1,8,0:0:0:0:
256,160,26510,1,0,0:0:0:0:
256,160,26795,1,0,0:0:0:0:
256,160,26938,1,0,0:0:0:0:
256,160,27081,1,8,0:0:0:0:
256,160,27224,1,8,0:0:0:0:
256,160,27367,1,0,0:0:0:0:
224,160,27652,1,0,0:0:0:0:
224,224,29081,1,0,0:0:0:0:
224,224,29510,1,0,0:0:0:0:
224,224,29652,1,8,0:0:0:0:
236,176,29938,1,8,0:0:0:0:
236,176,30081,1,0,0:0:0:0:
224,224,30224,1,0,0:0:0:0:
224,224,30367,1,8,0:0:0:0:
224,224,30510,1,0,0:0:0:0:
224,224,30795,1,8,0:0:0:0:
224,224,30938,1,0,0:0:0:0:
201,195,31224,1,0,0:0:0:0:
224,224,31367,1,0,0:0:0:0:
224,224,31795,1,0,0:0:0:0:
224,224,31938,1,8,0:0:0:0:
224,224,32224,1,0,0:0:0:0:
224,224,32367,1,8,0:0:0:0:
224,224,32510,1,0,0:0:0:0:
224,224,32652,1,8,0:0:0:0:
224,224,32795,1,0,0:0:0:0:
224,224,33081,1,8,0:0:0:0:
224,224,33224,1,0,0:0:0:0:
224,224,33510,1,0,0:0:0:0:
224,224,33652,1,0,0:0:0:0:
224,224,34081,1,0,0:0:0:0:
224,224,34224,1,8,0:0:0:0:
224,224,34510,1,8,0:0:0:0:
224,224,34652,1,0,0:0:0:0:
224,224,34795,1,0,0:0:0:0:
224,224,34938,1,8,0:0:0:0:
224,224,35081,1,0,0:0:0:0:
224,224,35367,1,8,0:0:0:0:
224,224,35510,1,0,0:0:0:0:
224,224,35938,1,0,0:0:0:0:
224,224,36367,1,0,0:0:0:0:
224,224,36510,1,8,0:0:0:0:
224,224,36795,1,0,0:0:0:0:
224,224,36938,1,8,0:0:0:0:
224,224,37081,1,0,0:0:0:0:
224,224,37224,1,8,0:0:0:0:
224,224,37295,1,8,0:0:0:0:
224,224,37367,1,8,0:0:0:0:
224,224,37510,1,8,0:0:0:0:
256,224,37652,1,0,0:0:0:0:
256,224,37795,1,0,0:0:0:0:
256,224,37867,1,0,0:0:0:0:
256,224,37938,1,8,0:0:0:0:
224,192,38010,1,8,0:0:0:0:
224,224,38081,1,8,0:0:0:0:
224,224,38152,1,8,0:0:0:0:
224,224,38224,1,0,0:0:0:0:
224,224,38367,1,0,0:0:0:0:
224,224,38510,1,8,0:0:0:0:
224,224,38652,1,0,0:0:0:0:
224,192,38724,1,0,0:0:0:0:
224,224,38795,1,8,0:0:0:0:
224,224,38938,1,0,0:0:0:0:
256,224,39081,1,8,0:0:0:0:
256,160,39224,1,0,0:0:0:0:
256,160,39367,1,8,0:0:0:0:
256,160,39438,1,0,0:0:0:0:
256,160,39510,1,0,0:0:0:0:
256,160,39581,1,8,0:0:0:0:
256,192,39652,1,8,0:0:0:0:
224,192,39795,1,8,0:0:0:0:
224,192,39867,1,8,0:0:0:0:
224,192,39938,1,0,0:0:0:0:
224,192,40010,1,0,0:0:0:0:
224,192,40081,1,8,0:0:0:0:
224,192,40152,1,8,0:0:0:0:
224,192,40224,1,0,0:0:0:0:
224,192,40367,1,8,0:0:0:0:
224,192,40510,1,0,0:0:0:0:
224,192,40652,1,0,0:0:0:0:
224,192,40724,1,0,0:0:0:0:
224,192,40795,1,8,0:0:0:0:
224,192,40867,1,8,0:0:0:0:
224,192,40938,1,0,0:0:0:0:
224,160,41010,1,0,0:0:0:0:
224,192,41081,1,8,0:0:0:0:
224,192,41224,1,8,0:0:0:0:
224,192,41367,1,0,0:0:0:0:
224,192,41510,1,8,0:0:0:0:
224,160,41581,1,8,0:0:0:0:
224,192,41652,1,0,0:0:0:0:
256,160,41795,1,0,0:0:0:0:
224,192,41938,1,8,0:0:0:0:
224,192,42081,1,0,0:0:0:0:
224,160,42152,1,0,0:0:0:0:
224,192,42224,1,0,0:0:0:0:
224,192,42367,1,8,0:0:0:0:
224,192,42510,1,0,0:0:0:0:
224,192,42652,1,8,0:0:0:0:
224,192,42795,1,0,0:0:0:0:
192,192,42938,1,0,0:0:0:0:
192,192,43081,1,8,0:0:0:0:
192,192,43224,1,0,0:0:0:0:
192,192,43295,1,0,0:0:0:0:
192,192,43367,1,0,0:0:0:0:
192,192,43510,1,8,0:0:0:0:
192,192,43652,1,0,0:0:0:0:
192,96,43724,1,0,0:0:0:0:
192,192,43795,1,8,0:0:0:0:
192,192,43938,1,8,0:0:0:0:
192,192,44081,1,0,0:0:0:0:
224,96,44152,1,0,0:0:0:0:
192,192,44224,1,8,0:0:0:0:
192,192,44367,1,8,0:0:0:0:
192,192,44510,1,0,0:0:0:0:
256,128,44581,1,0,0:0:0:0:
192,192,44652,1,8,0:0:0:0:
224,128,44724,1,8,0:0:0:0:
192,192,44795,1,0,0:0:0:0:
192,192,44938,1,8,0:0:0:0:
192,192,45081,1,0,0:0:0:0:
128,160,45224,1,0,0:0:0:0:
224,128,45295,1,0,0:0:0:0:
192,192,45367,1,8,0:0:0:0:
192,192,45510,1,8,0:0:0:0:
192,192,45581,1,8,0:0:0:0:
192,192,45652,1,0,0:0:0:0:
192,192,45795,1,8,0:0:0:0:
192,192,45938,1,0,0:0:0:0:
224,128,46010,1,0,0:0:0:0:
192,192,46081,1,8,0:0:0:0:
192,192,46224,1,0,0:0:0:0:
224,192,46367,1,0,0:0:0:0:
192,192,46438,1,0,0:0:0:0:
192,192,46510,1,8,0:0:0:0:
192,160,46652,1,0,0:0:0:0:
192,160,46795,1,0,0:0:0:0:
192,128,46938,1,8,0:0:0:0:
192,160,47081,1,0,0:0:0:0:
224,160,47224,1,0,0:0:0:0:
192,160,47367,1,4,0:0:0:0:
192,160,47795,1,0,0:0:0:0:
192,160,48224,1,8,0:0:0:0:
192,160,48510,1,4,0:0:0:0:
192,160,48938,1,0,0:0:0:0:
192,160,49367,1,8,0:0:0:0:
192,160,49652,1,4,0:0:0:0:
192,160,50081,1,0,0:0:0:0:
192,160,50510,1,8,0:0:0:0:
192,160,50795,1,4,0:0:0:0:
192,160,51081,1,0,0:0:0:0:
192,160,51224,1,0,0:0:0:0:
192,160,51367,1,8,0:0:0:0:
192,160,51652,1,8,0:0:0:0:
192,160,51938,1,4,0:0:0:0:
192,160,52367,1,0,0:0:0:0:
192,160,52510,1,0,0:0:0:0:
192,160,52795,1,8,0:0:0:0:
192,160,53081,1,0,0:0:0:0:
192,160,53510,1,0,0:0:0:0:
192,160,53652,1,0,0:0:0:0:
192,160,53938,1,8,0:0:0:0:
192,160,54224,1,0,0:0:0:0:
192,160,54510,1,0,0:0:0:0:
192,160,54795,1,0,0:0:0:0:
192,160,55081,1,0,0:0:0:0:
192,160,55367,1,8,0:0:0:0:
192,160,55438,1,8,0:0:0:0:
192,160,55510,1,0,0:0:0:0:
192,160,55581,1,0,0:0:0:0:
192,160,55652,1,8,0:0:0:0:
192,160,55724,1,8,0:0:0:0:
192,160,55795,1,8,0:0:0:0:
192,160,55867,1,8,0:0:0:0:
185,183,55938,1,8,0:0:0:0:
256,192,56510,1,4,0:0:0:0:
192,192,56652,1,0,0:0:0:0:
192,192,56724,1,0,0:0:0:0:
192,192,56795,1,8,0:0:0:0:
192,192,56938,1,8,0:0:0:0:
192,192,57010,1,8,0:0:0:0:
192,192,57081,1,0,0:0:0:0:
192,192,57224,1,8,0:0:0:0:
192,192,57367,1,0,0:0:0:0:
224,192,57510,1,8,0:0:0:0:
224,192,57652,1,0,0:0:0:0:
224,192,57795,1,8,0:0:0:0:
224,192,57867,1,8,0:0:0:0:
224,192,57938,1,0,0:0:0:0:
224,192,58081,1,8,0:0:0:0:
224,192,58152,1,8,0:0:0:0:
224,192,58224,1,0,0:0:0:0:
224,192,58295,1,0,0:0:0:0:
224,192,58367,1,8,0:0:0:0:
224,192,58510,1,0,0:0:0:0:
224,192,58652,1,8,0:0:0:0:
224,192,58795,1,0,0:0:0:0:
224,192,58938,1,0,0:0:0:0:
224,192,59010,1,0,0:0:0:0:
224,192,59081,1,8,0:0:0:0:
224,192,59224,1,0,0:0:0:0:
224,192,59295,1,0,0:0:0:0:
224,192,59367,1,8,0:0:0:0:
224,192,59510,1,0,0:0:0:0:
224,192,59581,1,8,0:0:0:0:
224,192,59652,1,0,0:0:0:0:
224,192,59795,1,8,0:0:0:0:
224,192,59938,1,0,0:0:0:0:
224,192,60081,1,8,0:0:0:0:
224,192,60152,1,8,0:0:0:0:
224,192,60224,1,0,0:0:0:0:
224,192,60367,1,0,0:0:0:0:
224,192,60438,1,0,0:0:0:0:
224,192,60510,1,8,0:0:0:0:
224,192,60652,1,0,0:0:0:0:
256,192,60724,1,0,0:0:0:0:
224,192,60795,1,8,0:0:0:0:
80,164,60938,1,0,0:0:0:0:
224,192,61010,1,0,0:0:0:0:
224,192,61081,1,8,0:0:0:0:
128,160,61152,1,8,0:0:0:0:
224,192,61224,1,8,0:0:0:0:
224,192,61295,1,8,0:0:0:0:
224,192,61367,1,0,0:0:0:0:
224,192,61510,1,8,0:0:0:0:
224,192,61581,1,8,0:0:0:0:
224,192,61652,1,0,0:0:0:0:
224,192,61795,1,8,0:0:0:0:
224,192,61938,1,0,0:0:0:0:
224,192,62081,1,8,0:0:0:0:
224,192,62224,1,0,0:0:0:0:
224,192,62367,1,0,0:0:0:0:
224,192,62438,1,0,0:0:0:0:
224,192,62510,1,8,0:0:0:0:
224,192,62652,1,8,0:0:0:0:
224,192,62724,1,8,0:0:0:0:
224,192,62795,1,0,0:0:0:0:
224,192,62938,1,0,0:0:0:0:
224,192,63010,1,0,0:0:0:0:
224,192,63081,1,8,0:0:0:0:
224,192,63224,1,0,0:0:0:0:
224,192,63367,1,8,0:0:0:0:
224,192,63510,1,0,0:0:0:0:
224,192,63581,1,0,0:0:0:0:
224,192,63652,1,8,0:0:0:0:
224,192,63795,1,8,0:0:0:0:
224,192,63938,1,8,0:0:0:0:
236,176,64081,1,0,0:0:0:0:
212,164,64152,1,0,0:0:0:0:
228,152,64224,1,8,0:0:0:0:
312,156,64295,1,0,0:0:0:0:
256,184,64367,1,8,0:0:0:0:
256,184,64438,1,8,0:0:0:0:
256,184,64510,1,0,0:0:0:0:
288,192,65081,1,8,0:0:0:0:
288,192,65152,1,8,0:0:0:0:
288,192,65224,1,0,0:0:0:0:
288,192,65295,1,0,0:0:0:0:
288,192,65367,1,8,0:0:0:0:
288,192,65438,1,8,0:0:0:0:
288,192,65510,1,8,0:0:0:0:
288,192,65581,1,8,0:0:0:0:
288,192,65652,1,0,0:0:0:0:
256,192,65795,1,0,0:0:0:0:
256,192,65938,1,8,0:0:0:0:
256,192,66010,1,8,0:0:0:0:
256,192,66081,1,8,0:0:0:0:
224,160,66152,1,8,0:0:0:0:
256,192,66224,1,0,0:0:0:0:
256,192,66367,1,0,0:0:0:0:
256,192,66510,1,8,0:0:0:0:
256,160,66581,1,8,0:0:0:0:
256,192,66652,1,0,0:0:0:0:
224,160,66724,1,0,0:0:0:0:
256,192,66795,1,8,0:0:0:0:
256,192,66938,1,0,0:0:0:0:
256,192,67081,1,8,0:0:0:0:
256,160,67152,1,8,0:0:0:0:
256,192,67224,1,0,0:0:0:0:
256,192,67367,1,0,0:0:0:0:
256,192,67510,1,8,0:0:0:0:
136,145,67581,1,8,0:0:0:0:
136,145,67652,1,0,0:0:0:0:
136,145,67795,1,0,0:0:0:0:
224,160,67938,1,8,0:0:0:0:
288,192,68010,1,0,0:0:0:0:
160,160,68081,1,8,0:0:0:0:
160,160,68152,1,8,0:0:0:0:
256,192,68224,1,0,0:0:0:0:
256,192,68367,1,8,0:0:0:0:
256,192,68438,1,8,0:0:0:0:
256,192,68510,1,0,0:0:0:0:
256,192,68652,1,0,0:0:0:0:
256,192,68724,1,0,0:0:0:0:
256,192,68795,1,8,0:0:0:0:
256,192,68938,1,0,0:0:0:0:
256,192,69081,1,8,0:0:0:0:
256,192,69224,1,0,0:0:0:0:
256,192,69295,1,0,0:0:0:0:
256,192,69367,1,8,0:0:0:0:
256,192,69510,1,0,0:0:0:0:
256,192,69652,1,8,0:0:0:0:
256,192,69795,1,0,0:0:0:0:
232,156,69867,1,0,0:0:0:0:
256,192,69938,1,8,0:0:0:0:
256,192,70010,1,8,0:0:0:0:
256,192,70081,1,0,0:0:0:0:
256,192,70152,1,0,0:0:0:0:
256,192,70224,1,8,0:0:0:0:
288,192,70367,1,0,0:0:0:0:
224,192,70438,1,0,0:0:0:0:
256,192,70510,1,8,0:0:0:0:
256,192,70652,1,0,0:0:0:0:
256,192,70795,1,8,0:0:0:0:
256,192,70938,1,0,0:0:0:0:
256,192,71010,1,0,0:0:0:0:
256,192,71081,1,8,0:0:0:0:
256,192,71224,1,0,0:0:0:0:
256,192,71367,1,8,0:0:0:0:
256,192,71510,1,0,0:0:0:0:
256,192,71652,1,8,0:0:0:0:
256,192,71795,1,0,0:0:0:0:
256,160,71867,1,0,0:0:0:0:
256,192,71938,1,8,0:0:0:0:
256,192,72081,1,8,0:0:0:0:
240,180,72224,1,0,0:0:0:0:
256,192,72367,1,0,0:0:0:0:
256,192,72510,1,8,0:0:0:0:
256,192,72652,1,0,0:0:0:0:
256,192,72724,1,0,0:0:0:0:
256,192,72795,1,8,0:0:0:0:
256,192,72938,1,0,0:0:0:0:
256,192,73010,1,0,0:0:0:0:
256,192,73081,1,8,0:0:0:0:
256,192,73152,1,8,0:0:0:0:
256,192,73224,1,8,0:0:0:0:
288,224,73295,1,8,0:0:0:0:
288,224,73367,1,0,0:0:0:0:
288,224,73438,1,0,0:0:0:0:
256,192,73510,1,8,0:0:0:0:
256,192,73652,1,0,0:0:0:0:
256,192,73795,1,8,0:0:0:0:
256,192,73938,1,0,0:0:0:0:
256,192,74081,1,8,0:0:0:0:
256,192,74152,1,8,0:0:0:0:
256,192,74224,1,0,0:0:0:0:
256,192,74367,1,8,0:0:0:0:
256,192,74510,1,8,0:0:0:0:
256,192,74652,1,8,0:0:0:0:
256,192,74795,1,4,0:0:0:0:
256,192,83938,5,0,0:0:0:0:
224,160,84224,1,8,0:0:0:0:
256,192,84367,1,0,0:0:0:0:
224,192,84795,1,8,0:0:0:0:
256,192,85081,1,0,0:0:0:0:
224,192,85367,1,8,0:0:0:0:
256,192,85510,1,0,0:0:0:0:
224,192,85938,1,8,0:0:0:0:
224,192,86224,1,0,0:0:0:0:
256,192,86510,1,8,0:0:0:0:
224,192,86652,1,0,0:0:0:0:
256,192,87081,1,8,0:0:0:0:
224,192,87367,1,0,0:0:0:0:
256,192,87652,1,8,0:0:0:0:
224,192,87795,1,0,0:0:0:0:
256,192,88224,1,8,0:0:0:0:
224,192,88510,1,0,0:0:0:0:
256,192,88795,1,8,0:0:0:0:
224,192,88938,1,0,0:0:0:0:
224,160,89367,1,8,0:0:0:0:
224,192,89652,1,0,0:0:0:0:
256,192,89938,1,8,0:0:0:0:
224,192,90081,1,0,0:0:0:0:
256,160,90510,1,8,0:0:0:0:
224,192,90795,1,0,0:0:0:0:
256,160,91081,1,8,0:0:0:0:
224,192,91224,1,0,0:0:0:0:
256,192,91652,1,8,0:0:0:0:
224,192,91938,1,12,0:0:0:0:
224,192,92224,1,8,0:0:0:0:
224,192,92295,1,8,0:0:0:0:
224,192,92367,1,8,0:0:0:0:
224,192,92438,1,8,0:0:0:0:
224,192,92510,1,0,0:0:0:0:
224,192,92581,1,0,0:0:0:0:
224,192,92652,1,8,0:0:0:0:
224,192,93081,1,0,0:0:0:0:
224,192,93152,1,0,0:0:0:0:
224,192,93224,1,8,0:0:0:0:
224,192,93295,1,0,0:0:0:0:
224,192,93367,1,8,0:0:0:0:
224,192,93510,1,0,0:0:0:0:
224,192,93581,1,8,0:0:0:0:
224,192,93652,1,0,0:0:0:0:
224,192,93795,1,8,0:0:0:0:
224,192,93938,1,0,0:0:0:0:
224,192,94081,1,8,0:0:0:0:
224,192,94224,1,0,0:0:0:0:
224,192,94295,1,8,0:0:0:0:
224,192,94367,1,0,0:0:0:0:
224,192,94438,1,0,0:0:0:0:
224,192,94510,1,8,0:0:0:0:
224,192,94652,1,0,0:0:0:0:
224,192,94724,1,0,0:0:0:0:
224,192,94795,1,8,0:0:0:0:
224,192,94938,1,8,0:0:0:0:
256,192,95010,1,8,0:0:0:0:
224,192,95081,1,0,0:0:0:0:
224,192,95224,1,8,0:0:0:0:
256,192,95367,1,0,0:0:0:0:
256,192,95510,1,0,0:0:0:0:
256,192,95581,1,0,0:0:0:0:
256,192,95652,1,8,0:0:0:0:
256,192,95795,1,0,0:0:0:0:
256,192,95867,1,0,0:0:0:0:
256,192,95938,1,8,0:0:0:0:
256,192,96081,1,8,0:0:0:0:
256,192,96152,1,8,0:0:0:0:
256,192,96224,1,0,0:0:0:0:
256,192,96367,1,8,0:0:0:0:
256,192,96510,1,0,0:0:0:0:
256,192,96581,1,0,0:0:0:0:
256,192,96652,1,8,0:0:0:0:
256,192,96724,1,8,0:0:0:0:
256,192,96795,1,0,0:0:0:0:
256,192,96867,1,8,0:0:0:0:
256,192,96938,1,8,0:0:0:0:
256,192,97010,1,8,0:0:0:0:
256,192,97081,1,0,0:0:0:0:
240,180,97224,1,8,0:0:0:0:
240,180,97295,1,8,0:0:0:0:
240,180,97367,1,0,0:0:0:0:
240,176,97510,1,8,0:0:0:0:
256,192,97652,1,0,0:0:0:0:
256,192,97795,1,0,0:0:0:0:
256,192,97867,1,0,0:0:0:0:
256,192,97938,1,8,0:0:0:0:
256,192,98081,1,8,0:0:0:0:
256,192,98152,1,8,0:0:0:0:
256,192,98224,1,0,0:0:0:0:
256,192,98367,1,8,0:0:0:0:
256,192,98510,1,0,0:0:0:0:
256,192,98581,1,0,0:0:0:0:
256,192,98652,1,8,0:0:0:0:
256,192,98795,1,8,0:0:0:0:
256,192,98938,1,8,0:0:0:0:
256,192,99010,1,8,0:0:0:0:
256,192,99081,1,0,0:0:0:0:
256,192,99224,1,8,0:0:0:0:
256,192,99367,1,0,0:0:0:0:
256,192,99510,1,8,0:0:0:0:
232,156,99581,1,8,0:0:0:0:
256,192,99652,1,0,0:0:0:0:
256,192,99795,1,8,0:0:0:0:
256,192,99938,1,0,0:0:0:0:
256,192,100010,1,0,0:0:0:0:
256,192,100081,1,0,0:0:0:0:
256,192,100152,1,0,0:0:0:0:
256,192,100224,1,8,0:0:0:0:
256,224,100295,1,0,0:0:0:0:
256,224,100367,1,8,0:0:0:0:
256,192,100438,1,8,0:0:0:0:
256,224,100510,1,0,0:0:0:0:
256,224,100652,1,8,0:0:0:0:
256,192,100724,1,8,0:0:0:0:
256,224,100795,1,0,0:0:0:0:
256,224,100938,1,8,0:0:0:0:
288,192,101081,1,0,0:0:0:0:
288,192,101152,1,0,0:0:0:0:
288,192,101224,1,8,0:0:0:0:
288,192,101295,1,8,0:0:0:0:
288,192,101367,1,0,0:0:0:0:
256,192,101510,1,8,0:0:0:0:
256,192,101652,1,0,0:0:0:0:
256,192,101795,1,0,0:0:0:0:
256,192,101938,1,0,0:0:0:0:
256,192,102081,1,0,0:0:0:0:
256,192,102224,1,8,0:0:0:0:
256,192,102510,1,8,0:0:0:0:
256,192,102652,1,8,0:0:0:0:
320,160,102795,1,0,0:0:0:0:
256,192,102938,1,8,0:0:0:0:
288,160,103367,1,8,0:0:0:0:
288,160,103510,1,8,0:0:0:0:
288,160,103652,1,0,0:0:0:0:
288,160,103795,1,8,0:0:0:0:
224,128,104081,1,8,0:0:0:0:
224,128,104224,1,8,0:0:0:0:
256,192,104510,1,8,0:0:0:0:
256,192,104795,1,8,0:0:0:0:
256,128,104938,1,8,0:0:0:0:
256,192,105081,1,0,0:0:0:0:
224,160,105224,1,8,0:0:0:0:
256,160,105510,5,0,0:0:0:0:
224,192,105652,1,8,0:0:0:0:
288,192,105795,1,8,0:0:0:0:
256,192,105938,1,8,0:0:0:0:
256,160,106081,1,0,0:0:0:0:
256,192,106224,1,8,0:0:0:0:
256,192,106367,1,8,0:0:0:0:
224,192,106652,1,8,0:0:0:0:
256,192,106795,1,0,0:0:0:0:
224,192,106938,1,0,0:0:0:0:
256,192,107081,1,8,0:0:0:0:
224,192,107224,1,8,0:0:0:0:
256,192,107367,1,0,0:0:0:0:
256,192,107652,1,0,0:0:0:0:
224,192,107795,1,8,0:0:0:0:
256,192,107938,1,0,0:0:0:0:
224,192,108081,1,8,0:0:0:0:
256,192,108224,1,0,0:0:0:0:
224,192,108367,1,0,0:0:0:0:
224,192,108510,1,8,0:0:0:0:
224,192,108795,1,8,0:0:0:0:
224,160,108938,1,8,0:0:0:0:
224,160,109081,1,0,0:0:0:0:
224,160,109224,1,0,0:0:0:0:
224,160,109367,1,8,0:0:0:0:
224,160,109510,1,8,0:0:0:0:
224,160,109652,1,8,0:0:0:0:
224,192,109938,1,0,0:0:0:0:
224,192,110081,1,8,0:0:0:0:
224,160,110510,1,8,0:0:0:0:
192,160,111081,1,8,0:0:0:0:
224,160,111367,1,4,0:0:0:0:
192,160,111510,1,0,0:0:0:0:
192,160,111652,1,8,0:0:0:0:
192,160,111795,1,8,0:0:0:0:
192,160,111938,1,0,0:0:0:0:
192,160,112081,1,0,0:0:0:0:
192,160,112224,1,8,0:0:0:0:
192,160,112367,1,8,0:0:0:0:
192,160,112510,1,0,0:0:0:0:
192,160,112652,1,8,0:0:0:0:
192,160,112795,1,0,0:0:0:0:
192,160,112938,1,8,0:0:0:0:
192,160,113081,1,0,0:0:0:0:
224,160,113367,1,8,0:0:0:0:
224,160,113652,1,4,0:0:0:0:
224,160,113795,1,0,0:0:0:0:
224,160,113938,1,8,0:0:0:0:
224,160,114081,1,8,0:0:0:0:
224,160,114224,1,0,0:0:0:0:
224,160,114367,1,0,0:0:0:0:
224,160,114510,1,8,0:0:0:0:
224,160,114652,1,8,0:0:0:0:
224,160,114795,1,0,0:0:0:0:
224,160,114938,1,8,0:0:0:0:
224,160,115081,1,0,0:0:0:0:
224,160,115224,1,0,0:0:0:0:
224,160,115367,1,8,0:0:0:0:
224,160,115652,1,8,0:0:0:0:
224,160,115938,1,4,0:0:0:0:
224,160,116081,1,8,0:0:0:0:
224,160,116152,1,8,0:0:0:0:
224,160,116224,1,8,0:0:0:0:
224,160,116367,1,8,0:0:0:0:
224,160,116510,1,0,0:0:0:0:
224,160,116652,1,0,0:0:0:0:
224,160,116795,1,8,0:0:0:0:
224,160,116938,1,8,0:0:0:0:
224,160,117081,1,0,0:0:0:0:
224,160,117224,1,8,0:0:0:0:
224,160,117295,1,8,0:0:0:0:
224,160,117367,1,0,0:0:0:0:
224,160,117510,1,0,0:0:0:0:
224,160,117652,1,8,0:0:0:0:
224,160,117795,1,0,0:0:0:0:
224,160,117938,1,8,0:0:0:0:
224,160,118081,1,8,0:0:0:0:
224,160,118224,1,0,0:0:0:0:
192,192,118295,1,0,0:0:0:0:
192,192,118367,1,0,0:0:0:0:
192,192,118438,1,0,0:0:0:0:
192,192,118510,1,8,0:0:0:0:
192,192,118652,1,8,0:0:0:0:
192,192,118795,1,0,0:0:0:0:
192,192,118938,1,8,0:0:0:0:
192,192,119010,1,8,0:0:0:0:
192,192,119081,1,0,0:0:0:0:
192,192,119224,1,8,0:0:0:0:
192,192,119367,1,0,0:0:0:0:
192,192,119438,1,0,0:0:0:0:
192,192,119510,1,8,0:0:0:0:
192,192,119581,1,0,0:0:0:0:
192,192,119652,1,8,0:0:0:0:
192,192,119795,1,0,0:0:0:0:
192,192,119938,1,0,0:0:0:0:
192,160,120510,1,4,0:0:0:0:
192,160,120938,1,0,0:0:0:0:
192,160,121367,1,8,0:0:0:0:
192,160,121653,1,4,0:0:0:0:
192,160,122081,1,0,0:0:0:0:
192,160,122510,1,8,0:0:0:0:
192,160,122795,1,4,0:0:0:0:
192,160,123224,1,0,0:0:0:0:
192,160,123653,1,8,0:0:0:0:
192,160,123938,1,4,0:0:0:0:
192,160,124224,1,0,0:0:0:0:
192,160,124367,1,0,0:0:0:0:
192,160,124510,1,8,0:0:0:0:
192,160,124795,1,8,0:0:0:0:
192,160,125081,1,4,0:0:0:0:
192,160,125510,1,0,0:0:0:0:
192,160,125653,1,8,0:0:0:0:
192,160,125938,1,8,0:0:0:0:
192,160,126224,1,4,0:0:0:0:
192,160,126653,1,0,0:0:0:0:
192,160,126795,1,8,0:0:0:0:
192,160,127081,1,8,0:0:0:0:
192,160,127367,1,0,0:0:0:0:
192,160,127653,1,0,0:0:0:0:
192,160,127938,1,0,0:0:0:0:
192,160,128224,1,0,0:0:0:0:
192,160,128510,1,8,0:0:0:0:
192,160,128581,1,8,0:0:0:0:
192,160,128653,1,0,0:0:0:0:
192,160,128724,1,0,0:0:0:0:
192,160,128795,1,8,0:0:0:0:
192,160,128867,1,8,0:0:0:0:
192,160,128938,1,0,0:0:0:0:
192,160,129010,1,0,0:0:0:0:
192,160,129081,1,8,0:0:0:0:
224,160,130510,1,4,0:0:0:0:
224,160,130795,1,8,0:0:0:0:
256,160,130938,1,0,0:0:0:0:
256,160,131010,1,0,0:0:0:0:
256,160,131081,1,8,0:0:0:0:
256,160,131224,1,0,0:0:0:0:
256,160,131295,1,0,0:0:0:0:
256,160,131367,1,8,0:0:0:0:
256,160,131438,1,8,0:0:0:0:
256,160,131510,1,8,0:0:0:0:
192,128,131581,1,8,0:0:0:0:
256,160,131652,1,0,0:0:0:0:
256,160,131795,1,8,0:0:0:0:
256,160,131938,1,0,0:0:0:0:
256,160,132081,1,0,0:0:0:0:
256,160,132152,1,8,0:0:0:0:
256,160,132224,1,0,0:0:0:0:
256,160,132367,1,8,0:0:0:0:
256,160,132510,1,0,0:0:0:0:
256,160,132581,1,0,0:0:0:0:
256,160,132652,1,8,0:0:0:0:
256,160,132724,1,8,0:0:0:0:
256,160,132795,1,0,0:0:0:0:
256,160,132938,1,8,0:0:0:0:
256,160,133081,1,0,0:0:0:0:
256,160,133224,1,8,0:0:0:0:
256,160,133295,1,8,0:0:0:0:
256,160,133367,1,0,0:0:0:0:
256,160,133510,1,8,0:0:0:0:
256,160,133652,1,0,0:0:0:0:
256,160,133795,1,8,0:0:0:0:
256,160,133867,1,8,0:0:0:0:
256,160,133938,1,0,0:0:0:0:
256,160,134081,1,8,0:0:0:0:
256,160,134224,1,0,0:0:0:0:
256,160,134295,1,0,0:0:0:0:
256,160,134367,1,8,0:0:0:0:
256,160,134438,1,8,0:0:0:0:
256,160,134510,1,8,0:0:0:0:
256,160,134652,1,8,0:0:0:0:
256,160,134795,1,0,0:0:0:0:
224,128,134867,1,0,0:0:0:0:
256,160,134938,1,8,0:0:0:0:
256,160,135010,1,8,0:0:0:0:
256,160,135081,1,0,0:0:0:0:
256,160,135224,1,8,0:0:0:0:
256,160,135367,1,0,0:0:0:0:
256,128,135510,1,8,0:0:0:0:
256,128,135581,1,8,0:0:0:0:
256,128,135652,1,0,0:0:0:0:
224,128,135795,1,8,0:0:0:0:
224,128,135867,1,8,0:0:0:0:
224,128,135938,1,0,0:0:0:0:
256,128,136010,1,0,0:0:0:0:
224,128,136081,1,8,0:0:0:0:
224,128,136224,1,0,0:0:0:0:
224,128,136367,1,8,0:0:0:0:
224,128,136510,1,0,0:0:0:0:
224,128,136652,1,8,0:0:0:0:
224,128,136724,1,8,0:0:0:0:
224,128,136795,1,0,0:0:0:0:
224,128,136938,1,8,0:0:0:0:
224,128,137081,1,0,0:0:0:0:
224,128,137224,1,8,0:0:0:0:
224,128,137295,1,8,0:0:0:0:
224,128,137367,1,0,0:0:0:0:
224,128,137510,1,8,0:0:0:0:
224,128,137652,1,0,0:0:0:0:
224,128,137795,1,8,0:0:0:0:
224,128,137867,1,8,0:0:0:0:
224,128,137938,1,0,0:0:0:0:
224,128,138010,1,0,0:0:0:0:
224,128,138081,1,8,0:0:0:0:
224,128,138224,1,8,0:0:0:0:
224,128,138367,1,0,0:0:0:0:
256,192,138510,1,0,0:0:0:0:
256,192,138652,1,0,0:0:0:0:
256,160,139938,1,4,0:0:0:0:
256,160,140081,1,0,0:0:0:0:
256,160,140152,1,0,0:0:0:0:
256,160,140224,1,8,0:0:0:0:
256,160,140367,1,0,0:0:0:0:
288,160,140438,1,0,0:0:0:0:
256,160,140510,1,8,0:0:0:0:
256,160,140581,1,0,0:0:0:0:
256,160,140652,1,0,0:0:0:0:
256,160,140724,1,0,0:0:0:0:
256,160,140795,1,8,0:0:0:0:
256,160,140938,1,0,0:0:0:0:
256,160,141081,1,8,0:0:0:0:
256,160,141224,1,0,0:0:0:0:
256,160,141295,1,0,0:0:0:0:
256,160,141367,1,8,0:0:0:0:
256,160,141510,1,0,0:0:0:0:
256,160,141581,1,0,0:0:0:0:
256,160,141652,1,8,0:0:0:0:
256,128,141724,1,0,0:0:0:0:
256,160,141795,1,0,0:0:0:0:
256,160,141867,1,0,0:0:0:0:
256,160,141938,1,8,0:0:0:0:
256,160,142081,1,0,0:0:0:0:
256,160,142224,1,8,0:0:0:0:
256,160,142367,1,0,0:0:0:0:
256,160,142438,1,0,0:0:0:0:
256,160,142510,1,8,0:0:0:0:
256,160,142652,1,8,0:0:0:0:
256,160,142724,1,8,0:0:0:0:
256,160,142795,1,0,0:0:0:0:
160,160,142867,1,0,0:0:0:0:
256,160,142938,1,0,0:0:0:0:
256,160,143010,1,0,0:0:0:0:
256,160,143081,1,8,0:0:0:0:
256,160,143224,1,0,0:0:0:0:
256,160,143367,1,8,0:0:0:0:
256,160,143510,1,0,0:0:0:0:
256,160,143581,1,0,0:0:0:0:
256,160,143652,1,8,0:0:0:0:
256,160,143795,1,8,0:0:0:0:
256,160,143867,1,8,0:0:0:0:
256,160,143938,1,0,0:0:0:0:
239,121,144010,1,0,0:0:0:0:
256,160,144081,1,0,0:0:0:0:
256,160,144152,1,0,0:0:0:0:
224,160,144224,1,8,0:0:0:0:
256,160,144367,1,8,0:0:0:0:
256,160,144510,1,4,0:0:0:0:
256,160,144652,1,0,0:0:0:0:
256,160,144724,1,0,0:0:0:0:
256,160,144795,1,8,0:0:0:0:
256,160,144938,1,8,0:0:0:0:
256,160,145081,1,0,0:0:0:0:
256,160,145152,1,0,0:0:0:0:
256,160,145224,1,8,0:0:0:0:
256,160,145295,1,0,0:0:0:0:
256,160,145367,1,8,0:0:0:0:
256,160,145510,1,8,0:0:0:0:
256,160,145652,1,0,0:0:0:0:
256,160,145795,1,8,0:0:0:0:
256,160,145867,1,0,0:0:0:0:
256,192,145938,1,8,0:0:0:0:
256,192,146081,1,8,0:0:0:0:
256,192,146224,1,0,0:0:0:0:
256,192,146295,1,0,0:0:0:0:
256,192,146367,1,8,0:0:0:0:
256,192,146438,1,8,0:0:0:0:
256,192,146510,1,0,0:0:0:0:
256,192,146652,1,8,0:0:0:0:
256,192,146795,1,0,0:0:0:0:
256,192,146938,1,8,0:0:0:0:
256,192,147010,1,8,0:0:0:0:
256,192,147081,1,0,0:0:0:0:
256,192,147152,1,0,0:0:0:0:
256,192,147224,1,8,0:0:0:0:
256,192,147367,1,8,0:0:0:0:
256,192,147438,1,0,0:0:0:0:
256,192,147510,1,0,0:0:0:0:
256,192,147581,1,0,0:0:0:0:
256,192,147652,1,8,0:0:0:0:
256,192,147795,1,8,0:0:0:0:
224,192,147938,1,0,0:0:0:0:
224,160,148010,1,0,0:0:0:0:
224,160,148081,1,8,0:0:0:0:
224,160,148152,1,8,0:0:0:0:
224,160,148224,1,0,0:0:0:0:
224,160,148295,1,0,0:0:0:0:
224,160,148367,1,0,0:0:0:0:
224,160,148438,1,0,0:0:0:0:
152,156,148510,1,8,0:0:0:0:
228,172,148581,1,8,0:0:0:0:
232,168,148652,1,8,0:0:0:0:
232,168,148724,1,8,0:0:0:0:
232,168,148795,1,8,0:0:0:0:
232,168,148867,1,8,0:0:0:0:
224,160,148938,1,0,0:0:0:0:
224,192,149367,1,4,0:0:0:0:
256,192,149510,1,8,0:0:0:0:
256,192,149581,1,8,0:0:0:0:
256,192,149652,1,0,0:0:0:0:
256,192,149795,1,8,0:0:0:0:
256,160,149867,1,8,0:0:0:0:
256,192,149938,1,0,0:0:0:0:
256,192,150081,1,8,0:0:0:0:
256,192,150224,1,0,0:0:0:0:
256,192,150367,1,0,0:0:0:0:
256,192,150438,1,0,0:0:0:0:
320,160,150510,1,8,0:0:0:0:
256,192,150652,1,8,0:0:0:0:
256,192,150795,1,0,0:0:0:0:
256,192,150938,1,0,0:0:0:0:
256,192,151010,1,0,0:0:0:0:
256,192,151081,1,8,0:0:0:0:
256,192,151224,1,8,0:0:0:0:
256,192,151367,1,4,0:0:0:0:
224,160,151510,1,0,0:0:0:0:
224,160,151581,1,8,0:0:0:0:
224,160,151652,1,8,0:0:0:0:
224,160,151795,1,8,0:0:0:0:
224,160,151867,1,8,0:0:0:0:
224,160,151938,1,0,0:0:0:0:
224,160,152081,1,8,0:0:0:0:
224,160,152224,1,0,0:0:0:0:
224,160,152367,1,8,0:0:0:0:
224,160,152510,1,0,0:0:0:0:
224,160,152652,1,8,0:0:0:0:
224,160,152724,1,8,0:0:0:0:
224,160,152795,1,8,0:0:0:0:
224,160,152938,1,8,0:0:0:0:
224,160,153081,1,0,0:0:0:0:
192,128,153152,1,0,0:0:0:0:
224,160,153224,1,0,0:0:0:0:
224,128,153295,1,0,0:0:0:0:
224,128,153367,1,8,0:0:0:0:
224,128,153438,1,8,0:0:0:0:
224,128,153510,1,8,0:0:0:0:
288,192,153581,1,8,0:0:0:0:
224,128,153652,1,0,0:0:0:0:
192,128,153795,1,0,0:0:0:0:
192,160,153867,1,0,0:0:0:0:
192,128,153938,1,8,0:0:0:0:
192,128,154081,1,8,0:0:0:0:
192,128,154224,1,8,0:0:0:0:
160,128,154295,1,0,0:0:0:0:
192,160,154367,1,0,0:0:0:0:
192,160,154438,1,8,0:0:0:0:
192,160,154510,1,8,0:0:0:0:
192,160,154652,1,8,0:0:0:0:
192,160,154795,1,0,0:0:0:0:
192,160,154938,1,0,0:0:0:0:
192,160,155010,1,0,0:0:0:0:
192,160,155081,1,8,0:0:0:0:
192,160,155224,1,8,0:0:0:0:
192,160,155367,1,0,0:0:0:0:
224,128,155438,1,8,0:0:0:0:
192,160,155510,1,0,0:0:0:0:
224,128,155581,1,0,0:0:0:0:
192,160,155652,1,8,0:0:0:0:
224,160,155795,1,8,0:0:0:0:
224,160,155938,1,4,0:0:0:0:
256,128,156081,1,0,0:0:0:0:
256,128,156152,1,0,0:0:0:0:
224,160,156224,1,8,0:0:0:0:
224,160,156367,1,8,0:0:0:0:
224,160,156438,1,8,0:0:0:0:
224,160,156510,1,0,0:0:0:0:
224,160,156581,1,0,0:0:0:0:
224,160,156652,1,8,0:0:0:0:
224,160,156724,1,8,0:0:0:0:
224,160,156795,1,8,0:0:0:0:
224,128,156938,1,8,0:0:0:0:
224,128,157081,1,0,0:0:0:0:
192,160,157224,1,0,0:0:0:0:
192,160,157295,1,0,0:0:0:0:
192,160,157367,1,8,0:0:0:0:
192,160,157510,1,8,0:0:0:0:
192,160,157652,1,0,0:0:0:0:
192,160,157795,1,8,0:0:0:0:
192,160,157938,1,8,0:0:0:0:
192,160,158081,1,8,0:0:0:0:
224,160,158224,1,4,0:0:0:0:
224,160,158367,1,8,0:0:0:0:
224,160,158438,1,8,0:0:0:0:
224,160,158510,1,0,0:0:0:0:
160,160,158581,1,0,0:0:0:0:
224,160,158652,1,8,0:0:0:0:
224,160,158724,1,8,0:0:0:0:
224,160,158795,1,0,0:0:0:0:
160,160,158867,1,0,0:0:0:0:
224,160,158938,1,8,0:0:0:0:
224,160,159010,1,8,0:0:0:0:
224,160,159081,1,0,0:0:0:0:
224,160,159224,1,8,0:0:0:0:
224,128,159367,1,4,0:0:0:0:
224,128,159510,1,0,0:0:0:0:
224,128,159581,1,0,0:0:0:0:
224,128,159652,1,8,0:0:0:0:
128,160,159724,1,8,0:0:0:0:
224,128,159795,1,0,0:0:0:0:
224,128,159867,1,0,0:0:0:0:
224,128,159938,1,8,0:0:0:0:
128,160,160010,1,8,0:0:0:0:
224,128,160081,1,0,0:0:0:0:
224,128,160152,1,0,0:0:0:0:
224,128,160224,1,8,0:0:0:0:
224,128,160367,1,0,0:0:0:0:
224,128,160510,1,4,0:0:0:0:
224,128,160652,1,0,0:0:0:0:
224,128,160724,1,0,0:0:0:0:
224,128,160795,1,8,0:0:0:0:
224,128,160938,1,8,0:0:0:0:
224,128,161010,1,8,0:0:0:0:
224,128,161081,1,0,0:0:0:0:
208,150,161152,1,0,0:0:0:0:
224,128,161224,1,8,0:0:0:0:
256,160,161295,1,0,0:0:0:0:
256,160,161367,1,0,0:0:0:0:
256,128,161438,1,0,0:0:0:0:
256,160,161510,1,8,0:0:0:0:
256,160,161652,1,0,0:0:0:0:
256,160,161795,1,8,0:0:0:0:
256,128,161867,1,8,0:0:0:0:
256,160,161938,1,0,0:0:0:0:
256,160,162081,1,0,0:0:0:0:
256,160,162152,1,0,0:0:0:0:
256,160,162224,1,8,0:0:0:0:
224,128,162295,1,0,0:0:0:0:
256,160,162367,1,0,0:0:0:0:
256,160,162438,1,0,0:0:0:0:
256,160,162510,1,8,0:0:0:0:
256,160,162581,1,8,0:0:0:0:
256,160,162652,1,8,0:0:0:0:
256,256,162795,1,4,0:0:0:0:
256,256,162938,1,8,0:0:0:0:
256,256,163081,1,0,0:0:0:0:
256,160,163152,1,0,0:0:0:0:
256,256,163224,1,8,0:0:0:0:
256,256,163367,1,4,0:0:0:0:
256,256,163510,1,8,0:0:0:0:
288,160,163581,1,0,0:0:0:0:
256,256,163652,1,0,0:0:0:0:
288,160,163724,1,0,0:0:0:0:
256,256,163795,1,8,0:0:0:0:
256,256,163938,1,4,0:0:0:0:
256,256,164081,1,8,0:0:0:0:
288,256,164224,1,0,0:0:0:0:
288,160,164295,1,0,0:0:0:0:
256,224,164367,1,8,0:0:0:0:
256,224,164510,1,4,0:0:0:0:
256,224,164652,1,8,0:0:0:0:
288,160,164724,1,0,0:0:0:0:
256,224,164795,1,0,0:0:0:0:
288,160,164867,1,0,0:0:0:0:
288,160,164938,1,8,0:0:0:0:
256,224,165081,1,4,0:0:0:0:
256,224,165224,1,8,0:0:0:0:
288,160,165295,1,8,0:0:0:0:
256,224,165367,1,0,0:0:0:0:
256,224,165510,1,8,0:0:0:0:
256,224,165652,1,4,0:0:0:0:
256,224,165795,1,8,0:0:0:0:
256,160,165867,1,8,0:0:0:0:
256,224,165938,1,0,0:0:0:0:
256,160,166010,1,0,0:0:0:0:
256,160,166081,1,8,0:0:0:0:
256,192,166224,1,0,0:0:0:0:
256,192,166295,1,0,0:0:0:0:
256,192,166367,1,0,0:0:0:0:
256,192,166438,1,0,0:0:0:0:
256,192,166510,1,8,0:0:0:0:
256,192,166581,1,8,0:0:0:0:
256,192,166652,1,8,0:0:0:0:
256,192,166724,1,8,0:0:0:0:
256,192,166795,1,0,0:0:0:0:
256,192,166867,1,0,0:0:0:0:
256,192,166938,1,8,0:0:0:0:
256,192,167010,1,8,0:0:0:0:
256,192,167081,1,0,0:0:0:0:
256,192,167152,1,0,0:0:0:0:
256,192,167224,1,8,0:0:0:0:
256,192,167295,1,8,0:0:0:0:
256,192,167367,1,0,0:0:0:0:
235,173,167652,1,0,0:0:0:0:
235,173,167795,1,8,0:0:0:0:
235,173,168081,1,8,0:0:0:0:
235,173,168367,1,0,0:0:0:0:
235,173,168652,1,8,0:0:0:0:
235,173,168938,1,8,0:0:0:0:
235,173,169224,1,0,0:0:0:0:
235,173,169367,1,8,0:0:0:0:
235,173,169510,1,8,0:0:0:0:
235,173,169652,1,0,0:0:0:0:
235,173,169938,1,0,0:0:0:0:
214,188,170081,1,8,0:0:0:0:
235,173,170367,1,8,0:0:0:0:
235,173,170652,1,8,0:0:0:0:
235,173,170938,1,0,0:0:0:0:
235,173,171224,1,8,0:0:0:0:
235,173,171510,1,0,0:0:0:0:
214,188,171652,1,8,0:0:0:0:
235,173,171795,1,8,0:0:0:0:
182,144,171938,1,0,0:0:0:0:
182,144,172224,1,0,0:0:0:0:
182,144,172367,1,8,0:0:0:0:
182,144,172652,1,8,0:0:0:0:
182,144,172938,1,0,0:0:0:0:
261,202,173224,1,8,0:0:0:0:
261,202,173510,1,8,0:0:0:0:
241,165,173795,1,8,0:0:0:0:
241,165,173938,1,8,0:0:0:0:
241,165,174081,1,8,0:0:0:0:
241,165,174224,1,0,0:0:0:0:
182,144,174510,1,0,0:0:0:0:
211,146,174652,1,8,0:0:0:0:
211,146,174938,1,0,0:0:0:0:
211,146,175224,1,8,0:0:0:0:
211,146,175510,1,0,0:0:0:0:
211,146,175795,1,0,0:0:0:0:
266,167,176081,1,8,0:0:0:0:
266,167,176224,1,8,0:0:0:0:
266,167,176367,1,8,0:0:0:0:
