osu file format v13

[General]
AudioFilename: 11 an.mp3
AudioLeadIn: 0
PreviewTime: 65372
Countdown: 0
SampleSet: Soft
StackLeniency: 0.3
Mode: 0
LetterboxInBreaks: 1
WidescreenStoryboard: 1

[Editor]
DistanceSpacing: 1
BeatDivisor: 2
GridSize: 4
TimelineZoom: 1

[Metadata]
Title:an
TitleUnicode:an
Artist:DECO*27
ArtistUnicode:DECO*27
Creator:guineaQ
Version:Normal
Source:
Tags:DECO*27 Conti New Hatsune Miku
BeatmapID:506540
BeatmapSetID:215748

[Difficulty]
HPDrainRate:4
CircleSize:3
OverallDifficulty:4
ApproachRate:5
SliderMultiplier:1
SliderTickRate:1

[Events]
//Background and Video events
0,0,"mikuuuu.png",0,0
//Break Periods
2,92000,99172
2,185572,187386
2,189143,199172
2,253429,268815
//Storyboard Layer 0 (Background)
//Storyboard Layer 1 (Fail)
//Storyboard Layer 2 (Pass)
//Storyboard Layer 3 (Foreground)
//Storyboard Sound Samples
//Background Colour Transformations
3,100,163,162,255

[TimingPoints]
372.393620611558,357.142857142857,4,2,1,25,1,0
17515,-100,4,2,1,30,0,0
18943,-100,4,2,1,35,0,0
20372,-100,4,2,1,40,0,0
21800,-100,4,2,1,50,0,0
66086,-100,4,2,1,50,0,1
91800,-100,4,2,1,50,0,0
100372,-100,4,2,1,30,0,0
111800,-100,4,2,1,50,0,0
183229,-100,4,2,1,25,0,0
208943,-100,4,2,1,50,0,0
213229,-100,4,2,1,50,0,1
250372,-100,4,2,1,25,0,0
270372,-100,4,2,1,15,0,0
285372,-100,4,2,1,5,0,0

[Colours]
Combo1 : 203,232,245
Combo2 : 96,255,235
Combo3 : 79,163,255

[HitObjects]
136,92,372,6,0,L|256:124,1,100
328,140,1086,1,0,0:0:0:0:
260,212,1443,1,0,0:0:0:0:
296,304,1800,6,0,P|348:256|356:220,1,100
260,212,2515,2,0,L|172:288,1,100
92,236,3229,22,0,L|172:164,1,100
128,80,3943,2,0,L|32:164,1,100
92,236,4658,6,0,L|172:164,1,100
128,80,5372,2,0,L|32:164,1,100
92,236,6086,22,0,P|156:268|204:264,1,100
256,200,6800,1,0,0:0:0:0:
256,200,7158,1,0,0:0:0:0:
328,268,7515,6,0,P|378:262|420:236,1,100
420,235,8229,2,0,L|336:164,1,100
268,108,8943,22,0,P|320:76|384:80,1,100
452,40,9658,2,0,P|452:100|436:136,1,100
416,232,10372,6,0,P|348:176|344:136,1,100
252,208,11086,2,0,L|184:300,1,100
92,300,11800,22,0,P|44:248|40:196,1,100
72,128,12515,2,0,P|120:112|180:124,1,100
232,196,13229,6,0,P|212:256|172:292,1,100
284,308,13943,2,0,P|340:288|392:292,1,100
352,192,14658,22,0,P|308:148|292:100,1,100
348,32,15372,2,0,P|284:16|240:32,1,100
196,108,16086,6,0,P|140:152|32:144,2,150,0|0|0,0:0|0:0|0:0,0:0:0:0:
296,116,17515,21,0,0:0:0:0:
392,140,17872,1,0,0:0:0:0:
392,240,18229,1,0,0:0:0:0:
296,268,18586,1,0,0:0:0:0:
232,188,18943,5,0,0:0:0:0:
196,96,19300,1,0,0:0:0:0:
296,116,19658,1,0,0:0:0:0:
344,204,20015,1,0,0:0:0:0:
388,292,20372,22,0,P|324:336|296:332,1,100,0|0,0:0|0:0,0:0:0:0:
206,334,21086,2,0,P|157:327|124:292,1,100,0|0,0:0|0:0,0:0:0:0:
168,200,21800,6,0,P|196:152|204:96,1,100
307,108,22515,2,0,P|318:157|344:200,1,100
256,248,23229,1,4,0:0:0:0:
256,248,25372,5,2,0:0:0:0:
160,72,26086,6,0,P|260:44|360:80,1,200,4|8,0:0|0:0,0:0:0:0:
336,272,27515,1,2,0:0:0:0:
256,332,27872,1,2,0:0:0:0:
176,272,28229,1,8,0:0:0:0:
76,96,28943,6,0,P|48:192|84:288,1,200,2|8,0:0|0:0,0:0:0:0:
200,192,30193,1,2,0:0:0:0:
200,192,30372,2,0,P|268:176|304:112,1,100,2|2,0:0|0:0,0:0:0:0:
208,92,31086,1,8,0:0:0:0:
368,212,31800,22,0,P|332:248|176:288,1,200,2|8,0:0|0:0,0:0:0:0:
56,144,33229,2,0,L|0:240,2,100,2|2|8,0:0|0:0|0:0,0:0:0:0:
256,132,34658,6,0,P|312:152|416:60,1,200,2|8,0:0|0:0,0:0:0:0:
216,36,36086,2,0,L|132:136,1,100,2|2,0:0|0:0,0:0:0:0:
92,192,36800,1,8,0:0:0:0:
148,276,37158,1,8,0:0:0:0:
172,320,37336,1,8,0:0:0:0:
212,348,37515,22,0,P|272:352|316:324,1,100
244,256,38229,1,8,0:0:0:0:
108,108,38943,2,0,L|188:192,1,100,2|2,0:0|0:0,0:0:0:0:
244,256,39658,1,8,0:0:0:0:
188,64,40372,6,0,P|140:24|20:84,1,200,2|8,0:0|0:0,0:0:0:0:
112,192,41622,1,2,0:0:0:0:
112,192,41800,2,0,P|160:228|200:196,1,100,2|2,0:0|0:0,0:0:0:0:
256,136,42515,1,8,0:0:0:0:
332,320,43229,22,0,L|120:276,1,200,2|8,0:0|0:0,0:0:0:0:
60,96,44658,2,0,L|176:120,1,100,2|2,0:0|0:0,0:0:0:0:
256,136,45372,1,8,0:0:0:0:
352,312,46086,6,0,P|256:340|140:296,1,200,0|8,0:0|0:0,0:0:0:0:
256,196,47336,1,2,0:0:0:0:
256,196,47515,2,0,L|256:84,2,100,8|2|8,0:0|0:0|0:0,0:0:0:0:
256,296,48586,1,2,0:0:0:0:
352,328,48943,22,0,B|360:272|340:248|340:248|376:196|332:128,1,200,4|8,0:0|0:0,0:0:0:0:
256,80,50015,1,2,0:0:0:0:
176,136,50372,2,0,P|156:80|168:36,2,100,2|2|8,0:0|0:0|0:0,0:0:0:0:
256,196,51443,1,2,0:0:0:0:
160,228,51800,6,0,P|60:228|100:164,1,200,2|8,0:0|0:0,0:0:0:0:
176,136,52872,1,2,0:0:0:0:
256,80,53229,2,0,P|340:112|368:204,1,150,2|8,0:0|0:0,0:0:0:0:
376,212,53943,1,8,0:0:0:0:
300,280,54300,1,0,0:0:0:0:
232,352,54658,22,0,P|360:360|400:296,1,200,2|8,0:0|0:0,0:0:0:0:
300,280,55729,1,0,0:0:0:0:
204,260,56086,2,0,P|192:196|96:140,1,150,2|8,0:0|0:0,0:0:0:0:
80,144,56800,1,8,0:0:0:0:
104,240,57158,1,2,0:0:0:0:
204,260,57515,6,0,P|284:208|312:96,1,200,2|2,0:0|0:0,0:0:0:0:
276,20,58586,1,2,0:0:0:0:
176,24,58943,1,2,0:0:0:0:
212,116,59300,1,0,0:0:0:0:
312,112,59658,1,10,0:0:0:0:
312,112,60015,1,8,0:0:0:0:
256,192,60372,12,0,64658,0:0:0:0:
188,128,66086,22,0,P|160:180|240:296,1,200,4|8,0:0|0:0,0:0:0:0:
256,196,67158,1,0,0:0:0:0:
276,100,67515,2,0,P|292:48|296:-4,2,100,2|2|8,0:0|0:0|0:0,0:0:0:0:
256,196,68586,1,2,0:0:0:0:
244,296,68943,6,0,P|344:248|336:140,1,200,2|8,0:0|0:0,0:0:0:0:
256,196,70015,1,2,0:0:0:0:
164,236,70372,2,0,P|100:248|48:232,2,100,2|2|8,0:0|0:0|0:0,0:0:0:0:
256,196,71443,1,2,0:0:0:0:
276,100,71800,6,0,P|352:68|452:164,2,200,2|8|2,0:0|0:0|0:0,0:0:0:0:
352,168,73586,1,2,0:0:0:0:
432,228,73943,1,8,0:0:0:0:
340,264,74300,1,2,0:0:0:0:
256,320,74658,6,0,P|184:336|104:232,1,200,2|8,0:0|0:0,0:0:0:0:
204,240,75729,1,2,0:0:0:0:
144,160,76086,2,0,L|76:68,1,100,2|2,0:0|0:0,0:0:0:0:
184,68,76800,2,0,L|252:168,1,100,8|8,0:0|0:0,0:0:0:0:
288,168,77336,1,8,0:0:0:0:
336,184,77515,6,0,P|420:172|448:144,1,100,4|0,0:0|0:0,0:0:0:0:
364,92,78229,2,0,P|396:176|332:272,1,200,8|0,0:0|0:0,0:0:0:0:
252,304,79300,2,0,P|200:292|152:244,2,100,2|8|2,0:0|0:0|0:0,0:0:0:0:
248,204,80372,6,0,L|364:164,1,100,2|2,0:0|0:0,0:0:0:0:
272,100,81086,2,0,L|160:140,1,100,8|2,0:0|0:0,0:0:0:0:
80,108,81800,2,0,B|24:192|24:192|84:284,1,200,2|8,0:0|0:0,0:0:0:0:
132,192,82872,1,2,0:0:0:0:
204,260,83229,6,0,B|240:296|256:344|256:344|272:296|316:256,1,200,2|8,0:0|0:0,0:0:0:0:
256,176,84300,1,0,0:0:0:0:
208,88,84658,2,0,P|260:80|312:92,2,100,2|2|8,0:0|0:0|0:0,0:0:0:0:
256,176,85729,1,2,0:0:0:0:
304,264,86086,6,0,P|364:276|416:252,1,100
352,176,86800,2,0,P|332:116|300:88,1,100,8|0,0:0|0:0,0:0:0:0:
256,176,87515,2,0,P|212:220|208:272,1,100,0|0,0:0|0:0,0:0:0:0:
248,348,88229,1,8,0:0:0:0:
304,264,88586,1,2,0:0:0:0:
256,192,88943,12,0,91800,0:0:0:0:
56,48,100372,21,2,0:0:0:0:
156,64,100729,1,2,0:0:0:0:
456,92,101800,5,2,0:0:0:0:
356,112,102158,1,2,0:0:0:0:
60,156,103229,21,2,0:0:0:0:
160,168,103586,1,2,0:0:0:0:
460,196,104658,5,2,0:0:0:0:
360,216,105016,1,2,0:0:0:0:
64,252,106086,21,2,0:0:0:0:
164,264,106443,1,2,0:0:0:0:
464,292,107515,5,2,0:0:0:0:
364,312,107873,1,2,0:0:0:0:
68,344,108943,21,2,0:0:0:0:
168,356,109300,1,2,0:0:0:0:
444,236,110372,5,2,0:0:0:0:
344,256,110730,1,2,0:0:0:0:
256,212,111086,1,8,0:0:0:0:
216,120,111443,1,8,0:0:0:0:
244,76,111622,1,8,0:0:0:0:
284,48,111800,22,0,P|316:140|248:216,1,200,4|8,0:0|0:0,0:0:0:0:
56,192,113229,2,0,L|56:88,2,100,2|2|8,0:0|0:0|0:0,0:0:0:0:
228,296,114658,6,0,P|308:316|260:236,1,200,2|8,0:0|0:0,0:0:0:0:
148,176,115908,1,2,0:0:0:0:
148,176,116086,2,0,L|52:80,2,100,2|2|8,0:0|0:0|0:0,0:0:0:0:
312,292,117515,22,0,P|376:288|428:164,1,200,2|8,0:0|0:0,0:0:0:0:
236,132,118943,2,0,P|212:176|280:208,1,100,0|2,0:0|0:0,0:0:0:0:
336,196,119658,1,8,0:0:0:0:
196,56,120372,6,0,P|144:104|152:248,1,200,2|8,0:0|0:0,0:0:0:0:
256,324,121622,1,2,0:0:0:0:
256,324,121800,2,0,L|376:324,2,100,2|2|8,0:0|0:0|0:0,0:0:0:0:
256,224,122872,1,2,0:0:0:0:
256,124,123229,22,0,P|192:152|188:304,1,200,4|8,0:0|0:0,0:0:0:0:
256,224,124300,1,2,0:0:0:0:
340,172,124658,2,0,P|352:104|328:60,1,100,2|2,0:0|0:0,0:0:0:0:
256,124,125372,1,8,0:0:0:0:
168,172,125729,1,2,0:0:0:0:
76,216,126086,6,0,P|80:120|196:76,1,200,2|8,0:0|0:0,0:0:0:0:
168,172,127158,1,2,0:0:0:0:
164,272,127515,2,0,P|224:312|308:296,1,150,2|8,0:0|0:0,0:0:0:0:
336,268,128229,1,8,0:0:0:0:
248,216,128586,1,0,0:0:0:0:
336,168,128943,22,0,P|408:196|424:320,1,200,2|8,0:0|0:0,0:0:0:0:
336,268,130015,1,2,0:0:0:0:
248,216,130372,2,0,P|240:144|288:80,1,150,2|8,0:0|0:0,0:0:0:0:
332,68,131086,1,8,0:0:0:0:
336,168,131443,1,2,0:0:0:0:
248,216,131800,6,0,P|184:248|76:156,1,200,4|0,0:0|0:0,0:0:0:0:
176,148,132872,1,0,0:0:0:0:
248,216,133229,2,0,P|312:248|420:156,1,200,0|0,0:0|0:0,0:0:0:0:
320,148,134300,1,0,0:0:0:0:
256,192,134658,12,0,138943,0:0:0:0:
292,80,140372,6,0,B|200:64|172:96|148:124|124:160|128:200|132:236|144:268|168:288|192:304|224:316|252:320|304:328|336:288|380:256|376:192|376:192|372:160|388:124|388:124|224:208,2,800,0|0|0,0:0|0:0|0:0,0:0:0:0:
256,192,146800,1,8,0:0:0:0:
56,192,147515,6,0,L|172:192,1,100,2|2,0:0|0:0,0:0:0:0:
256,192,148229,1,8,0:0:0:0:
456,192,148943,2,0,L|340:192,1,100,2|2,0:0|0:0,0:0:0:0:
256,192,149657,1,8,0:0:0:0:
56,164,150372,6,0,P|108:112|160:100,1,100,2|2,0:0|0:0,0:0:0:0:
152,200,151086,1,8,0:0:0:0:
72,260,151443,1,2,0:0:0:0:
164,296,151800,2,0,P|220:272|244:232,1,100,6|2,0:0|0:0,0:0:0:0:
236,140,152515,1,8,0:0:0:0:
432,104,153229,22,0,L|320:124,1,100,2|2,0:0|0:0,0:0:0:0:
236,140,153943,1,8,0:0:0:0:
136,128,154300,2,0,P|160:76|208:44,2,100,2|2|2,0:0|0:0|0:0,0:0:0:0:
176,220,155372,1,8,0:0:0:0:
360,300,156086,6,0,L|412:204,1,100,2|2,0:0|0:0,0:0:0:0:
344,136,156800,2,0,L|288:236,1,100,8|2,0:0|0:0,0:0:0:0:
256,316,157515,1,2,0:0:0:0:
196,236,157872,1,2,0:0:0:0:
296,224,158229,1,8,0:0:0:0:
100,252,158943,5,2,0:0:0:0:
100,252,159300,1,2,0:0:0:0:
256,192,159658,12,0,162515,0:0:0:0:
156,40,163229,5,8,0:0:0:0:
156,140,163586,1,8,0:0:0:0:
156,348,164658,2,0,L|156:228,1,100,8|8,0:0|0:0,0:0:0:0:
356,40,166086,5,8,0:0:0:0:
356,140,166443,1,8,0:0:0:0:
356,348,167515,2,0,L|356:228,1,100,8|8,0:0|0:0,0:0:0:0:
256,340,168943,5,8,0:0:0:0:
256,240,169300,1,8,0:0:0:0:
256,32,170372,2,0,L|256:152,1,100,8|8,0:0|0:0,0:0:0:0:
256,288,171800,6,0,P|316:300|400:176,1,200,12|2,0:0|0:0,0:0:0:0:
304,200,172872,1,2,0:0:0:0:
204,204,173229,2,0,P|164:248|164:312,2,100,2|2|2,0:0|0:0|0:0,0:0:0:0:
252,116,174300,1,2,0:0:0:0:
300,28,174658,6,0,P|348:96|344:144,1,100,8|8,0:0|0:0,0:0:0:0:
212,356,176086,2,0,P|164:288|168:240,1,100,8|8,0:0|0:0,0:0:0:0:
232,172,177515,21,8,0:0:0:0:
260,268,177872,2,0,P|316:228|328:168,2,100,2|2|2,0:0|0:0|0:0,0:0:0:0:
232,172,178943,2,0,L|120:144,2,100,2|2|2,0:0|0:0|0:0,0:0:0:0:
328,200,180015,1,8,0:0:0:0:
424,224,180372,6,0,P|408:144|288:108,2,200,4|8|2,0:0|0:0|0:0,0:0:0:0:
356,296,182158,1,0,0:0:0:0:
328,200,182515,1,8,0:0:0:0:
256,132,182872,1,0,0:0:0:0:
180,196,183229,22,0,P|156:136|236:32,2,200,0|0|0,0:0|0:0|0:0,0:0:0:0:
328,64,185372,1,0,0:0:0:0:
256,192,188586,5,8,0:0:0:0:
256,192,188765,1,8,0:0:0:0:
256,192,188943,1,4,0:0:0:0:
256,192,200372,5,0,0:0:0:0:
120,72,201800,5,2,0:0:0:0:
156,164,202158,1,2,0:0:0:0:
256,196,203229,5,0,0:0:0:0:
392,312,204658,21,2,0:0:0:0:
356,220,205016,1,2,0:0:0:0:
256,192,206086,5,0,0:0:0:0:
184,260,207515,21,0,0:0:0:0:
256,192,207872,1,0,0:0:0:0:
156,164,208229,1,2,0:0:0:0:
232,96,208586,1,8,0:0:0:0:
256,192,208943,6,0,P|324:128|296:20,1,200,4|8,0:0|0:0,0:0:0:0:
232,96,210015,1,2,0:0:0:0:
156,164,210372,2,0,P|156:220|192:276,2,100,2|2|2,0:0|0:0|0:0,0:0:0:0:
232,96,211443,1,2,0:0:0:0:
256,192,213229,6,0,P|328:228|424:136,1,200,4|8,0:0|0:0,0:0:0:0:
328,128,214300,1,2,0:0:0:0:
232,100,214658,2,0,P|180:64|128:52,2,100,0|0|8,0:0|0:0|0:0,0:0:0:0:
328,128,215729,1,0,0:0:0:0:
418,166,216086,6,0,P|344:226|256:192,1,200,2|8,0:0|0:0,0:0:0:0:
328,128,217158,1,2,0:0:0:0:
412,72,217515,2,0,P|464:40|512:32,2,100,2|2|8,0:0|0:0|0:0,0:0:0:0:
328,128,218586,1,0,0:0:0:0:
240,176,218943,6,0,P|240:80|360:36,2,200,2|8|2,0:0|0:0|0:0,0:0:0:0:
328,228,220729,1,2,0:0:0:0:
328,128,221086,1,8,0:0:0:0:
240,176,221443,1,2,0:0:0:0:
244,276,221800,6,0,P|168:244|160:120,1,200,2|8,0:0|0:0,0:0:0:0:
240,176,222872,1,2,0:0:0:0:
328,228,223229,2,0,P|372:240|464:220,1,100,2|2,0:0|0:0,0:0:0:0:
428,136,223943,2,0,P|368:124|308:136,1,100,8|2,0:0|0:0,0:0:0:0:
240,176,224658,5,4,0:0:0:0:
152,220,225015,2,0,P|144:156|160:116,2,100,2|8|2,0:0|0:0|0:0,0:0:0:0:
236,276,226086,2,0,P|184:316|116:316,2,100,2|2|8,0:0|0:0|0:0,0:0:0:0:
240,176,227158,1,2,0:0:0:0:
264,80,227515,6,0,P|324:120|340:156,1,100,2|0,0:0|0:0,0:0:0:0:
320,240,228229,2,0,P|412:204|428:108,1,200,8|2,0:0|0:0,0:0:0:0:
336,144,229300,1,2,0:0:0:0:
240,176,229658,1,8,0:0:0:0:
264,80,230015,1,2,0:0:0:0:
168,108,230372,6,0,P|140:168|148:216,2,100,2|2|8,0:0|0:0|0:0,0:0:0:0:
240,176,231443,1,2,0:0:0:0:
220,272,231800,2,0,P|172:300|104:300,2,100,2|2|8,0:0|0:0|0:0,0:0:0:0:
316,244,232872,1,2,0:0:0:0:
384,172,233229,6,0,B|444:92|444:92|388:108|328:60,1,200,2|8,0:0|0:0,0:0:0:0:
256,40,234300,1,0,0:0:0:0:
163,74,234658,2,0,B|124:108|68:92|68:92|128:172,1,200,2|8,0:0|0:0,0:0:0:0:
180,256,235729,1,2,0:0:0:0:
256,320,236086,6,0,P|332:288|244:240,2,200,2|8|0,0:0|0:0|0:0,0:0:0:0:
180,256,237872,1,2,0:0:0:0:
196,156,238229,1,8,0:0:0:0:
292,132,238586,1,2,0:0:0:0:
388,100,238943,6,0,P|316:36|204:80,2,200,2|8|2,0:0|0:0|0:0,0:0:0:0:
292,132,240729,1,2,0:0:0:0:
196,156,241086,1,8,0:0:0:0:
124,88,241443,1,2,0:0:0:0:
28,120,241800,6,0,B|48:168|104:184|104:184|64:232|84:296,1,200,2|8,0:0|0:0,0:0:0:0:
176,256,242872,1,2,0:0:0:0:
276,236,243229,2,0,P|252:324|212:348,2,100,2|2|8,0:0|0:0|0:0,0:0:0:0:
176,256,244300,1,2,0:0:0:0:
212,164,244658,6,0,P|320:148|372:224,2,200,2|8|2,0:0|0:0|0:0,0:0:0:0:
176,256,246443,1,2,0:0:0:0:
276,236,246800,1,8,0:0:0:0:
372,212,247158,1,2,0:0:0:0:
440,288,247515,6,0,P|384:312|332:304,1,100,2|2,0:0|0:0,0:0:0:0:
372,212,248229,2,0,P|332:152|292:136,1,100,8|2,0:0|0:0,0:0:0:0:
276,236,248943,2,0,P|248:292|256:352,1,100,2|2,0:0|0:0,0:0:0:0:
348,308,249658,1,8,0:0:0:0:
276,236,250015,1,0,0:0:0:0:
204,164,250372,6,0,B|164:148|152:108|156:64|168:40|196:12|248:4|300:20|320:56|324:108|300:120|300:120|224:96,2,400,0|0|0,0:0|0:0|0:0,0:0:0:0:
256,192,270015,5,0,0:0:0:0:
208,104,270372,2,0,P|264:92|320:116,1,100
356,188,271086,2,0,P|416:204|460:196,2,100,0|0|0,0:0|0:0|0:0,0:0:0:0:
156,184,272515,1,0,0:0:0:0:
156,184,272872,1,0,0:0:0:0:
68,228,273229,6,0,P|120:276|164:284,1,100
240,244,273943,2,0,L|272:344,1,100
368,360,274658,2,0,L|308:160,1,200
276,76,275729,1,0,0:0:0:0:
180,56,276086,6,0,P|184:120|224:160,1,100
276,76,276800,1,0,0:0:0:0:
124,204,277515,2,0,P|144:260|188:292,1,100
256,344,278229,1,0,0:0:0:0:
256,344,278586,1,0,0:0:0:0:
340,288,278943,6,0,P|375:253|328:120,1,200
256,68,280015,1,0,0:0:0:0:
176,124,280372,2,0,P|132:148|72:148,2,100,0|0|0,0:0|0:0|0:0,0:0:0:0:
256,68,281443,1,0,0:0:0:0:
256,192,281800,12,0,285372,0:0:0:0:
