osu file format v13

[General]
AudioFilename: 11 an.mp3
AudioLeadIn: 0
PreviewTime: 65372
Countdown: 0
SampleSet: Soft
StackLeniency: 0.3
Mode: 0
LetterboxInBreaks: 1
WidescreenStoryboard: 1

[Editor]
DistanceSpacing: 1.2
BeatDivisor: 2
GridSize: 4
TimelineZoom: 1

[Metadata]
Title:an
TitleUnicode:an
Artist:DECO*27
ArtistUnicode:DECO*27
Creator:guineaQ
Version:Hard
Source:
Tags:DECO*27 Conti New Hatsune Miku
BeatmapID:509710
BeatmapSetID:215748

[Difficulty]
HPDrainRate:6
CircleSize:3.7
OverallDifficulty:6
ApproachRate:8
SliderMultiplier:1.5
SliderTickRate:1

[Events]
//Background and Video events
0,0,"mikuuuu.png",0,0
//Break Periods
2,92000,99622
2,185572,187836
2,189143,199622
2,253429,269265
//Storyboard Layer 0 (Background)
//Storyboard Layer 1 (Fail)
//Storyboard Layer 2 (Pass)
//Storyboard Layer 3 (Foreground)
//Storyboard Sound Samples
//Background Colour Transformations
3,100,163,162,255

[TimingPoints]
372.393620611558,357.142857142857,4,2,1,25,1,0
17515,-100,4,2,1,30,0,0
18943,-100,4,2,1,35,0,0
20372,-100,4,2,1,40,0,0
21800,-100,4,2,1,50,0,0
66086,-80,4,2,1,50,0,1
91800,-100,4,2,1,50,0,0
100372,-100,4,2,1,30,0,0
111800,-100,4,2,1,50,0,0
183229,-100,4,2,1,25,0,0
208943,-100,4,2,1,50,0,0
213229,-80,4,2,1,50,0,1
250372,-100,4,2,1,25,0,0
270372,-100,4,2,1,15,0,0
285372,-100,4,2,1,5,0,0

[Colours]
Combo1 : 203,232,245
Combo2 : 96,255,235
Combo3 : 79,163,255

[HitObjects]
64,72,372,6,0,P|144:120|200:104,1,150
356,28,1086,2,0,L|260:180,1,150
224,228,1622,1,0,0:0:0:0:
204,316,1800,6,0,P|284:296|312:228,1,150
224,228,2515,2,0,L|128:240,1,75
104,160,2872,2,0,L|200:148,1,75
268,148,3229,22,0,P|316:88|312:12,1,150
140,68,3943,2,0,L|280:156,1,150
340,200,4479,1,0,0:0:0:0:
380,280,4658,6,0,P|276:264|248:208,1,150
88,160,5372,2,0,L|88:260,1,75
172,196,5729,2,0,L|172:96,1,75
256,84,6086,22,0,L|256:272,1,150
432,204,6800,2,0,B|364:136|364:136|340:68,1,150
304,8,7336,1,0,0:0:0:0:
256,84,7515,6,0,P|172:124|80:88,1,150
172,288,8229,2,0,L|232:208,1,75
128,208,8586,2,0,L|72:284,1,75
172,288,8943,22,0,B|256:248|256:248|304:160,1,150
464,216,9658,2,0,L|320:216,1,75
352,132,10015,2,0,L|452:132,1,75
464,52,10372,6,0,L|264:52,1,150
136,52,11086,1,0,0:0:0:0:
224,208,11443,1,0,0:0:0:0:
312,52,11800,22,0,L|164:136,1,150
260,288,12515,2,0,P|312:224|308:180,1,75
224,208,12872,2,0,P|180:248|172:276,1,75
260,288,13229,6,0,P|328:308|384:240,1,150
344,80,13943,2,0,L|180:124,1,150
112,148,14479,1,0,0:0:0:0:
48,212,14658,22,0,P|112:240|192:196,1,150
112,148,15372,2,0,L|112:328,1,150
204,296,15908,1,0,0:0:0:0:
292,296,16086,6,0,L|472:296,1,150
444,116,16800,2,0,L|272:116,1,150
204,116,17336,1,0,0:0:0:0:
120,148,17515,22,0,P|208:204|264:184,2,150,0|0|0,0:0|0:0|0:0,0:0:0:0:
296,116,18586,1,0,0:0:0:0:
128,52,18943,2,0,P|44:88|24:140,2,150,0|0|0,0:0|0:0|0:0,0:0:0:0:
296,116,20015,1,0,0:0:0:0:
160,232,20372,6,0,B|136:304|136:304|216:340,1,150,2|2,0:0|0:0,0:0:0:0:
352,232,21086,2,0,B|376:304|376:304|296:340,1,150,8|8,0:0|0:0,0:0:0:0:
224,176,21800,2,0,B|256:108|256:108|292:188,2,150,8|8|8,0:0|0:0|0:0,0:0:0:0:
256,352,22872,1,2,0:0:0:0:
256,352,23229,1,4,0:0:0:0:
256,192,25372,5,8,0:0:0:0:
188,136,26086,6,0,P|256:108|332:144,1,150,4|0,0:0|0:0,0:0:0:0:
340,224,26622,1,0,0:0:0:0:
268,280,26800,2,0,P|300:304|388:300,2,75,8|0|0,0:0|0:0|0:0,0:0:0:0:
256,192,27336,1,0,0:0:0:0:
188,136,27515,6,0,P|216:72|268:112,1,150,2|0,0:0|0:0,0:0:0:0:
256,192,28050,1,0,0:0:0:0:
172,220,28229,2,0,P|108:172|104:104,1,150,8|0,0:0|0:0,0:0:0:0:
188,136,28765,1,0,0:0:0:0:
256,192,28943,22,0,L|156:316,1,150,2|0,0:0|0:0,0:0:0:0:
161,308,29479,1,0,0:0:0:0:
248,324,29658,2,0,L|328:224,1,75,8|0,0:0|0:0,0:0:0:0:
384,288,30015,2,0,L|332:352,1,75,0|2,0:0|0:0,0:0:0:0:
294,265,30372,6,0,L|408:124,1,150,2|2,0:0|0:0,0:0:0:0:
228,68,31086,2,0,P|244:148|312:184,1,150,8|0,0:0|0:0,0:0:0:0:
316,92,31622,1,0,0:0:0:0:
316,92,31800,21,2,0:0:0:0:
144,36,32158,1,2,0:0:0:0:
156,124,32336,1,0,0:0:0:0:
172,212,32515,2,0,P|84:176|68:108,1,150,8|0,0:0|0:0,0:0:0:0:
52,40,33050,1,0,0:0:0:0:
52,40,33229,6,0,P|96:112|176:120,1,150,2|2,0:0|0:0,0:0:0:0:
332,92,33943,1,8,0:0:0:0:
152,296,34479,1,0,0:0:0:0:
152,296,34658,22,0,L|96:352,2,75,0|0|0,0:0|0:0|0:0,0:0:0:0:
276,164,35372,2,0,P|356:180|416:128,1,150,8|0,0:0|0:0,0:0:0:0:
332,92,35908,1,0,0:0:0:0:
332,92,36086,6,0,P|260:76|188:136,1,150
168,292,36800,1,8,0:0:0:0:
344,292,37158,1,8,0:0:0:0:
344,292,37336,1,0,0:0:0:0:
344,292,37515,22,0,P|388:328|424:260,2,150,4|0|8,0:0|0:0|0:0,0:0:0:0:
360,204,38408,1,0,0:0:0:0:
444,176,38586,2,0,P|392:124|372:120,1,75
304,136,38943,6,0,P|332:56|404:36,1,150,2|2,0:0|0:0,0:0:0:0:
392,124,39479,1,0,0:0:0:0:
304,136,39658,2,0,P|236:208|136:148,1,225,8|0,0:0|0:0,0:0:0:0:
96,76,40372,22,0,P|192:84|224:152,1,150
136,156,40908,2,0,L|44:196,2,75,0|8|0,0:0|0:0|0:0,0:0:0:0:
220,120,41443,1,0,0:0:0:0:
208,208,41622,1,2,0:0:0:0:
256,284,41800,5,2,0:0:0:0:
396,172,42158,1,2,0:0:0:0:
272,44,42515,2,0,P|232:96|228:156,2,75,8|0|0,0:0|0:0|0:0,0:0:0:0:
316,124,43050,1,0,0:0:0:0:
316,124,43229,22,0,P|256:192|172:176,2,150,0|0|8,0:0|0:0|0:0,0:0:0:0:
228,104,44122,1,0,0:0:0:0:
140,124,44300,1,0,0:0:0:0:
228,280,44658,6,0,L|388:312,1,150,2|2,0:0|0:0,0:0:0:0:
236,196,45372,2,0,P|160:228|144:308,1,150,8|0,0:0|0:0,0:0:0:0:
228,280,45908,1,0,0:0:0:0:
308,244,46086,22,0,P|316:160|248:108,2,150,0|0|8,0:0|0:0|0:0,0:0:0:0:
44,192,47336,1,2,0:0:0:0:
44,192,47515,6,0,L|208:192,1,150,8|0,0:0|0:0,0:0:0:0:
368,240,48229,2,0,P|316:284|216:260,1,150,8|2,0:0|0:0,0:0:0:0:
192,104,48943,22,0,P|264:136|276:224,2,150,4|2|8,0:0|0:0|0:0,0:0:0:0:
240,280,50015,1,0,0:0:0:0:
116,148,50372,6,0,P|184:192|268:152,2,150,0|2|8,0:0|0:0|0:0,0:0:0:0:
288,100,51443,1,2,0:0:0:0:
452,176,51800,22,0,P|392:248|316:280,1,150,2|0,0:0|0:0,0:0:0:0:
288,100,52515,2,0,P|236:52|228:108,1,150,8|0,0:0|0:0,0:0:0:0:
169,273,53229,6,0,P|104:235|60:176,1,150,2|0,0:0|0:0,0:0:0:0:
44,88,53765,1,8,0:0:0:0:
44,88,53943,2,0,P|100:96|148:176,1,150,8|2,0:0|0:0,0:0:0:0:
256,316,54658,22,0,L|388:216,1,150
324,52,55372,2,0,P|280:132|316:200,1,150,8|0,0:0|0:0,0:0:0:0:
472,228,56086,6,0,P|408:136|348:136,1,150,2|2,0:0|0:0,0:0:0:0:
288,136,56622,1,8,0:0:0:0:
228,200,56800,2,0,P|208:104|256:52,1,150,8|2,0:0|0:0,0:0:0:0:
360,192,57515,22,0,P|256:220|264:52,1,300,4|0,0:0|0:0,0:0:0:0:
360,192,58586,1,0,0:0:0:0:
256,340,58943,5,0,0:0:0:0:
156,192,59300,1,0,0:0:0:0:
256,44,59658,1,2,0:0:0:0:
256,224,60015,1,8,0:0:0:0:
256,192,60372,12,0,64658,0:0:0:0:
120,88,66086,6,0,P|232:76|332:128,1,187.5,4|0,0:0|0:0,0:0:0:0:
460,204,66800,2,0,P|368:236|288:172,1,187.5,8|0,0:0|0:0,0:0:0:0:
400,36,67515,6,0,P|452:96|364:132,1,187.5
300,192,68050,2,0,L|204:252,2,93.75,0|8|0,0:0|0:0|0:0,0:0:0:0:
292,100,68586,2,0,L|104:212,1,187.5,0|2,0:0|0:0,0:0:0:0:
292,296,69300,6,0,L|464:192,1,187.5,2|8,0:0|0:0,0:0:0:0:
292,100,70015,1,2,0:0:0:0:
132,196,70372,6,0,P|196:268|296:296,1,187.5,0|2,0:0|0:0,0:0:0:0:
356,240,70908,2,0,L|440:172,2,93.75,0|8|0,0:0|0:0|0:0,0:0:0:0:
280,296,71443,2,0,P|184:336|216:256,1,187.5,2|4,0:0|0:0,0:0:0:0:
244,120,72158,6,0,L|212:236,1,93.75
312,192,72515,2,0,B|328:144|328:144|336:112|336:60|280:32|240:32,1,187.5,8|0,0:0|0:0,0:0:0:0:
176,56,73050,1,0,0:0:0:0:
152,148,73229,6,0,P|88:88|84:56,1,93.75,2|0,0:0|0:0,0:0:0:0:
176,56,73586,1,2,0:0:0:0:
220,212,73765,1,0,0:0:0:0:
336,100,73943,1,8,0:0:0:0:
196,302,74300,2,0,P|242:301|284:280,1,93.75
220,212,74658,6,0,P|124:240|104:324,1,187.5,2|0,0:0|0:0,0:0:0:0:
284,280,75372,2,0,B|276:252|276:252|296:216|296:216|228:184|232:96,1,187.5,8|0,0:0|0:0,0:0:0:0:
412,64,76086,6,0,P|404:148|320:116,2,187.5,0|0|0,0:0|0:0|0:0,0:0:0:0:
232,8,77158,1,8,0:0:0:0:
172,152,77336,1,8,0:0:0:0:
172,152,77515,6,0,P|80:144|108:100,1,187.5
216,252,78229,2,0,P|112:288|20:272,1,187.5,8|0,0:0|0:0,0:0:0:0:
172,152,78943,6,0,P|264:104|372:120,1,187.5,2|0,0:0|0:0,0:0:0:0:
436,140,79479,1,0,0:0:0:0:
500,208,79658,2,0,P|392:212|376:188,1,93.75,8|0,0:0|0:0,0:0:0:0:
324,204,80015,2,0,P|332:268|352:328,1,93.75
432,320,80372,6,0,B|376:335|376:335|304:332|304:332|224:348,1,187.5,2|0,0:0|0:0,0:0:0:0:
64,316,81086,2,0,P|44:204|136:144,1,187.5,8|0,0:0|0:0,0:0:0:0:
272,188,81800,6,0,P|204:260|96:212,1,187.5,2|2,0:0|0:0,0:0:0:0:
180,168,82336,1,0,0:0:0:0:
244,100,82515,2,0,P|292:96|348:136,2,93.75,8|0|0,0:0|0:0|0:0,0:0:0:0:
124,244,83229,5,2,0:0:0:0:
192,348,83408,1,0,0:0:0:0:
296,276,83586,2,0,L|360:196,1,93.75
448,212,83943,2,0,L|380:296,2,93.75,8|0|0,0:0|0:0|0:0,0:0:0:0:
408,128,84479,1,0,0:0:0:0:
316,120,84658,6,0,P|352:56|392:40,2,93.75,0|0|0,0:0|0:0|0:0,0:0:0:0:
408,128,85193,1,0,0:0:0:0:
408,128,85372,2,0,L|212:172,1,187.5,8|0,0:0|0:0,0:0:0:0:
164,348,86086,6,0,L|376:296,1,187.5,2|0,0:0|0:0,0:0:0:0:
376,120,86800,2,0,P|340:32|304:80,1,187.5,8|0,0:0|0:0,0:0:0:0:
136,120,87515,6,0,P|172:32|208:80,1,187.5,2|0,0:0|0:0,0:0:0:0:
164,248,88229,1,8,0:0:0:0:
352,248,88586,1,0,0:0:0:0:
256,192,88943,12,0,91800,0:0:0:0:
116,80,100372,5,4,0:0:0:0:
228,224,100729,2,0,P|256:180|248:132,1,75,2|0,0:0|0:0,0:0:0:0:
164,156,101086,2,0,L|60:156,2,75,0|0|0,0:0|0:0|0:0,0:0:0:0:
256,156,101622,1,0,0:0:0:0:
344,156,101800,6,0,L|436:156,1,75,2|0,0:0|0:0,0:0:0:0:
508,156,102158,1,2,0:0:0:0:
480,240,102336,2,0,P|420:152|500:68,1,225
508,156,103050,1,0,0:0:0:0:
480,240,103229,22,0,P|444:308|344:320,1,150,2|2,0:0|0:0,0:0:0:0:
392,240,103765,2,0,P|320:232|216:184,1,150
160,192,104300,6,0,P|208:124|312:140,2,150,0|2|2,0:0|0:0|0:0,0:0:0:0:
248,204,106086,21,2,0:0:0:0:
416,144,106443,2,0,L|356:228,1,75,2|0,0:0|0:0,0:0:0:0:
312,272,106800,2,0,P|228:296|164:248,1,150
160,180,107336,1,0,0:0:0:0:
224,116,107515,6,0,P|120:100|84:132,1,150,2|2,0:0|0:0,0:0:0:0:
248,204,108765,1,0,0:0:0:0:
248,204,108943,22,0,L|328:124,1,75
364,88,109300,1,2,0:0:0:0:
388,176,109479,1,0,0:0:0:0:
300,152,109658,2,0,P|276:116|276:76,2,75,0|0|0,0:0|0:0|0:0,0:0:0:0:
388,176,110193,1,0,0:0:0:0:
456,232,110372,6,0,P|376:264|316:232,1,150,2|2,0:0|0:0,0:0:0:0:
164,152,111086,1,8,0:0:0:0:
168,332,111443,1,8,0:0:0:0:
168,332,111622,1,8,0:0:0:0:
228,268,111800,22,0,P|152:244|80:336,1,150,4|0,0:0|0:0,0:0:0:0:
168,332,112336,1,0,0:0:0:0:
256,352,112515,2,0,P|312:296|316:244,1,75,8|0,0:0|0:0,0:0:0:0:
376,244,112872,2,0,L|272:204,1,75,0|0,0:0|0:0,0:0:0:0:
300,128,113229,6,0,L|464:188,1,150,2|2,0:0|0:0,0:0:0:0:
440,179,113765,1,0,0:0:0:0:
464,268,113943,1,8,0:0:0:0:
216,160,114479,1,0,0:0:0:0:
216,160,114658,22,0,P|212:104|244:56,1,75,2|0,0:0|0:0,0:0:0:0:
300,128,115015,2,0,L|300:216,1,75
256,280,115372,2,0,L|256:364,1,75,8|0,0:0|0:0,0:0:0:0:
176,312,115729,2,0,L|176:220,2,75,0|2|2,0:0|0:0|0:0,0:0:0:0:
332,220,116443,5,0,0:0:0:0:
476,112,116800,1,8,0:0:0:0:
508,196,116979,1,0,0:0:0:0:
404,276,117158,1,0,0:0:0:0:
420,188,117336,1,0,0:0:0:0:
364,116,117515,22,0,P|284:64|208:64,1,150
256,240,118229,2,0,P|296:180|236:148,1,150,8|0,0:0|0:0,0:0:0:0:
264,324,118943,6,0,P|332:300|380:216,1,150,2|2,0:0|0:0,0:0:0:0:
220,148,119658,2,0,P|132:176|88:240,1,150,8|0,0:0|0:0,0:0:0:0:
128,304,120193,1,0,0:0:0:0:
184,232,120372,22,0,L|88:80,1,150
284,92,121086,2,0,L|360:232,1,150,8|0,0:0|0:0,0:0:0:0:
400,300,121622,1,0,0:0:0:0:
400,300,121800,6,0,P|464:324|468:244,2,150,2|2|8,0:0|0:0|0:0,0:0:0:0:
280,164,122872,2,0,L|224:244,1,75,2|0,0:0|0:0,0:0:0:0:
148,212,123229,22,0,P|176:132|264:72,1,150,4|0,0:0|0:0,0:0:0:0:
380,180,123943,2,0,P|336:264|264:312,1,150,8|0,0:0|0:0,0:0:0:0:
112,292,124658,6,8,P|68:244|88:148,2,150,2|8|8,0:0|0:0|0:0,0:0:0:0:
292,296,125729,1,2,0:0:0:0:
256,120,126086,22,0,P|176:164|144:220,1,150,2|0,0:0|0:0,0:0:0:0:
328,216,126800,2,0,P|404:172|444:100,1,150,8|0,0:0|0:0,0:0:0:0:
256,120,127515,6,0,P|224:176|212:280,1,150
292,296,128050,1,8,0:0:0:0:
220,348,128229,1,8,0:0:0:0:
184,172,128586,1,2,0:0:0:0:
348,104,128943,22,0,P|304:196|248:208,1,150,2|0,0:0|0:0,0:0:0:0:
124,96,129658,2,0,P|204:80|260:120,1,150,8|0,0:0|0:0,0:0:0:0:
416,208,130372,6,0,L|236:208,1,150
184,172,130908,1,8,0:0:0:0:
192,260,131086,1,8,0:0:0:0:
368,288,131443,1,2,0:0:0:0:
464,136,131800,22,0,P|472:48|328:112,1,300,4|0,0:0|0:0,0:0:0:0:
280,260,132872,1,0,0:0:0:0:
148,136,133229,5,0,0:0:0:0:
324,172,133586,1,0,0:0:0:0:
156,236,133943,1,0,0:0:0:0:
252,84,134300,1,0,0:0:0:0:
256,192,134658,12,0,138943,0:0:0:0:
176,284,139658,5,0,0:0:0:0:
176,284,140372,2,0,B|136:236|133:187|144:148|164:96|188:60|220:48|284:28|328:32|372:36|412:56|432:80|464:120|472:168|480:208|468:240|460:276|436:304|420:368|352:368|304:356|264:351|252:324|220:304|176:228|176:200|184:160|192:132|240:112|280:104|328:104|364:120|378:149|384:168|376:204|380:244|352:252|316:252|272:220|304:176,2,1200,0|0|0,0:0|0:0|0:0,0:0:0:0:
296,188,146800,1,8,0:0:0:0:
204,164,147515,6,0,P|264:100|336:104,1,150,2|0,0:0|0:0,0:0:0:0:
228,252,148229,2,0,B|184:276|184:276|80:276,2,150,8|0|2,0:0|0:0|0:0,0:0:0:0:
384,164,149300,6,0,P|356:256|288:276,1,150,2|8,0:0|0:0,0:0:0:0:
140,228,150015,1,0,0:0:0:0:
272,104,150372,22,0,P|340:48|420:52,2,150,2|2|8,0:0|0:0|0:0,0:0:0:0:
312,276,151443,1,0,0:0:0:0:
140,228,151800,6,0,P|132:168|216:204,1,150,4|2,0:0|0:0,0:0:0:0:
200,344,152515,1,8,0:0:0:0:
112,312,153229,22,0,P|52:240|72:168,2,150,2|2|8,0:0|0:0|0:0,0:0:0:0:
288,348,154300,1,2,0:0:0:0:
268,168,154658,6,0,P|176:188|148:248,1,150
332,236,155372,2,0,P|360:160|324:96,1,150,8|0,0:0|0:0,0:0:0:0:
240,256,156086,22,0,P|296:320|380:316,1,150,2|0,0:0|0:0,0:0:0:0:
272,168,156800,2,0,L|144:264,1,150,8|0,0:0|0:0,0:0:0:0:
332,236,157515,6,0,L|300:72,1,150,2|0,0:0|0:0,0:0:0:0:
240,256,158229,2,0,L|408:304,1,150,8|0,0:0|0:0,0:0:0:0:
208,340,158943,22,0,L|28:292,1,150
56,120,159658,2,0,B|124:80|124:80|172:176,1,150,8|0,0:0|0:0,0:0:0:0:
332,184,160372,6,0,B|300:120|300:120|232:168,1,150
372,284,161086,2,0,P|432:216|436:140,1,150,8|0,0:0|0:0,0:0:0:0:
296,52,161800,22,0,P|292:144|336:184,1,150,2|2,0:0|0:0,0:0:0:0:
216,332,162515,2,0,P|220:240|176:200,1,150,8|2,0:0|0:0,0:0:0:0:
92,208,163050,1,8,0:0:0:0:
144,284,163229,5,8,0:0:0:0:
368,100,163586,1,8,0:0:0:0:
144,100,164658,21,8,0:0:0:0:
368,284,165015,1,8,0:0:0:0:
160,192,166086,5,8,0:0:0:0:
352,192,166443,1,8,0:0:0:0:
204,264,167515,21,8,0:0:0:0:
308,120,167872,1,8,0:0:0:0:
288,288,168943,5,8,0:0:0:0:
224,96,169300,1,8,0:0:0:0:
352,232,170372,21,8,0:0:0:0:
160,152,170729,1,8,0:0:0:0:
256,192,171800,5,4,0:0:0:0:
256,192,172515,1,2,0:0:0:0:
132,320,172872,1,0,0:0:0:0:
308,352,173229,22,0,P|392:300|416:228,2,150,2|2|2,0:0|0:0|0:0,0:0:0:0:
172,232,174300,1,0,0:0:0:0:
332,148,174658,5,8,0:0:0:0:
180,148,175015,1,8,0:0:0:0:
364,228,176086,21,8,0:0:0:0:
148,228,176443,1,8,0:0:0:0:
188,304,177515,6,0,B|256:332|256:332|344:296,1,150,4|0,0:0|0:0,0:0:0:0:
256,136,178229,2,0,L|256:296,1,150
168,128,178943,22,0,P|212:56|288:52,2,150,0|0|0,0:0|0:0|0:0,0:0:0:0:
348,128,180015,1,8,0:0:0:0:
308,304,180372,6,0,P|220:312|316:244,2,300,0|8|0,0:0|0:0|0:0,0:0:0:0:
376,192,182515,21,8,0:0:0:0:
256,56,182872,1,0,0:0:0:0:
136,192,183229,5,0,0:0:0:0:
256,328,183943,1,0,0:0:0:0:
256,56,184658,21,0,0:0:0:0:
256,192,185372,1,0,0:0:0:0:
256,192,188586,21,8,0:0:0:0:
256,192,188765,1,8,0:0:0:0:
256,192,188943,1,4,0:0:0:0:
188,140,200372,6,0,P|268:88|352:136,1,150,4|0,0:0|0:0,0:0:0:0:
196,236,201086,1,0,0:0:0:0:
368,176,201443,1,0,0:0:0:0:
196,236,201800,6,0,P|116:204|88:136,1,150,2|2,0:0|0:0,0:0:0:0:
132,68,202336,1,0,0:0:0:0:
188,140,202515,2,0,L|80:272,1,150
268,288,203229,22,0,L|384:160,1,150,2|0,0:0|0:0,0:0:0:0:
188,140,203943,2,0,P|148:204|216:232,1,150
176,56,204658,6,0,P|96:96|56:164,1,150,2|2,0:0|0:0,0:0:0:0:
60,236,205193,1,0,0:0:0:0:
60,236,205372,2,0,P|108:308|140:324,1,75
184,324,205729,1,0,0:0:0:0:
256,160,206086,21,2,0:0:0:0:
256,160,206265,1,0,0:0:0:0:
292,240,206443,2,0,P|248:248|216:236,1,75
164,168,206800,2,0,L|120:248,2,75,0|0|0,0:0|0:0|0:0,0:0:0:0:
200,84,207336,1,0,0:0:0:0:
200,84,207515,6,0,L|96:84,2,75,2|0|0,0:0|0:0|0:0,0:0:0:0:
288,84,208050,1,0,0:0:0:0:
344,152,208229,1,2,0:0:0:0:
256,308,208586,1,8,0:0:0:0:
168,152,208943,21,4,0:0:0:0:
344,248,209658,1,8,0:0:0:0:
168,248,210015,1,0,0:0:0:0:
256,92,210372,5,2,0:0:0:0:
256,136,210729,1,2,0:0:0:0:
256,180,211086,1,2,0:0:0:0:
256,228,211443,1,2,0:0:0:0:
248,192,213229,6,0,P|320:104|300:44,1,187.5
224,100,213765,1,0,0:0:0:0:
248,192,213943,2,0,L|408:232,1,93.75,8|0,0:0|0:0,0:0:0:0:
368,304,214300,2,0,L|160:252,1,187.5,0|2,0:0|0:0,0:0:0:0:
96,232,214836,5,0,0:0:0:0:
48,152,215015,2,0,P|112:140|160:160,1,93.75
96,232,215372,2,0,L|8:320,2,93.75,8|0|0,0:0|0:0|0:0,0:0:0:0:
224,100,216086,6,0,P|348:88|412:116,1,187.5,2|0,0:0|0:0,0:0:0:0:
444,196,216622,1,0,0:0:0:0:
400,276,216800,2,0,P|336:188|320:88,1,187.5,8|0,0:0|0:0,0:0:0:0:
140,60,217515,6,0,P|152:156|240:192,2,187.5,2|0|8,0:0|0:0|0:0,0:0:0:0:
224,100,218408,1,0,0:0:0:0:
228,192,218586,1,2,0:0:0:0:
388,288,218943,6,0,P|484:240|488:120,1,187.5,2|0,0:0|0:0,0:0:0:0:
460,84,219479,1,0,0:0:0:0:
372,120,219658,2,0,P|344:216|412:304,1,187.5,8|0,0:0|0:0,0:0:0:0:
456,348,220193,1,0,0:0:0:0:
456,348,220372,6,0,L|264:308,1,187.5,2|2,0:0|0:0,0:0:0:0:
180,284,220908,1,0,0:0:0:0:
180,284,221086,1,8,0:0:0:0:
256,112,221443,1,0,0:0:0:0:
104,220,221800,6,0,P|64:120|92:28,1,187.5,2|0,0:0|0:0,0:0:0:0:
256,112,222515,2,0,L|176:296,1,187.5,8|0,0:0|0:0,0:0:0:0:
181,283,223050,1,0,0:0:0:0:
248,352,223229,6,0,P|344:312|364:256,1,93.75,2|0,0:0|0:0,0:0:0:0:
376,240,223586,2,0,P|460:184|492:184,1,93.75,2|0,0:0|0:0,0:0:0:0:
424,96,223943,2,0,L|292:48,1,93.75,8|0,0:0|0:0,0:0:0:0:
252,104,224300,2,0,P|300:152|332:196,1,93.75,2|0,0:0|0:0,0:0:0:0:
284,260,224658,6,0,P|192:176|148:72,1,187.5,4|2,0:0|0:0,0:0:0:0:
336,188,225372,2,0,P|368:296|308:352,1,187.5,8|0,0:0|0:0,0:0:0:0:
156,264,226086,6,0,P|212:164|260:92,1,187.5
328,48,226622,1,0,0:0:0:0:
416,80,226800,2,0,P|376:120|292:132,1,93.75,8|0,0:0|0:0,0:0:0:0:
252,104,227158,2,0,P|140:68|84:120,1,187.5,0|2,0:0|0:0,0:0:0:0:
96,292,227872,6,0,P|172:232|156:120,1,187.5,2|8,0:0|0:0,0:0:0:0:
212,332,228586,1,0,0:0:0:0:
88,192,228943,6,0,L|304:212,1,187.5,2|2,0:0|0:0,0:0:0:0:
368,220,229479,2,0,L|424:296,2,93.75,0|8|0,0:0|0:0|0:0,0:0:0:0:
328,136,230015,2,0,P|372:72|416:140,1,187.5,2|2,0:0|0:0,0:0:0:0:
368,220,230550,5,0,0:0:0:0:
300,284,230729,1,0,0:0:0:0:
216,328,230908,1,0,0:0:0:0:
224,236,231086,1,8,0:0:0:0:
260,148,231265,2,0,P|284:104|320:44,2,93.75,0|0|0,0:0|0:0|0:0,0:0:0:0:
168,164,231800,5,0,0:0:0:0:
224,236,231979,1,0,0:0:0:0:
132,248,232158,1,0,0:0:0:0:
224,236,232336,2,0,P|280:240|336:204,2,93.75,0|8|0,0:0|0:0|0:0,0:0:0:0:
260,148,232872,1,0,0:0:0:0:
76,176,233229,6,0,P|116:88|216:84,1,187.5,2|0,0:0|0:0,0:0:0:0:
132,248,233943,1,8,0:0:0:0:
300,332,234300,1,2,0:0:0:0:
352,152,234658,6,0,P|392:72|320:84,1,187.5,2|0,0:0|0:0,0:0:0:0:
160,152,235372,2,0,P|120:72|192:84,1,187.5,8|0,0:0|0:0,0:0:0:0:
256,244,236086,5,4,0:0:0:0:
256,244,236443,1,2,0:0:0:0:
444,232,236800,2,0,P|416:304|284:264,1,187.5,8|0,0:0|0:0,0:0:0:0:
68,232,237515,6,0,P|96:304|228:264,1,187.5,2|0,0:0|0:0,0:0:0:0:
304,156,238229,2,0,B|284:100|256:76|256:76|228:100|208:168,1,187.5,8|0,0:0|0:0,0:0:0:0:
256,340,238943,5,2,0:0:0:0:
256,340,239300,1,2,0:0:0:0:
376,196,239658,2,0,P|384:88|304:44,1,187.5,8|0,0:0|0:0,0:0:0:0:
136,196,240372,6,0,P|128:88|208:44,1,187.5,2|0,0:0|0:0,0:0:0:0:
220,232,241086,2,0,P|136:288|48:236,1,187.5,8|0,0:0|0:0,0:0:0:0:
208,136,241800,6,0,P|296:180|128:280,2,375,0|8|0,0:0|0:0|0:0,0:0:0:0:
72,268,243586,5,0,0:0:0:0:
208,136,243943,1,8,0:0:0:0:
264,316,244300,1,0,0:0:0:0:
412,196,244658,6,0,P|496:128|356:152,2,375,2|8|2,0:0|0:0|0:0,0:0:0:0:
264,316,246443,5,0,0:0:0:0:
208,136,246800,1,8,0:0:0:0:
72,268,247158,1,0,0:0:0:0:
252,216,247515,6,0,B|352:196|416:152|352:120|352:120|288:160|352:196|472:220,1,375,2|8,0:0|0:0,0:0:0:0:
252,216,248586,1,0,0:0:0:0:
448,216,248943,5,2,0:0:0:0:
348,60,249300,1,0,0:0:0:0:
252,216,249658,1,8,0:0:0:0:
148,60,250015,1,0,0:0:0:0:
56,216,250372,6,0,B|40:312|88:364|164:376|208:360|264:312|268:260|248:180|188:160|108:168|108:168|152:264,2,600,0|0|0,0:0|0:0|0:0,0:0:0:0:
256,192,270015,5,0,0:0:0:0:
320,248,270372,2,0,P|376:284|480:300,1,150
476,216,271086,2,0,P|396:172|324:168,1,150
256,192,271800,6,0,P|156:216|252:136,1,300,0|0,0:0|0:0,0:0:0:0:
312,80,272872,1,0,0:0:0:0:
344,164,273229,6,0,P|336:248|280:288,1,150
208,316,273943,2,0,L|396:348,1,150
436,268,274658,6,0,B|368:248|368:248|220:232|220:232|108:212,1,300
44,200,275729,1,0,0:0:0:0:
84,276,276086,6,0,P|128:196|88:124,2,150,0|0|0,0:0|0:0|0:0,0:0:0:0:
256,88,277515,5,0,0:0:0:0:
436,192,278229,2,0,P|360:264|296:288,1,150
220,256,278943,6,0,P|288:168|476:100,1,300
436,192,280015,1,0,0:0:0:0:
408,272,280372,5,0,0:0:0:0:
320,280,280729,1,0,0:0:0:0:
356,204,281086,1,0,0:0:0:0:
436,192,281443,1,0,0:0:0:0:
256,192,281800,12,0,285372,0:0:0:0:
