osu file format v12

[General]
AudioFilename: DECO_27-YUME YUME (Feat. Hatsune Miku) [myfreemp3.eu].mp3
AudioLeadIn: 0
PreviewTime: 54259
Countdown: 0
SampleSet: Normal
StackLeniency: 0.7
Mode: 0
LetterboxInBreaks: 1
WidescreenStoryboard: 1

[Editor]
DistanceSpacing: 1
BeatDivisor: 2
GridSize: 8
TimelineZoom: 1

[Metadata]
Title:YUME YUME
TitleUnicode:YUME YUME
Artist:DECO*27
ArtistUnicode:DECO*27
Creator:WinglessAsura
Version:Normal
Source:
Tags:hatsune miku yume yume deco 27 winglessasura
BeatmapID:413017
BeatmapSetID:170633

[Difficulty]
HPDrainRate:3
CircleSize:3
OverallDifficulty:3
ApproachRate:4
SliderMultiplier:1.2
SliderTickRate:1

[Events]
//Background and Video events
0,0,"yumeyume.JPG",0,0
//Break Periods
//Storyboard Layer 0 (Background)
//Storyboard Layer 1 (Fail)
//Storyboard Layer 2 (Pass)
//Storyboard Layer 3 (Foreground)
//Storyboard Sound Samples
//Background Colour Transformations
3,100,163,162,255

[TimingPoints]
485,375,4,1,0,70,1,0
12447,-100,4,3,0,70,0,0
48447,-100,4,1,0,50,0,0
54447,-100,4,1,0,75,0,1
66072,-100,4,1,0,60,0,0
79759,-100,4,1,0,40,0,0
121947,-100,4,3,0,40,0,1
122322,-100,4,1,0,60,0,1
135822,-100,4,3,0,40,0,0
136600,-100,4,1,0,40,0,0
145975,-133.333333333333,4,3,0,50,0,0
160947,-100,4,1,0,50,0,0
212697,-100,4,2,0,5,0,0

[Colours]
Combo1 : 172,240,15
Combo2 : 13,236,152
Combo3 : 18,124,255
Combo4 : 250,73,29
Combo5 : 128,0,128
Combo6 : 166,166,0

[HitObjects]
56,48,485,6,0,P|128:56|160:88,1,120
64,152,1235,1,0,0:0:0:0:
144,240,1610,1,0,0:0:0:0:
104,344,1985,2,0,P|192:344|232:296,1,120
296,240,2735,1,0,0:0:0:0:
296,120,3110,1,0,0:0:0:0:
192,64,3485,2,0,P|120:48|72:72,1,120
144,168,4235,5,0,0:0:0:0:
104,280,4610,2,0,P|176:280|224:216,1,120
256,144,5360,1,0,0:0:0:0:
344,64,5735,2,0,P|376:136|360:184,1,120
296,272,6485,1,4,0:0:0:0:
176,288,6860,2,0,P|104:224|96:176,1,120
104,88,7610,1,0,0:0:0:0:
216,48,7985,6,0,L|264:168,1,120
376,72,8735,2,0,L|424:192,1,120
312,256,9485,2,0,L|360:376,1,120
240,328,10235,2,0,L|168:168,1,120
72,208,10985,1,0,0:0:0:0:
88,88,11360,1,0,0:0:0:0:
200,48,11735,2,0,L|240:80,6,30
248,88,12485,5,0,0:0:0:0:
296,200,12860,2,0,P|272:280|232:296,1,120
128,312,13610,2,0,B|96:256|40:272|32:232,1,120
56,120,14360,1,0,0:0:0:0:
152,48,14735,2,0,P|224:56|248:96,1,120
256,152,15297,2,0,L|256:232,4,60
256,88,16235,2,0,P|192:56|136:64,1,120
48,176,16985,5,0,0:0:0:0:
72,240,17172,2,0,P|112:296|216:312,1,180
336,248,18110,1,0,0:0:0:0:
312,120,18485,2,0,P|256:72|248:72,4,60
184,96,19610,1,0,0:0:0:0:
72,168,19985,2,0,P|48:248|72:288,1,120
176,320,20735,1,0,0:0:0:0:
296,296,21110,5,0,0:0:0:0:
328,240,21297,2,0,L|328:176,1,60
328,112,21672,2,0,P|288:64|184:96,1,180
248,192,22610,1,0,0:0:0:0:
168,280,22985,2,0,P|232:312|368:216,1,240
336,112,24110,1,0,0:0:0:0:
200,80,24485,2,0,L|128:112,1,60
96,152,24860,6,0,P|56:216|64:280,1,120
184,296,25610,1,0,0:0:0:0:
312,304,25985,2,0,L|400:200,1,120
352,88,26735,2,0,L|232:64,1,120
104,48,27485,2,0,L|136:128,1,60
96,160,27860,2,0,P|56:208|64:280,1,120
176,240,28610,1,0,0:0:0:0:
296,240,28985,6,0,L|352:192,1,60
360,144,29360,2,0,L|344:64,1,60
296,56,29735,2,0,P|224:24|176:24,1,120
56,120,30485,1,0,0:0:0:0:
80,248,30860,2,0,P|136:304|176:320,1,120
288,256,31610,1,0,0:0:0:0:
288,256,31985,1,0,0:0:0:0:
304,128,32360,6,0,P|240:144|184:112,1,120
80,56,33110,2,0,P|64:136|88:184,1,120
128,296,33860,1,0,0:0:0:0:
128,296,34235,1,0,0:0:0:0:
256,280,34610,1,0,0:0:0:0:
256,280,34985,2,0,L|320:256,1,60
352,208,35360,2,0,L|360:136,1,60
320,96,35735,5,0,0:0:0:0:
192,88,36110,1,0,0:0:0:0:
256,192,36485,12,0,38360,0:0:0:0:
72,72,38735,5,0,0:0:0:0:
96,192,39110,2,0,L|64:248,1,60
112,288,39485,2,0,P|184:328|224:304,1,120
320,240,40235,1,0,0:0:0:0:
320,112,40610,1,0,0:0:0:0:
208,40,40985,2,0,L|136:80,1,60
56,160,41547,1,0,0:0:0:0:
192,304,42110,5,0,0:0:0:0:
304,264,42485,2,0,P|352:208|312:128,1,120
224,176,43235,1,0,0:0:0:0:
128,104,43610,1,0,0:0:0:0:
8,104,43985,2,0,L|8:168,1,60
24,224,44360,2,0,P|96:256|144:240,1,120
248,280,45110,2,0,P|256:216|192:168,1,120
168,152,45672,5,0,0:0:0:0:
128,176,45860,2,0,P|88:216|128:288,1,120
200,336,46610,1,0,0:0:0:0:
320,304,46985,2,0,L|368:256,1,60
400,216,47360,2,0,P|400:128|352:88,1,120
288,176,48110,1,0,0:0:0:0:
192,104,48485,1,4,0:0:0:0:
160,152,48672,5,0,0:0:0:0:
56,272,49047,1,4,0:0:0:0:
96,224,49235,1,0,0:0:0:0:
168,320,49610,1,0,0:0:0:0:
280,272,49985,2,4,L|344:248,2,60
296,152,50735,1,0,0:0:0:0:
232,48,51110,2,0,P|152:24|96:56,1,120
80,152,51860,5,0,0:0:0:0:
120,280,52235,1,0,0:0:0:0:
248,320,52610,1,0,0:0:0:0:
376,280,52985,1,0,0:0:0:0:
360,152,53360,2,0,L|256:72,2,120
304,272,54485,2,0,P|208:312|176:304,1,120
112,208,55235,1,0,0:0:0:0:
152,96,55610,6,0,P|216:72|272:88,1,120
376,160,56360,1,0,0:0:0:0:
264,232,56735,1,0,0:0:0:0:
160,296,57110,1,0,0:0:0:0:
120,256,57297,2,0,L|120:192,1,60
136,80,57860,1,0,0:0:0:0:
168,0,58235,2,0,P|232:40|240:104,1,120
192,184,58985,5,0,0:0:0:0:
104,272,59360,2,0,P|168:312|224:296,1,120
312,240,60110,1,4,0:0:0:0:
296,184,60297,2,0,L|272:128,1,60
192,40,60860,1,0,0:0:0:0:
96,112,61235,2,0,P|128:176|112:240,1,120
200,312,61985,1,0,0:0:0:0:
296,240,62360,6,0,L|296:104,1,120
184,88,63110,1,0,0:0:0:0:
144,128,63297,2,0,L|104:176,1,60
32,272,63860,2,0,P|80:312|136:336,1,120
248,264,64610,1,0,0:0:0:0:
336,168,64985,2,0,P|328:96|280:64,1,120
208,152,65735,1,0,0:0:0:0:
88,136,66110,6,0,P|72:192|152:248,1,120
208,280,66860,1,0,0:0:0:0:
400,232,67422,2,0,L|368:160,1,60
336,120,67797,1,0,0:0:0:0:
288,72,67985,2,0,P|216:40|176:64,1,120
40,272,69110,2,0,P|96:320|152:312,1,120
240,288,69860,1,0,0:0:0:0:
472,168,70610,5,0,0:0:0:0:
432,112,70797,2,0,P|376:64|264:72,1,180
152,112,71735,1,0,0:0:0:0:
56,200,72110,2,0,L|88:264,1,60
128,304,72485,2,0,P|200:328|248:304,1,120
416,232,73422,2,0,L|400:160,1,60
360,128,73797,2,0,P|312:88|240:64,1,120
192,56,74360,5,0,0:0:0:0:
136,88,74547,1,0,0:0:0:0:
64,272,75110,1,0,0:0:0:0:
120,312,75297,2,0,P|176:336|240:312,1,120
288,296,75860,2,0,P|344:264|376:208,1,120
328,80,76610,1,0,0:0:0:0:
264,72,76797,2,0,P|184:96|160:192,1,180
256,192,77547,12,0,79235,0:0:0:0:
64,80,79797,5,0,0:0:0:0:
64,144,79985,2,0,P|72:216|112:248,1,120
240,224,80735,1,0,0:0:0:0:
312,112,81110,2,0,P|360:56|416:56,1,120
384,184,81860,1,0,0:0:0:0:
344,312,82235,2,0,P|264:328|208:320,1,120
104,272,82985,2,0,L|72:216,1,60
72,152,83360,6,0,L|128:96,1,60
176,88,83735,2,0,L|240:80,1,60
304,80,84110,1,0,0:0:0:0:
432,120,84485,2,0,L|432:200,1,60
416,240,84860,2,0,L|376:296,1,60
328,320,85235,2,0,L|248:320,1,60
208,296,85610,1,0,0:0:0:0:
104,216,85985,6,0,P|96:128|128:104,1,120
240,72,86735,1,0,0:0:0:0:
368,88,87110,2,0,P|376:160|328:224,1,120
264,272,87860,2,0,P|192:296|144:272,1,120
56,208,88610,1,0,0:0:0:0:
168,32,88985,1,0,0:0:0:0:
96,128,89360,1,0,0:0:0:0:
152,232,89735,6,0,P|208:272|368:224,1,240
384,152,90860,1,0,0:0:0:0:
312,40,91235,2,0,L|240:24,1,60
192,56,91610,1,0,0:0:0:0:
136,88,91797,2,0,L|88:136,1,60
96,264,92360,2,0,P|120:336|168:352,1,120
288,320,93110,1,0,0:0:0:0:
400,248,93485,6,0,P|408:168|376:112,1,120
280,56,94235,2,0,P|208:72|176:112,1,120
104,216,94985,1,0,0:0:0:0:
144,272,95172,1,0,0:0:0:0:
200,304,95360,1,0,0:0:0:0:
328,288,95735,2,0,P|392:232|400:192,1,120
336,88,96485,1,0,0:0:0:0:
272,104,96672,5,0,0:0:0:0:
224,152,96860,1,0,0:0:0:0:
120,240,97235,2,0,P|88:184|88:120,1,120
192,56,97985,1,0,0:0:0:0:
248,88,98172,2,0,P|288:152|288:208,1,120
280,264,98735,2,0,L|216:320,1,60
112,264,99297,1,0,0:0:0:0:
56,144,99672,5,0,0:0:0:0:
152,56,100047,1,0,0:0:0:0:
280,96,100422,2,0,P|336:160|344:200,1,120
328,248,100985,2,0,P|280:312|176:296,1,180
80,256,101922,1,0,0:0:0:0:
72,136,102297,2,0,P|104:80|192:72,1,120
192,176,103047,1,0,0:0:0:0:
272,264,103422,6,0,P|320:208|272:96,1,180
0,96,105110,2,0,L|32:168,1,60
136,296,105672,2,0,L|216:320,3,60
408,184,106985,2,0,P|344:104|200:112,1,240
96,152,108110,1,0,0:0:0:0:
64,280,108485,2,0,P|128:312|184:304,1,120
296,264,109235,1,0,0:0:0:0:
312,64,109797,5,0,0:0:0:0:
248,88,109985,2,0,P|184:136|176:184,1,120
168,304,110735,1,0,0:0:0:0:
296,296,111110,2,0,P|352:232|360:184,1,120
296,88,111860,2,0,L|240:56,1,60
176,64,112235,1,0,0:0:0:0:
48,216,112797,2,0,P|96:272|144:288,1,120
272,304,113547,5,0,0:0:0:0:
368,216,113922,1,0,0:0:0:0:
320,96,114297,2,0,L|264:40,1,60
216,40,114672,2,0,P|136:64|120:96,1,120
48,200,115422,1,0,0:0:0:0:
152,288,115797,1,0,0:0:0:0:
216,304,115985,2,0,P|280:264|296:224,1,120
272,96,116735,5,0,0:0:0:0:
144,56,117110,2,0,P|80:112|80:160,1,120
88,272,117860,2,0,L|216:288,1,120
328,224,118610,2,0,L|240:136|240:136,1,120
120,104,119360,1,0,0:0:0:0:
40,208,119735,2,0,L|120:304,1,120
360,224,120860,2,0,L|272:112,2,120
248,296,121985,5,0,0:0:0:0:
120,288,122360,2,0,P|72:224|88:168,1,120
96,56,123110,1,0,0:0:0:0:
224,48,123485,2,0,P|280:96|288:144,1,120
160,160,124235,2,0,P|136:216|152:272,1,120
200,320,124797,1,0,0:0:0:0:
264,296,124985,2,0,P|328:272|336:224,1,120
304,96,125735,5,0,0:0:0:0:
176,88,126110,2,0,P|120:112|104:176,1,120
72,296,126860,1,0,0:0:0:0:
200,328,127235,2,0,P|256:288|320:280,1,120
440,280,127985,2,0,L|440:208,1,60
432,152,128360,2,0,P|392:72|368:56,1,120
240,80,129110,1,0,0:0:0:0:
112,80,129485,6,0,P|96:144|112:208,1,120
96,328,130235,1,0,0:0:0:0:
216,272,130610,2,0,P|280:232|320:240,1,120
424,328,131360,1,0,0:0:0:0:
384,200,131735,2,0,P|360:112|336:80,1,120
216,104,132485,1,0,0:0:0:0:
112,176,132860,1,0,0:0:0:0:
112,304,133235,5,0,0:0:0:0:
240,304,133610,2,0,L|296:304,4,30
112,304,134360,1,0,0:0:0:0:
40,120,134922,2,0,L|104:80,1,60
160,88,135297,2,0,P|232:80|288:112,1,120
336,128,135860,1,0,0:0:0:0:
168,328,136610,1,0,0:0:0:0:
128,280,136797,6,0,L|64:104,1,180
66,110,137547,1,0,0:0:0:0:
160,24,138110,2,0,P|216:80|232:144,1,120
200,176,138672,1,0,0:0:0:0:
176,240,138860,2,0,P|232:288|304:288,1,120
400,248,139610,2,0,L|392:184,1,60
344,144,139985,2,0,L|304:88,1,60
240,88,140360,5,0,0:0:0:0:
40,96,140922,2,0,L|40:168,1,60
64,216,141297,1,0,0:0:0:0:
168,296,141672,1,0,0:0:0:0:
224,328,141860,2,0,P|312:336|344:296,1,120
432,152,142610,2,0,P|344:128|208:184,1,240
88,144,143735,1,0,0:0:0:0:
96,16,144110,6,0,P|208:88|208:144,1,180
192,184,144860,1,0,0:0:0:0:
176,248,145047,1,0,0:0:0:0:
424,264,145985,2,0,P|424:176|352:104,1,180.000006866455
272,88,147110,1,0,0:0:0:0:
176,112,147485,2,0,L|96:168,1,90.0000034332277
48,248,148235,2,0,L|72:336,1,90.0000034332277
168,328,148985,6,0,P|248:328|312:240,1,180.000006866455
328,152,150110,1,0,0:0:0:0:
248,96,150485,2,0,P|168:72|152:80,1,90.0000034332277
80,128,151235,1,0,0:0:0:0:
48,224,151610,2,0,P|80:280|104:288,1,90.0000034332277
200,288,152360,1,0,0:0:0:0:
296,256,152735,2,0,P|336:208|304:96,1,180.000006866455
224,56,153860,5,0,0:0:0:0:
128,88,154235,2,0,P|72:136|72:152,1,90.0000034332277
56,240,154985,1,0,0:0:0:0:
112,320,155360,2,0,P|160:344|208:336,1,90.0000034332277
240,320,155922,1,0,0:0:0:0:
280,296,156110,2,0,P|320:256|328:224,1,90.0000034332277
304,128,156860,1,0,0:0:0:0:
216,88,157235,5,0,0:0:0:0:
120,120,157610,1,0,0:0:0:0:
256,192,157985,12,0,160610,0:0:0:0:
48,248,160985,6,0,L|104:304|104:304,1,60
288,296,161735,2,0,P|328:240|328:176,1,120
272,72,162485,1,0,0:0:0:0:
272,72,162672,1,0,0:0:0:0:
8,104,163422,1,0,0:0:0:0:
32,168,163610,2,0,P|48:224|104:272,1,120
91,265,164172,1,0,0:0:0:0:
296,272,164922,6,0,L|352:224,1,60
344,168,165297,2,0,P|352:104|304:40,1,120
64,48,166422,1,0,0:0:0:0:
64,112,166610,1,0,0:0:0:0:
64,272,166985,1,0,0:0:0:0:
64,208,167172,1,0,0:0:0:0:
296,88,167922,2,0,P|368:128|384:224,1,180
344,272,168672,5,0,0:0:0:0:
80,312,169422,2,0,L|40:248,1,60
16,200,169797,2,0,L|32:120,1,60
32,72,170360,1,0,0:0:0:0:
160,64,170735,1,0,0:0:0:0:
288,88,171110,1,0,0:0:0:0:
280,216,171485,1,0,0:0:0:0:
240,272,171672,6,0,L|208:312,6,30
280,144,172610,1,0,0:0:0:0:
176,64,172985,2,0,P|120:136|80:144,1,120
40,264,173735,2,0,P|88:312|152:320,1,120
256,264,174485,1,0,0:0:0:0:
376,200,174860,2,0,P|376:128|352:64,1,120
232,80,175610,1,0,0:0:0:0:
176,112,175797,6,0,L|128:160,1,60
64,264,176360,1,0,0:0:0:0:
192,304,176735,2,0,P|256:296|312:248,1,120
272,200,177297,1,0,0:0:0:0:
224,160,177485,2,0,P|288:128|344:128,1,120
448,56,178235,1,0,0:0:0:0:
320,72,178610,2,0,L|240:72,1,60
208,112,178985,6,0,P|128:184|128:200,1,120
112,320,179735,1,0,0:0:0:0:
240,328,180110,1,0,0:0:0:0:
336,232,180485,1,0,0:0:0:0:
264,120,180860,1,0,0:0:0:0:
136,128,181235,1,0,0:0:0:0:
56,224,181610,1,0,0:0:0:0:
120,248,181797,6,0,L|120:320,1,60
248,328,182360,1,0,0:0:0:0:
360,264,182735,2,0,P|368:192|352:136,1,120
240,80,183485,1,0,0:0:0:0:
120,128,183860,2,0,P|104:192|128:248,1,120
248,280,184610,2,0,L|328:288,1,60
352,240,184985,2,0,L|376:176,1,60
320,64,185360,5,0,0:0:0:0:
120,72,185922,1,0,0:0:0:0:
72,112,186110,2,0,P|40:184|40:240,1,120
136,312,186860,1,0,0:0:0:0:
400,280,187610,1,0,0:0:0:0:
416,216,187797,1,0,0:0:0:0:
400,152,187985,2,0,P|336:120|288:136,1,120
184,208,188735,6,0,P|112:184|96:144,1,120
128,24,189485,1,0,0:0:0:0:
256,64,189860,2,0,P|296:112|304:176,1,120
216,264,190610,2,0,L|136:280,1,60
96,264,190985,1,0,0:0:0:0:
64,136,191360,1,0,0:0:0:0:
200,40,191735,1,0,0:0:0:0:
248,88,191922,6,0,L|288:152,1,60
248,200,192297,2,0,P|240:272|336:304,1,180
448,256,193235,1,0,0:0:0:0:
352,168,193610,2,0,P|288:112|232:112,1,120
128,136,194360,1,0,0:0:0:0:
64,248,194735,2,0,P|120:296|176:320,1,120
296,304,195485,2,0,P|336:248|336:184,1,120
240,112,196235,5,0,0:0:0:0:
184,80,196422,2,0,L|104:64,1,60
40,168,196985,1,0,0:0:0:0:
64,296,197360,1,0,0:0:0:0:
192,328,197735,2,0,P|272:320|320:288,1,120
328,168,198485,1,0,0:0:0:0:
304,104,198672,1,0,0:0:0:0:
256,64,198860,5,0,0:0:0:0:
128,80,199235,1,0,0:0:0:0:
40,176,199610,2,0,P|64:232|120:264,1,120
144,200,200172,1,0,0:0:0:0:
208,184,200360,2,0,P|248:240|248:304,1,120
384,264,201110,1,0,0:0:0:0:
360,136,201485,2,0,P|320:80|272:72,1,120
216,96,202047,5,0,0:0:0:0:
168,144,202235,2,0,P|104:176|32:160,1,120
24,296,202985,2,0,L|96:320,1,60
144,344,203360,2,0,P|208:328|256:272,1,120
208,168,204110,1,0,0:0:0:0:
200,40,204485,2,0,P|280:32|328:48,1,120
376,160,205235,1,0,0:0:0:0:
320,280,205610,5,0,0:0:0:0:
192,304,205985,2,0,L|128:272,1,60
96,224,206360,2,0,P|72:112|80:96,1,120
96,64,207110,2,0,L|168:48,1,60
224,64,207485,1,0,0:0:0:0:
336,136,207860,1,0,0:0:0:0:
272,240,208235,1,0,0:0:0:0:
144,288,208610,6,0,L|72:296,1,60
256,192,208985,12,0,214422,0:0:0:0:
