osu file format v14

[General]
AudioFilename: Streaming Heart.mp3
AudioLeadIn: 500
PreviewTime: 57205
Countdown: 0
SampleSet: Soft
StackLeniency: 0.5
Mode: 0
LetterboxInBreaks: 0
WidescreenStoryboard: 0

[Editor]
DistanceSpacing: 1
BeatDivisor: 4
GridSize: 4
TimelineZoom: 3.099998

[Metadata]
Title:Streaming Heart feat. Hatsune Miku
TitleUnicode:ストリーミングハート feat. 初音ミク
Artist:DECO*27
ArtistUnicode:DECO*27
Creator:Tsumetaku
Version:Normal
Source:
Tags:Hatsune Miku Vocaloid Deco27 kous gagame ががめ YumaSaito Conti New TT_Mouse leon1341414 Xinchii bbj0920 val0108
BeatmapID:479803
BeatmapSetID:160126

[Difficulty]
HPDrainRate:4
CircleSize:3.5
OverallDifficulty:4
ApproachRate:5
SliderMultiplier:1
SliderTickRate:1

[Events]
//Background and Video events
0,0,"42404124.jpg",0,0
Video,0,"Streaming Heart.avi"
//Break Periods
2,10547,28576
2,77976,83423
2,103119,109709
//Storyboard Layer 0 (Background)
//Storyboard Layer 1 (Fail)
//Storyboard Layer 2 (Pass)
//Storyboard Layer 3 (Foreground)
//Storyboard Sound Samples

[TimingPoints]
1205,285.714285714286,4,2,2,70,1,0
10347,-100,4,2,3,70,0,0
28633,-100,4,2,3,70,0,0
29776,-100,4,2,2,65,0,0
37205,-100,4,2,1,70,0,0
38919,-100,4,2,1,70,0,0
48062,-100,4,2,2,70,0,0
56633,-100,4,2,1,70,0,0
57205,-100,4,2,1,80,0,1
75490,-100,4,2,1,60,0,0
84633,-100,4,2,4,60,0,0
92633,-100,4,2,2,65,0,0
93776,-100,4,2,1,70,0,0
102919,-100,4,2,2,70,0,0
111776,-100,4,2,1,70,0,0
120633,-100,4,2,1,70,0,0
121205,-100,4,2,2,70,0,0
131205,-100,4,2,2,70,0,0
131490,-100,4,2,1,80,0,1
149776,-100,4,2,1,80,0,0
150062,-100,4,2,1,80,0,1
168062,-100,4,2,1,70,0,0

[Colours]
Combo1 : 210,176,74
Combo2 : 31,197,164
Combo3 : 205,71,105
Combo4 : 46,170,231

[HitObjects]
56,56,1205,6,0,P|56:108|80:152,1,100,4|0,0:0|0:0,0:0:0:0:
180,188,1776,1,2,0:0:0:0:
171,80,2062,2,0,P|235:92|284:164,1,150,0|0,0:0|0:0,0:0:0:0:
268,268,2776,1,2,0:0:0:0:
376,284,3062,2,0,P|404:244|408:188,1,100
380,148,3490,6,0,L|464:92,1,100,0|0,0:0|0:0,0:0:0:0:
508,196,4062,1,2,0:0:0:0:
468,300,4347,2,0,P|392:316|340:364,1,150,0|0,0:0|0:0,0:0:0:0:
228,356,5062,1,2,0:0:0:0:
124,320,5347,2,0,L|68:236,1,100
112,204,5776,6,0,P|139:161|143:113,1,100
36,124,6347,1,2,0:0:0:0:
94,32,6633,2,0,P|162:20|226:68,1,150,0|0,0:0|0:0,0:0:0:0:
228,176,7347,1,2,0:0:0:0:
192,284,7633,2,0,P|152:312|98:320,1,100
56,292,8062,1,0,0:0:0:0:
52,184,8347,2,0,L|20:140,2,50,0|0|2,0:0|0:0|0:0,0:0:0:0:
152,140,8919,5,0,0:0:0:0:
172,92,9062,2,0,P|217:74|265:81,1,100,2|0,0:0|0:0,0:0:0:0:
320,180,9633,2,0,L|391:199,1,50,2|8,0:0|0:0,0:0:0:0:
319,292,10062,2,0,L|361:323,2,50,0|0|4,0:0|0:0|0:0,0:0:0:0:
88,292,29776,6,0,P|120:252|120:200,1,100,4|0,0:0|0:0,0:0:0:0:
72,108,30347,1,8,0:0:0:0:
172,56,30633,2,0,P|254:61|302:108,2,150,0|2|8,0:0|0:0|0:0,0:0:0:0:
204,160,31776,1,0,0:0:0:0:
280,240,32062,6,0,P|329:240|372:216,1,100
432,124,32633,1,8,0:0:0:0:
424,16,32919,2,0,P|356:44|324:112,2,150,0|2|8,0:0|0:0|0:0,0:0:0:0:
512,84,34062,1,0,0:0:0:0:
496,192,34347,5,0,0:0:0:0:
408,256,34633,2,0,P|358:259|312:240,1,100,0|8,0:0|0:0,0:0:0:0:
208,276,35205,2,0,P|172:212|88:186,2,150,0|2|8,0:0|0:0|0:0,0:0:0:0:
252,176,36347,2,0,L|228:76,1,100,0|0,0:0|0:0,0:0:0:0:
124,40,36919,5,0,0:0:0:0:
16,64,37205,2,0,P|4:112|12:164,1,100,8|0,0:0|0:0,0:0:0:0:
112,200,37776,1,0,0:0:0:0:
32,276,38062,1,8,0:0:0:0:
112,352,38347,2,0,L|211:360,1,100,0|8,0:0|0:0,0:0:0:0:
320,332,38919,5,4,0:0:0:0:
408,264,39205,2,0,P|416:216|396:168,2,100,8|0|8,0:0|0:0|0:0,0:0:0:0:
305,229,40062,2,0,P|267:197|264:136,1,100,2|8,0:0|0:0,0:0:0:0:
308,124,40490,2,0,L|272:28,1,100,2|0,0:0|0:0,0:0:0:0:
164,52,41062,2,0,P|123:79|107:125,1,100,2|0,0:0|0:0,0:0:0:0:
132,176,41490,6,0,P|93:207|45:219,2,100,8|0|8,0:0|0:0|0:0,0:0:0:0:
240,164,42347,2,0,P|296:220|300:256,1,100,2|8,0:0|0:0,0:0:0:0:
252,268,42776,2,0,L|224:368,1,100,2|0,0:0|0:0,0:0:0:0:
336,372,43347,2,0,P|383:359|421:327,1,100,2|0,0:0|0:0,0:0:0:0:
400,276,43776,6,0,B|388:228|388:228|420:184,2,100,8|0|8,0:0|0:0|0:0,0:0:0:0:
300,228,44633,2,0,P|285:180|316:128,1,100,2|8,0:0|0:0,0:0:0:0:
360,124,45062,2,0,P|368:76|344:20,1,100,2|0,0:0|0:0,0:0:0:0:
240,40,45633,2,0,L|155:107,1,100,2|0,0:0|0:0,0:0:0:0:
120,136,46062,6,0,P|80:100|32:96,2,100,8|0|8,0:0|0:0|0:0,0:0:0:0:
92,244,46919,2,0,P|120:316|152:336,1,100,2|8,0:0|0:0,0:0:0:0:
184,336,47347,1,2,0:0:0:0:
292,332,47633,2,0,P|320:281|360:268,1,100,0|2,0:0|0:0,0:0:0:0:
392,224,48062,6,0,B|395:169|355:133|355:133|383:93,2,150,4|8|8,0:0|0:0|0:0,0:0:0:0:
284,212,49205,2,0,P|231:150|235:70,1,150,2|8,0:0|0:0,0:0:0:0:
252,32,49776,2,0,L|352:16,1,100,0|8,0:0|0:0,0:0:0:0:
456,44,50347,6,0,B|476:72|464:116|464:116|480:96|496:144|500:172,2,150,2|8|8,0:0|0:0|0:0,0:0:0:0:
356,84,51490,1,2,0:0:0:0:
400,184,51776,1,8,0:0:0:0:
372,292,52062,2,0,P|324:304|272:296,1,100,0|8,0:0|0:0,0:0:0:0:
200,212,52633,6,0,P|256:172|271:80,2,150,2|8|8,0:0|0:0|0:0,0:0:0:0:
92,236,53776,2,0,P|64:194|61:145,1,100,0|8,0:0|0:0,0:0:0:0:
128,56,54347,2,0,P|168:32|220:28,1,100,0|8,0:0|0:0,0:0:0:0:
324,72,54919,6,0,L|316:171,1,100,2|0,0:0|0:0,0:0:0:0:
408,232,55490,2,0,L|415:132,1,100,8|0,0:0|0:0,0:0:0:0:
460,36,56062,2,0,P|504:76|520:116,2,100,2|0|8,0:0|0:0|0:0,0:0:0:0:
256,116,57205,6,0,B|256:149|256:149|278:166|278:166|256:206|283:250,2,150,4|0|8,0:0|0:0|0:0,0:0:0:0:
192,28,58347,2,0,P|148:52|121:98,1,100,2|8,0:0|0:0,0:0:0:0:
152,140,58776,2,0,P|112:208|44:216,1,150,0|8,0:0|0:0,0:0:0:0:
0,316,59490,5,2,0:0:0:0:
92,380,59776,1,8,0:0:0:0:
196,340,60062,2,0,P|224:304|224:244,1,100,0|8,0:0|0:0,0:0:0:0:
208,200,60490,2,0,P|276:184|348:220,1,150,0|8,0:0|0:0,0:0:0:0:
388,320,61205,2,0,L|448:240,1,100,2|8,0:0|0:0,0:0:0:0:
464,132,61776,6,0,B|416:84|444:92|444:92|448:72|448:72|416:64|420:16,2,150,2|0|8,0:0|0:0|0:0,0:0:0:0:
392,216,62919,2,0,P|356:188|327:139,1,100,2|8,0:0|0:0,0:0:0:0:
276,132,63347,2,0,P|232:188|236:280,1,150,0|8,0:0|0:0,0:0:0:0:
120,280,64062,1,2,0:0:0:0:
32,216,64347,1,8,0:0:0:0:
52,108,64633,6,0,P|104:112|148:96,1,100,2|8,0:0|0:0,0:0:0:0:
184,52,65062,2,0,P|252:56|236:120,1,150,0|8,0:0|0:0,0:0:0:0:
184,216,65776,2,0,P|188:268|228:308,1,100,2|8,0:0|0:0,0:0:0:0:
328,304,66347,6,0,L|424:276,1,100,4|8,0:0|0:0,0:0:0:0:
460,236,66776,2,0,P|468:148|428:92,1,150,0|8,0:0|0:0,0:0:0:0:
328,80,67490,2,0,L|300:28,1,50,2|0,0:0|0:0,0:0:0:0:
192,40,67919,1,0,0:0:0:0:
192,40,68205,2,0,L|216:88,1,50,0|8,0:0|0:0,0:0:0:0:
112,120,68633,6,0,P|134:163|178:187,1,100,2|8,0:0|0:0,0:0:0:0:
192,240,69062,2,0,P|116:304|56:296,1,150,0|8,0:0|0:0,0:0:0:0:
16,208,69776,2,0,L|16:156,1,50,2|0,0:0|0:0,0:0:0:0:
84,68,70205,1,0,0:0:0:0:
84,68,70490,2,0,L|132:53,1,50,0|8,0:0|0:0,0:0:0:0:
216,124,70919,6,0,P|252:116|300:60,1,100,2|8,0:0|0:0,0:0:0:0:
332,32,71347,2,0,P|400:48|448:128,1,150,0|10,0:0|0:0,0:0:0:0:
420,220,72062,2,0,L|376:188,1,50,2|0,0:0|0:0,0:0:0:0:
352,300,72490,1,0,0:0:0:0:
352,300,72776,2,0,L|396:332,1,50,0|8,0:0|0:0,0:0:0:0:
288,364,73205,6,0,P|265:324|268:265,1,100,2|8,0:0|0:0,0:0:0:0:
276,216,73633,2,0,B|232:164|176:176|176:176|132:168,1,150,0|10,0:0|0:0,0:0:0:0:
128,64,74347,2,0,L|176:44,1,50,2|0,0:0|0:0,0:0:0:0:
276,88,74776,2,0,P|320:96|376:72,2,100,0|8|2,0:0|0:0|0:0,0:0:0:0:
248,40,75490,5,4,0:0:0:0:
256,192,75633,12,0,77776,0:0:0:0:
180,160,84633,5,4,0:0:0:0:
68,156,84919,2,0,L|12:164,2,50,8|2|0,0:0|0:0|0:0,0:0:0:0:
68,268,85490,1,8,0:0:0:0:
148,348,85776,2,0,P|196:336|220:268,1,100,2|8,0:0|0:0,0:0:0:0:
220,240,86205,2,0,L|372:208,1,150,2|8,0:0|0:0,0:0:0:0:
452,276,86919,6,0,P|476:232|468:176,1,100,2|8,0:0|0:0,0:0:0:0:
432,148,87348,2,0,L|432:98,1,50,2|0,0:0|0:0,0:0:0:0:
328,68,87776,2,0,P|297:30|245:11,2,100,8|2|8,0:0|0:0|0:0,0:0:0:0:
292,108,88490,2,0,P|253:164|260:244,1,150,2|8,0:0|0:0,0:0:0:0:
352,304,89205,5,2,0:0:0:0:
452,256,89490,2,0,L|484:300,2,50,8|2|0,0:0|0:0|0:0,0:0:0:0:
360,196,90062,1,8,0:0:0:0:
260,244,90347,2,0,P|212:252|156:240,1,100,2|8,0:0|0:0,0:0:0:0:
128,200,90776,2,0,P|144:268|108:336,1,150,2|8,0:0|0:0,0:0:0:0:
28,260,91490,6,0,L|48:152,1,100,2|8,0:0|0:0,0:0:0:0:
80,116,91919,2,0,L|68:68,1,50,2|0,0:0|0:0,0:0:0:0:
168,20,92347,1,8,0:0:0:0:
240,104,92633,5,4,0:0:0:0:
212,212,92919,2,0,L|185:254,2,50,8|0|0,0:0|0:0|0:0,0:0:0:0:
268,204,93347,2,0,P|308:236|329:282,1,100,2|0,0:0|0:0,0:0:0:0:
348,332,93776,6,0,L|448:304,1,100,4|8,0:0|0:0,0:0:0:0:
432,196,94347,2,0,P|392:164|371:118,1,100,0|8,0:0|0:0,0:0:0:0:
436,32,94919,2,0,P|360:12|296:40,1,150,2|0,0:0|0:0,0:0:0:0:
280,148,95633,1,10,0:0:0:0:
280,148,95919,2,0,P|228:164|176:152,1,100,2|0,0:0|0:0,0:0:0:0:
136,128,96347,6,0,P|88:148|56:192,2,100,8|0|8,0:0|0:0|0:0,0:0:0:0:
156,236,97204,2,0,P|192:276|252:280,1,100,2|8,0:0|0:0,0:0:0:0:
284,256,97633,2,0,L|388:240,1,100,2|0,0:0|0:0,0:0:0:0:
328,148,98204,2,0,L|404:84,1,100,2|0,0:0|0:0,0:0:0:0:
420,32,98633,6,0,P|368:9|324:11,2,100,8|0|8,0:0|0:0|0:0,0:0:0:0:
484,120,99490,2,0,P|448:184|456:224,1,100,2|8,0:0|0:0,0:0:0:0:
492,244,99919,2,0,P|504:296|488:348,1,100,2|0,0:0|0:0,0:0:0:0:
380,336,100490,2,0,P|328:328|296:296,1,100,2|0,0:0|0:0,0:0:0:0:
260,256,100919,6,0,P|216:276|188:324,2,100,8|0|8,0:0|0:0|0:0,0:0:0:0:
371,251,101776,2,0,P|343:183|308:160,1,100,2|8,0:0|0:0,0:0:0:0:
273,146,102205,1,2,0:0:0:0:
176,188,102490,2,0,L|184:88,1,100,8|2,0:0|0:0,0:0:0:0:
188,32,102919,5,4,0:0:0:0:
0,152,111062,5,2,0:0:0:0:
108,140,111347,2,0,B|120:188|120:188|104:228|104:228|120:284,1,150,8|0,0:0|0:0,0:0:0:0:
220,328,112062,6,0,P|288:332|348:280,1,150,4|0,0:0|0:0,0:0:0:0:
328,228,112633,2,0,L|408:160,1,100,8|0,0:0|0:0,0:0:0:0:
492,228,113205,2,0,L|468:272,2,50,2|0|0,0:0|0:0|0:0,0:0:0:0:
504,120,113776,1,8,0:0:0:0:
420,48,114062,1,0,0:0:0:0:
312,28,114347,6,0,P|244:124|275:160,1,150,2|0,0:0|0:0,0:0:0:0:
260,188,114919,2,0,L|160:220,1,100,8|0,0:0|0:0,0:0:0:0:
104,308,115490,2,0,L|56:340,2,50,2|0|0,0:0|0:0|0:0,0:0:0:0:
48,212,116061,2,0,P|32:168|72:84,1,100,8|0,0:0|0:0,0:0:0:0:
152,120,116633,6,0,P|224:100|280:32,1,150,2|0,0:0|0:0,0:0:0:0:
328,56,117204,2,0,L|348:156,1,100,8|0,0:0|0:0,0:0:0:0:
444,208,117776,2,0,L|496:168,2,50,2|0|0,0:0|0:0|0:0,0:0:0:0:
424,316,118347,1,8,0:0:0:0:
320,356,118633,1,0,0:0:0:0:
256,268,118919,6,0,P|176:276|120:336,1,150,2|0,0:0|0:0,0:0:0:0:
72,328,119490,2,0,L|19:242,1,100,8|0,0:0|0:0,0:0:0:0:
72,148,120062,2,0,L|76:96,2,50,2|0|0,0:0|0:0|0:0,0:0:0:0:
176,124,120633,2,0,B|216:104|248:124|248:124|268:92|312:92,1,150,8|0,0:0|0:0,0:0:0:0:
352,128,121205,6,0,P|404:176|396:252,2,150,4|8|8,0:0|0:0|0:0,0:0:0:0:
300,224,122348,2,0,P|279:269|277:318,1,100,2|0,0:0|0:0,0:0:0:0:
168,320,122919,2,0,P|166:270|145:225,1,100,8|0,0:0|0:0,0:0:0:0:
96,128,123490,2,0,P|44:176|52:252,2,150,2|8|8,0:0|0:0|0:0,0:0:0:0:
204,156,124633,2,0,L|216:56,1,100,2|0,0:0|0:0,0:0:0:0:
328,52,125205,1,8,0:0:0:0:
352,160,125490,1,0,0:0:0:0:
340,268,125776,6,0,B|287:254|261:212|261:212|234:218|221:254,2,150,2|8|8,0:0|0:0|0:0,0:0:0:0:
440,220,126919,1,2,0:0:0:0:
408,116,127205,1,0,0:0:0:0:
336,40,127490,1,8,0:0:0:0:
228,28,127776,1,0,0:0:0:0:
124,64,128062,6,0,L|149:160,1,100,2|0,0:0|0:0,0:0:0:0:
72,240,128633,2,0,L|47:144,1,100,8|0,0:0|0:0,0:0:0:0:
124,64,129205,2,0,P|164:88|228:88,2,100,2|0|8,0:0|0:0|0:0,0:0:0:0:
124,64,131205,5,8,0:0:0:0:
112,172,131490,6,0,B|148:196|144:236|144:236|180:228|212:260,2,150,4|0|8,0:0|0:0|0:0,0:0:0:0:
220,148,132633,2,0,P|244:104|242:50,1,100,2|8,0:0|0:0,0:0:0:0:
292,28,133062,2,0,P|360:72|376:136,1,150,0|8,0:0|0:0,0:0:0:0:
296,212,133776,5,2,0:0:0:0:
396,256,134062,1,8,0:0:0:0:
484,192,134347,2,0,L|484:92,1,100,2|8,0:0|0:0,0:0:0:0:
436,60,134776,2,0,P|364:44|300:84,1,150,0|8,0:0|0:0,0:0:0:0:
252,180,135490,1,2,0:0:0:0:
144,160,135776,1,8,0:0:0:0:
100,60,136062,6,0,B|136:40|176:32|188:82|232:72|228:24,2,150,2|0|8,0:0|0:0|0:0,0:0:0:0:
24,140,137205,2,0,P|20:192|44:240,1,100,2|8,0:0|0:0,0:0:0:0:
96,228,137633,2,0,P|160:252|184:324,1,150,0|8,0:0|0:0,0:0:0:0:
292,352,138347,5,2,0:0:0:0:
396,308,138633,1,8,0:0:0:0:
376,200,138919,1,2,0:0:0:0:
452,120,139205,2,0,L|424:78,1,50,8|2,0:0|0:0,0:0:0:0:
452,120,140633,6,0,B|428:81|428:81|388:88|388:88|367:63|331:61,2,150,4|0|8,0:0|0:0|0:0,0:0:0:0:
364,188,141776,2,0,P|364:236|384:284,1,100,2|8,0:0|0:0,0:0:0:0:
404,336,142205,2,0,P|332:308|252:328,1,150,0|8,0:0|0:0,0:0:0:0:
156,344,142919,5,2,0:0:0:0:
52,304,143205,1,8,0:0:0:0:
128,224,143490,2,0,P|116:176|80:136,1,100,2|8,0:0|0:0,0:0:0:0:
44,100,143919,2,0,P|112:88|168:32,1,150,0|8,0:0|0:0,0:0:0:0:
276,60,144633,1,2,0:0:0:0:
340,148,144919,1,8,0:0:0:0:
312,256,145205,6,0,P|355:308|436:324,2,150,2|0|8,0:0|0:0|0:0,0:0:0:0:
414,215,146347,1,2,0:0:0:0:
440,108,146633,2,0,L|417:62,2,50,8|0|2,0:0|0:0|0:0,0:0:0:0:
332,96,147205,6,0,L|288:192,1,100,8|2,0:0|0:0,0:0:0:0:
180,180,147776,2,0,L|221:89,1,100,8|2,0:0|0:0,0:0:0:0:
136,20,148347,2,0,L|92:116,1,100,8|2,0:0|0:0,0:0:0:0:
72,220,148919,1,8,0:0:0:0:
108,324,149205,2,0,P|156:336|204:316,1,100,2|8,0:0|0:0,0:0:0:0:
248,216,149776,6,0,P|276:280|324:308,1,100,4|8,0:0|0:0,0:0:0:0:
352,304,150205,2,0,P|392:216|376:168,1,150,0|8,0:0|0:0,0:0:0:0:
344,64,150919,2,0,L|392:32,1,50,2|0,0:0|0:0,0:0:0:0:
472,104,151347,1,0,0:0:0:0:
472,104,151633,2,0,L|480:156,1,50,0|8,0:0|0:0,0:0:0:0:
476,264,152062,6,0,P|452:304|404:332,1,100,2|8,0:0|0:0,0:0:0:0:
352,336,152490,2,0,P|304:268|224:264,1,150,0|8,0:0|0:0,0:0:0:0:
156,328,153205,2,0,L|100:340,1,50,2|0,0:0|0:0,0:0:0:0:
52,244,153633,1,0,0:0:0:0:
52,244,153919,2,0,L|68:196,1,50,0|8,0:0|0:0,0:0:0:0:
152,128,154347,6,0,L|240:184,1,100,2|8,0:0|0:0,0:0:0:0:
204,224,154776,2,0,P|100:224|68:196,1,150,0|8,0:0|0:0,0:0:0:0:
28,96,155490,2,0,L|48:40,1,50,2|0,0:0|0:0,0:0:0:0:
156,44,155919,1,0,0:0:0:0:
156,44,156205,2,0,L|208:56,1,50,0|8,0:0|0:0,0:0:0:0:
312,28,156633,6,0,P|348:68|364:116,1,100,2|8,0:0|0:0,0:0:0:0:
356,164,157062,2,0,P|432:132|508:168,1,150,0|8,0:0|0:0,0:0:0:0:
432,244,157776,2,0,L|440:296,1,50,2|0,0:0|0:0,0:0:0:0:
332,284,158205,2,0,P|304:244|246:231,2,100,0|8|2,0:0|0:0|0:0,0:0:0:0:
308,332,158919,6,0,L|204:356,1,100,2|8,0:0|0:0,0:0:0:0:
164,324,159347,2,0,P|136:244|160:176,1,150,0|8,0:0|0:0,0:0:0:0:
260,152,160062,2,0,L|276:212,1,50,2|0,0:0|0:0,0:0:0:0:
384,216,160490,1,0,0:0:0:0:
464,136,160776,2,0,L|452:88,1,50,0|8,0:0|0:0,0:0:0:0:
360,24,161205,6,0,P|312:8|264:12,1,100,2|8,0:0|0:0,0:0:0:0:
276,68,161633,2,0,P|300:164|264:224,1,150,0|8,0:0|0:0,0:0:0:0:
212,292,162347,2,0,L|152:328,1,50,2|0,0:0|0:0,0:0:0:0:
64,284,162776,1,0,0:0:0:0:
148,216,163062,2,0,L|136:164,1,50,0|8,0:0|0:0,0:0:0:0:
68,80,163490,6,0,P|31:116|22:163,1,100,2|8,0:0|0:0,0:0:0:0:
60,204,163919,2,0,B|96:260|68:315|68:315|112:340,1,150,0|8,0:0|0:0,0:0:0:0:
204,336,164633,2,0,L|232:292,1,50,2|0,0:0|0:0,0:0:0:0:
316,228,165062,1,0,0:0:0:0:
384,312,165347,2,0,L|408:356,1,50,0|8,0:0|0:0,0:0:0:0:
468,264,165776,6,0,P|440:192|456:152,1,100,2|8,0:0|0:0,0:0:0:0:
452,120,166205,2,0,P|392:52|324:44,1,150,0|8,0:0|0:0,0:0:0:0:
344,156,166919,2,0,L|368:204,1,50,2|0,0:0|0:0,0:0:0:0:
264,232,167347,2,0,P|288:276|336:304,2,100,0|8|2,0:0|0:0|0:0,0:0:0:0:
264,176,168062,5,4,0:0:0:0:
340,96,168347,2,0,P|324:56|276:24,1,100,0|2,0:0|0:0,0:0:0:0:
196,100,168919,2,0,P|120:96|72:44,1,150
40,148,169633,1,2,0:0:0:0:
116,228,169919,2,0,P|160:240|216:232,1,100
240,184,170347,6,0,P|284:172|340:180,1,100,0|0,0:0|0:0,0:0:0:0:
424,248,170919,1,2,0:0:0:0:
428,360,171205,2,0,P|356:335|317:274,1,150
216,320,171919,1,2,0:0:0:0:
132,248,172205,2,0,P|114:203|120:144,1,100
160,116,172633,6,0,L|260:96,1,100
368,92,173205,1,2,0:0:0:0:
460,156,173490,2,0,P|436:216|348:260,1,150
256,244,174205,1,2,0:0:0:0:
168,180,174490,2,0,P|147:225|152:274,1,100
140,328,174919,6,0,L|40:312,1,100
32,204,175490,1,2,0:0:0:0:
88,108,175776,1,0,0:0:0:0:
136,80,175919,6,0,P|184:76|232:96,1,100,2|0,0:0|0:0,0:0:0:0:
264,200,176490,2,0,P|216:204|168:184,1,100,2|0,0:0|0:0,0:0:0:0:
88,108,177062,1,2,0:0:0:0:
