osu file format v14

[General]
AudioFilename: Pedal Heart.mp3
AudioLeadIn: 0
PreviewTime: 85055
Countdown: 0
SampleSet: Soft
StackLeniency: 0.7
Mode: 0
LetterboxInBreaks: 0
WidescreenStoryboard: 0

[Editor]
DistanceSpacing: 1.1
BeatDivisor: 4
GridSize: 4
TimelineZoom: 1

[Metadata]
Title:Pedal Heart feat. GUMI
TitleUnicode:ペダルハート feat. GUMI
Artist:DECO*27
ArtistUnicode:DECO*27
Creator:Mau-nyan
Version:Hard
Source:
Tags:vocaloid megpoid pho
BeatmapID:666178
BeatmapSetID:296739

[Difficulty]
HPDrainRate:6
CircleSize:4
OverallDifficulty:6
ApproachRate:7
SliderMultiplier:1.4
SliderTickRate:1

[Events]
//Background and Video events
0,0,"68747470733a2f2f646c2e64726f70626f7875736572636f6e74656e742e636f6d2f752f36343330393535332f6f73752f496d70726f76656420496d616765732f4d61752d6e79616e2f6173646173642e706e67.png",0,0
//Break Periods
2,58576,60905
2,62005,64334
2,140861,143190
2,144290,146619
2,162947,168904
//Storyboard Layer 0 (Background)
//Storyboard Layer 1 (Fail)
//Storyboard Layer 2 (Pass)
//Storyboard Layer 3 (Foreground)
//Storyboard Sound Samples

[TimingPoints]
3521,428.565524625268,4,2,2,50,1,0
3735,-100,4,2,2,50,0,0
4056,-100,4,2,1,50,0,0
8663,-100,4,2,1,50,0,0
9735,-100,4,2,1,50,0,0
10378,-100,4,2,1,50,0,0
13913,-100,4,2,2,50,0,0
14020,-100,4,2,2,50,0,0
14235,-100,4,2,1,50,0,0
16806,-100,4,2,1,50,0,0
30949,-100,4,2,2,50,0,0
31592,-100,4,2,2,70,0,0
31806,-100,4,2,9,50,0,0
44663,-100,4,2,9,50,0,0
45949,-100,4,2,1,50,0,0
46377,-100,4,2,9,50,0,0
46806,-100,4,2,9,50,0,0
47663,-100,4,2,1,50,0,0
48091,-100,4,2,9,50,0,0
49377,-100,4,2,1,50,0,0
49806,-100,4,2,9,50,0,0
51091,-100,4,2,1,50,0,0
51520,-100,4,2,9,50,0,0
52806,-100,4,2,1,50,0,0
53020,-100,4,2,9,50,0,0
54520,-100,4,2,1,50,0,0
54734,-100,4,2,9,50,0,0
56234,-100,4,2,1,50,0,0
56448,-100,4,2,9,50,0,0
57948,-100,4,2,1,50,0,0
58163,-100,4,2,0,50,0,0
65663,-100,4,2,9,50,0,0
66091,-100,4,2,1,50,0,0
66305,-100,4,2,9,50,0,0
66734,-100,4,2,0,50,0,0
67162,-100,4,2,9,50,0,0
67591,-100,4,2,1,50,0,0
68020,-100,4,2,9,50,0,0
68448,-100,4,2,0,50,0,0
68877,-100,4,2,9,50,0,0
69305,-100,4,2,1,50,0,0
69734,-100,4,2,9,50,0,0
71234,-100,4,2,1,50,0,0
71448,-100,4,2,9,50,0,0
71877,-100,4,2,0,50,0,0
72305,-100,4,2,9,50,0,0
72520,-100,4,2,1,50,0,0
73377,-100,4,2,1,50,0,0
73805,-100,4,2,1,50,0,0
85805,-100,4,2,1,50,0,1
92448,-100,4,2,1,50,0,0
92662,-100,4,2,1,50,0,1
99305,-100,4,2,1,50,0,0
99519,-100,4,2,1,50,0,1
106162,-100,4,2,1,50,0,0
106376,-100,4,2,1,50,0,1
113233,-100,4,2,1,50,0,0
113662,-100,4,2,9,50,0,0
114519,-100,4,2,1,50,0,0
114733,-100,4,2,9,50,0,0
116233,-100,4,2,1,50,0,0
116448,-100,4,2,9,50,0,0
117947,-100,4,2,1,50,0,0
118162,-100,4,2,9,50,0,0
119662,-100,4,2,1,50,0,0
119876,-100,4,2,9,50,0,0
121162,-100,4,2,1,50,0,0
121590,-100,4,2,9,50,0,0
122983,-100,4,2,1,50,0,0
123305,-100,4,2,9,50,0,0
124590,-100,4,2,1,50,0,0
125019,-100,4,2,9,50,0,0
126412,-100,4,2,1,50,0,0
126733,-100,4,2,9,50,0,0
127162,-100,4,2,1,50,0,0
127590,-100,4,2,9,50,0,0
128019,-100,4,2,1,50,0,0
128447,-100,4,2,9,50,0,0
128876,-100,4,2,1,50,0,0
129304,-100,4,2,9,50,0,0
129733,-100,4,2,1,50,0,0
130162,-100,4,2,9,50,0,0
130590,-100,4,2,1,50,0,0
131019,-100,4,2,9,50,0,0
131447,-100,4,2,1,50,0,0
131876,-100,4,2,9,50,0,0
132304,-100,4,2,1,50,0,0
132733,-100,4,2,9,50,0,0
133162,-100,4,2,1,50,0,0
133590,-100,4,2,9,50,0,0
134019,-100,4,2,1,50,0,0
134447,-100,4,2,9,50,0,0
134876,-100,4,2,1,50,0,0
135304,-100,4,2,9,50,0,0
135733,-100,4,2,1,50,0,0
136162,-100,4,2,9,50,0,0
136590,-100,4,2,1,50,0,0
137019,-100,4,2,9,50,0,0
137447,-100,4,2,1,50,0,0
137876,-100,4,2,9,50,0,0
138304,-100,4,2,1,50,0,0
138733,-100,4,2,9,50,0,0
139161,-100,4,2,1,50,0,0
139590,-100,4,2,9,50,0,0
140019,-100,4,2,1,50,0,0
147947,-100,4,2,9,50,0,0
148269,-100,4,2,1,50,0,0
148590,-100,4,2,9,50,0,0
149018,-100,4,2,1,50,0,0
149447,-100,4,2,9,50,0,0
149876,-100,4,2,1,50,0,0
150304,-100,4,2,9,50,0,0
150947,-100,4,2,0,50,0,0
151161,-100,4,2,9,50,0,0
151590,-100,4,2,1,50,0,0
152018,-100,4,2,9,50,0,0
153304,-100,4,2,1,50,0,0
153733,-100,4,2,9,50,0,0
154161,-100,4,2,1,50,0,0
174090,-100,4,2,9,50,0,0
174732,-100,4,2,0,50,0,0
178375,-100,4,2,0,50,0,0
179768,-100,4,2,0,50,0,0
180732,-100,4,2,9,50,0,0
182447,-100,4,2,1,50,0,0
184589,-100,4,2,9,50,0,0
185018,-100,4,2,0,50,0,0
185232,-100,4,2,0,50,0,1
185447,-100,4,2,1,50,0,1
191875,-100,4,2,1,50,0,0
192089,-100,4,2,1,50,0,1
198732,-100,4,2,1,50,0,0
198946,-100,4,2,1,50,0,1
205803,-100,4,2,1,50,0,0

[Colours]
Combo1 : 0,128,128
Combo2 : 255,210,255
Combo3 : 0,110,160
Combo4 : 128,128,192

[HitObjects]
232,296,3521,6,0,B|244:256|232:224|232:224|272:212|272:212|264:176|264:176|256:132|292:96,1,210,4|2,0:3|0:2,0:0:0:0:
340,160,4378,2,0,P|320:56|272:44,1,140,4|2,0:3|0:0,0:0:0:0:
224,52,5021,1,0,0:0:0:0:
156,84,5235,6,0,B|132:136|156:176|156:176|156:240,1,140,4|2,0:3|0:0,0:0:0:0:
164,296,5878,1,0,0:0:0:0:
164,296,6092,2,0,P|208:304|256:296,1,70,4|0,0:3|0:0,0:0:0:0:
292,252,6521,2,0,P|284:216|288:176,1,70,2|0,0:0|0:0,0:0:0:0:
356,148,6949,6,0,B|328:104|284:104|284:104|268:72|224:60,1,140,4|2,0:3|0:0,0:0:0:0:
216,140,7592,2,0,L|164:200,1,70,0|4,0:0|0:3,0:0:0:0:
96,212,8020,2,0,P|184:228|200:292,1,140,0|4,0:0|0:3,0:0:0:0:
220,340,8663,1,4,0:3:0:0:
424,64,9735,5,2,0:2:0:0:
396,136,9949,1,2,0:0:0:0:
348,76,10163,1,2,0:0:0:0:
320,148,10378,6,0,B|276:164|248:148|248:148|220:172|172:160,1,140,8|2,0:2|0:2,0:0:0:0:
112,180,11021,1,2,0:0:0:0:
48,140,11235,2,0,P|40:200|104:256,1,140,4|2,0:3|0:2,0:0:0:0:
168,268,11878,1,0,0:0:0:0:
236,304,12092,6,0,B|268:320|268:320|308:352,1,70,4|0,0:3|0:0,0:0:0:0:
372,340,12520,2,0,B|398:318|398:318|430:302,1,70,2|2,0:2|0:0,0:0:0:0:
452,228,12949,2,0,P|424:176|460:92,1,140,4|2,0:3|0:2,0:0:0:0:
508,56,13592,1,2,0:0:0:0:
436,24,13806,6,0,P|364:12|284:28,1,140,4|2,0:3|0:2,0:0:0:0:
244,84,14449,1,0,0:0:0:0:
244,84,14663,2,0,P|252:144|240:176,1,70,4|4,0:3|0:3,0:0:0:0:
188,196,15092,2,0,P|180:136|192:104,1,70,2|2,0:2|0:0,0:0:0:0:
160,56,15520,6,0,B|112:64|84:32|84:32|72:80|24:88|24:88|52:148|4:192,1,280,4|4,0:0|0:3,0:0:0:0:
256,192,16806,1,8,0:2:0:0:
344,68,17235,6,0,P|300:44|252:36,1,70,4|4,0:3|0:3,0:0:0:0:
212,76,17663,2,0,P|168:100|144:104,1,70,8|4,0:2|0:3,0:0:0:0:
76,132,18092,1,4,0:3:0:0:
44,204,18306,1,4,0:3:0:0:
100,260,18520,1,8,0:2:0:0:
168,220,18735,1,4,0:3:0:0:
244,228,18949,6,0,L|314:228,1,70,4|4,0:3|0:3,0:0:0:0:
384,264,19378,2,0,P|392:220|376:184,1,70,8|4,0:2|0:3,0:0:0:0:
328,144,19806,2,0,P|320:100|336:64,1,70,0|4,0:0|0:3,0:0:0:0:
396,112,20235,2,0,L|232:112,1,140,8|4,0:2|0:3,0:0:0:0:
196,164,20878,6,0,B|200:200|200:200|192:256,1,70,4|8,0:3|0:2,0:0:0:0:
144,288,21306,2,0,P|184:276|264:324,1,140,4|4,0:3|0:3,0:0:0:0:
312,384,21949,2,0,L|312:216,1,140,8|4,0:2|0:3,0:0:0:0:
372,196,22592,5,4,0:3:0:0:
356,120,22806,1,8,0:2:0:0:
280,116,23020,1,4,0:3:0:0:
220,164,23235,2,0,B|176:152|144:164|144:164|108:176|72:164,1,140,4|8,0:3|0:2,0:0:0:0:
12,200,23877,1,4,0:3:0:0:
64,260,24092,6,0,L|72:336,1,70,4|4,0:3|0:3,0:0:0:0:
140,360,24520,1,8,0:2:0:0:
212,332,24735,1,4,0:3:0:0:
288,352,24949,2,0,P|284:304|260:268,1,70,4|4,0:3|0:3,0:0:0:0:
224,228,25377,2,0,P|220:168|236:136,1,70,8|4,0:2|0:3,0:0:0:0:
292,192,25806,6,0,L|128:192,1,140,4|8,0:3|0:2,0:0:0:0:
76,192,26449,1,0,0:0:0:0:
28,256,26663,2,0,P|-4:200|44:120,1,140,4|8,0:3|0:2,0:0:0:0:
92,100,27306,1,4,0:3:0:0:
148,48,27520,5,4,0:3:0:0:
204,100,27735,1,4,0:3:0:0:
200,176,27949,2,0,B|224:204|224:204|268:220,1,70,8|4,0:2|0:3,0:0:0:0:
332,216,28377,2,0,B|363:204|363:204|387:176,1,70,4|4,0:3|0:3,0:0:0:0:
464,180,28806,2,0,P|448:132|356:104,1,140,8|4,0:2|0:3,0:0:0:0:
292,100,29449,6,0,L|212:100,1,70,4|8,0:3|0:2,0:0:0:0:
152,64,29877,2,0,P|144:112|164:152,1,70,4|4,0:3|0:3,0:0:0:0:
188,200,30306,1,4,0:3:0:0:
256,244,30520,2,0,P|284:292|252:368,1,140,8|4,0:2|0:3,0:0:0:0:
376,80,31592,5,4,0:3:0:0:
428,136,31806,2,0,P|452:76|444:48,1,70,4|0,0:2|0:0,0:0:0:0:
408,12,32234,1,4,0:2:0:0:
332,16,32449,6,0,B|296:24|296:24|248:24,1,70,0|4,0:0|0:0,0:0:0:0:
192,52,32877,1,0,0:0:0:0:
120,28,33092,2,0,P|103:103|119:163,1,140,4|4,0:2|0:2,0:0:0:0:
176,208,33734,1,2,0:0:0:0:
248,180,33949,1,4,0:2:0:0:
320,208,34163,1,2,0:0:0:0:
376,260,34377,6,0,P|396:200|380:168,1,70,4|0,0:2|0:0,0:0:0:0:
388,120,34806,1,4,0:2:0:0:
316,96,35020,2,0,P|256:64|176:100,1,140
144,144,35663,1,4,0:2:0:0:
144,144,35877,1,0,0:0:0:0:
140,220,36092,6,0,P|204:248|268:212,1,140,4|4,0:2|0:2,0:0:0:0:
264,140,36734,1,2,0:0:0:0:
316,84,36949,2,0,P|348:64|404:80,1,70,4|2,0:2|0:0,0:0:0:0:
444,108,37377,1,4,0:2:0:0:
368,140,37591,1,2,0:0:0:0:
264,140,37806,6,0,B|236:172|252:220|252:220|212:216|188:240,1,140,4|4,0:2|0:2,0:0:0:0:
156,296,38449,1,0,0:0:0:0:
220,340,38663,2,0,P|252:344|308:344,1,70,4|0,0:2|0:0,0:0:0:0:
332,280,39092,2,0,P|336:220|332:188,1,70,4|0,0:2|0:0,0:0:0:0:
276,160,39520,6,0,P|340:192|404:176,1,140,4|4,0:2|0:2,0:0:0:0:
460,120,40163,1,2,0:0:0:0:
500,184,40377,1,4,0:2:0:0:
448,244,40592,1,2,0:0:0:0:
384,288,40806,2,0,L|348:352,1,70,4|2,0:2|0:0,0:0:0:0:
272,348,41234,6,0,L|237:286,1,70,4|0,0:2|0:0,0:0:0:0:
164,264,41663,1,4,0:2:0:0:
172,188,41877,2,0,P|192:116|144:56,1,140
116,132,42520,1,4,0:2:0:0:
172,188,42734,2,0,P|212:204|256:212,1,70,0|4,0:0|0:2,0:0:0:0:
308,176,43163,5,2,0:0:0:0:
364,124,43377,2,0,P|392:104|452:104,1,70,4|2,0:2|0:0,0:0:0:0:
424,176,43806,1,4,0:2:0:0:
368,228,44020,1,2,0:0:0:0:
316,284,44234,2,0,B|288:312|288:312|232:336,1,70,4|2,0:2|0:0,0:0:0:0:
184,340,44663,5,4,0:2:0:0:
210,264,44877,1,0,0:0:0:0:
132,280,45091,2,0,L|104:196,1,70,4|0,0:2|0:0,0:0:0:0:
144,144,45520,2,0,B|180:144|180:144|232:124,1,70,4|0,0:2|0:0,0:0:0:0:
268,80,45948,1,8,0:0:0:0:
344,88,46163,6,0,B|392:136|392:136|420:228,1,140
424,280,46806,1,4,0:2:0:0:
484,328,47020,2,0,P|416:356|352:304,1,140
300,284,47663,2,0,P|296:236|296:192,1,70,8|0,0:2|0:0,0:0:0:0:
248,156,48091,6,0,B|224:184|180:180|180:180|152:144|92:148,1,140,4|4,0:2|0:2,0:0:0:0:
68,200,48734,1,0,0:0:0:0:
68,276,48949,2,0,P|64:340|72:364,1,70
136,312,49377,2,0,P|140:248|132:224,1,70,8|0,0:2|0:0,0:0:0:0:
172,172,49806,5,4,0:2:0:0:
248,156,50020,1,0,0:2:0:0:
312,204,50234,2,0,P|320:124|260:76,1,140,4|4,0:2|0:2,0:0:0:0:
204,92,50877,1,0,0:0:0:0:
172,20,51091,2,0,B|116:20|116:20|84:8|84:8|28:8,1,140,8|4,0:2|0:2,0:0:0:0:
32,88,51734,5,0,0:0:0:0:
76,152,51949,1,4,0:2:0:0:
36,220,52163,2,0,B|96:244|96:244|152:308,1,140
216,332,52805,1,8,0:2:0:0:
240,260,53020,6,0,P|236:212|244:168,1,70,0|4,0:0|0:2,0:0:0:0:
312,152,53448,2,0,P|316:200|308:244,1,70,0|4,0:0|0:2,0:0:0:0:
312,300,53877,1,0,0:0:0:0:
380,264,54091,1,4,0:2:0:0:
380,340,54306,1,0,0:0:0:0:
312,300,54520,6,0,L|160:300,1,140,8|0,0:0|0:0,0:0:0:0:
96,308,55163,1,0,0:0:0:0:
28,344,55377,2,0,P|28:276|96:228,1,140,4|4,0:2|0:2,0:0:0:0:
156,220,56020,1,0,0:0:0:0:
228,192,56234,2,0,B|256:172|256:172|288:128,1,70,8|0,0:2|0:0,0:0:0:0:
268,68,56663,6,0,B|316:68|340:104|340:104|360:76|392:68,1,140,4|4,0:2|0:2,0:0:0:0:
408,144,57305,1,0,0:0:0:0:
460,208,57520,2,0,L|460:284,1,70,4|0,0:2|0:0,0:0:0:0:
480,352,57948,2,0,P|472:316|376:300,1,140,8|4,0:2|0:2,0:0:0:0:
256,192,61805,5,4,0:0:0:0:
256,192,65234,5,4,0:0:0:0:
392,264,65663,1,4,0:2:0:0:
392,188,65877,1,0,0:0:0:0:
456,228,66091,2,0,P|444:320|392:340,1,140,8|4,0:2|0:2,0:0:0:0:
332,332,66734,1,0,0:0:0:0:
256,324,66948,6,0,B|216:340|184:332|184:332|152:316|96:328,1,140,4|4,0:0|0:2,0:0:0:0:
56,284,67591,1,0,0:0:0:0:
44,208,67805,2,0,P|52:160|32:120,1,70,8|0,0:2|0:0,0:0:0:0:
92,80,68234,2,0,L|248:80,1,140,0|4,0:0|0:0,0:0:0:0:
304,112,68877,2,0,P|308:68|288:24,2,70
336,184,69520,1,4,0:3:0:0:
336,184,69734,1,0,0:0:0:0:
356,256,69948,2,0,L|328:336,1,70,4|4,0:2|0:2,0:0:0:0:
256,324,70377,6,0,L|232:257,1,70,4|4,0:2|0:2,0:0:0:0:
208,184,70805,1,4,0:2:0:0:
208,184,71020,1,4,0:2:0:0:
240,112,71234,2,0,P|164:120|128:180,1,140,8|4,0:2|0:2,0:0:0:0:
284,176,72091,6,0,P|316:120|268:40,1,140,4|8,0:0|0:2,0:0:0:0:
240,112,72734,1,0,0:0:0:0:
172,76,72948,2,0,B|136:52|136:52|88:76|40:48,1,140,8|8,0:2|0:2,0:0:0:0:
0,112,73591,1,0,0:0:0:0:
36,180,73805,2,0,L|36:344,1,140,8|8,0:0|0:0,0:0:0:0:
104,356,74448,1,0,0:0:0:0:
172,324,74662,2,0,P|224:276|300:276,1,140,8|8,0:0|0:0,0:0:0:0:
364,300,75305,1,0,0:0:0:0:
420,244,75520,6,0,P|432:188|400:80,1,140,8|8,0:0|0:0,0:0:0:0:
264,108,76377,2,0,P|252:164|284:272,1,140,8|8,0:0|0:0,0:0:0:0:
328,292,77019,1,0,0:0:0:0:
256,320,77234,2,0,L|108:320,1,140,8|8,0:0|0:0,0:0:0:0:
60,264,77877,1,0,0:0:0:0:
120,212,78091,2,0,P|124:172|120:140,1,70,8|0,0:0|0:0,0:0:0:0:
192,48,78519,2,0,P|188:88|192:120,1,70,8|0,0:0|0:0,0:0:0:0:
256,192,78948,12,8,81948,0:0:0:0:
256,192,82377,12,0,84948,0:0:0:0:
380,200,85805,6,0,P|312:200|280:136,1,140,4|8,0:0|0:2,0:0:0:0:
228,84,86448,1,4,0:3:0:0:
180,144,86662,2,0,P|146:201|79:201,1,140,4|8,0:3|0:2,0:0:0:0:
24,148,87305,1,4,0:3:0:0:
4,222,87519,2,0,P|0:282|12:314,1,70,4|4,0:3|0:3,0:0:0:0:
68,332,87948,2,0,B|124:332|124:332|160:316|160:316|220:316,1,140,8|4,0:2|0:3,0:0:0:0:
280,320,88591,1,4,0:3:0:0:
340,368,88805,2,0,P|356:312|304:244,1,140,8|4,0:2|0:3,0:0:0:0:
240,228,89448,5,4,0:3:0:0:
192,168,89662,2,0,P|188:128|204:72,1,70,8|0,0:2|0:0,0:0:0:0:
268,88,90091,2,0,P|344:104|416:76,1,140,4|8,0:3|0:2,0:0:0:0:
464,40,90734,1,4,0:3:0:0:
484,116,90948,2,0,B|484:168|484:168|472:204|472:204|472:280,1,140,4|4,0:3|0:2,0:0:0:0:
464,332,91591,1,4,0:3:0:0:
388,332,91805,2,0,L|320:308,1,70,4|4,0:0|0:3,0:0:0:0:
244,308,92234,2,0,L|177:331,1,70,4|4,0:3|0:3,0:0:0:0:
100,324,92662,6,0,B|88:256|88:256|88:160,1,140,4|8,0:0|0:2,0:0:0:0:
152,140,93305,1,4,0:3:0:0:
216,100,93519,2,0,P|276:68|352:116,1,140,4|8,0:3|0:2,0:0:0:0:
396,144,94162,1,4,0:3:0:0:
436,212,94376,2,0,B|432:248|432:248|440:304,1,70,4|4,0:3|0:3,0:0:0:0:
360,348,94805,2,0,B|364:312|364:312|356:256,1,70,8|4,0:2|0:3,0:0:0:0:
308,220,95234,1,4,0:3:0:0:
248,172,95448,2,0,L|164:172,1,70,4|8,0:3|0:2,0:0:0:0:
108,136,95876,1,4,0:3:0:0:
100,212,96091,6,0,P|76:260|112:352,1,140,4|8,0:3|0:2,0:0:0:0:
176,336,96734,2,0,B|216:324|244:332|244:332|284:352|336:336,1,140
368,288,97376,1,8,0:0:0:0:
400,216,97591,2,0,P|416:148|380:64,1,140
328,48,98233,1,4,0:0:0:0:
196,148,98662,1,4,0:0:0:0:
200,224,98876,1,4,0:3:0:0:
236,296,99091,2,0,P|200:304|164:296,1,70,4|4,0:3|0:3,0:0:0:0:
96,224,99519,6,0,B|72:160|72:160|28:104,1,140,4|8,0:0|0:0,0:0:0:0:
92,56,100162,1,4,0:3:0:0:
164,76,100376,2,0,B|212:92|252:60|252:60|260:92|296:120,1,140,4|8,0:3|0:0,0:0:0:0:
320,164,101019,1,4,0:3:0:0:
388,128,101233,2,0,P|396:180|384:212,1,70,4|4,0:3|0:3,0:0:0:0:
336,312,101662,2,0,P|328:260|340:228,1,70,8|4,0:2|0:3,0:0:0:0:
404,276,102091,2,0,L|240:276,1,140,4|8,0:3|0:0,0:0:0:0:
200,232,102733,1,4,0:3:0:0:
184,160,102948,6,0,P|188:120|180:84,1,70,4|4,0:3|0:3,0:0:0:0:
244,48,103376,2,0,B|280:56|280:56|324:48,1,70,8|4,0:0|0:3,0:0:0:0:
388,44,103805,1,4,0:3:0:0:
444,96,104019,2,0,B|444:148|444:148|460:184|460:184|460:256,1,140
460,308,104662,2,0,P|404:308|368:296,1,70,4|0,0:3|0:0,0:0:0:0:
332,252,105091,1,4,0:0:0:0:
272,132,105519,1,4,0:0:0:0:
196,132,105733,2,0,L|112:132,1,70,4|4,0:3|0:3,0:0:0:0:
48,132,106162,1,4,0:3:0:0:
64,208,106376,6,0,P|92:280|52:344,1,140,4|8,0:0|0:0,0:0:0:0:
16,272,107019,1,4,0:3:0:0:
16,272,107233,2,0,L|168:272,1,140,4|8,0:3|0:0,0:0:0:0:
232,276,107876,1,4,0:3:0:0:
300,312,108090,2,0,B|308:276|308:276|296:228,1,70,4|4,0:3|0:3,0:0:0:0:
264,176,108519,2,0,B|256:140|256:140|268:92,1,70,8|4,0:2|0:3,0:0:0:0:
336,84,108948,2,0,P|316:52|212:52,1,140,4|8,0:3|0:0,0:0:0:0:
176,104,109590,1,4,0:3:0:0:
144,176,109805,6,0,B|156:248|156:248|132:332,1,140,4|8,0:3|0:0,0:0:0:0:
208,348,110448,2,0,P|252:324|336:356,1,140
408,348,111090,1,8,0:2:0:0:
408,348,111519,2,0,B|408:292|408:292|420:260|420:260|420:196,1,140,4|4,0:0|0:0,0:0:0:0:
256,192,112376,1,4,0:0:0:0:
344,64,112805,2,0,L|344:8,2,35
440,80,113233,6,0,P|468:140|432:220,1,140,4|4,0:2|0:0,0:0:0:0:
388,264,113876,1,0,0:0:0:0:
324,308,114090,2,0,B|296:332|296:332|248:348,1,70,4|0,0:0|0:0,0:0:0:0:
188,344,114519,2,0,B|156:333|156:333|128:309,1,70,8|0,0:0|0:0,0:0:0:0:
108,236,114948,2,0,B|128:184|96:140|96:140|96:92,1,140,4|4,0:0|0:0,0:0:0:0:
160,56,115590,2,0,L|240:56,1,70,2|4,0:0|0:0,0:0:0:0:
268,124,116019,2,0,L|340:124,1,70,2|8,0:0|0:0,0:0:0:0:
408,152,116448,1,0,0:0:0:0:
452,216,116662,6,0,P|480:280|432:352,1,140,4|4,0:0|0:0,0:0:0:0:
404,276,117305,1,0,0:0:0:0:
356,340,117519,2,0,P|327:278|355:216,1,140,4|8,0:0|0:0,0:0:0:0:
408,152,118162,1,0,0:0:0:0:
332,140,118376,2,0,L|248:140,1,70,4|2,0:0|0:0,0:0:0:0:
200,96,118805,1,4,0:0:0:0:
164,164,119019,1,2,0:0:0:0:
116,224,119233,2,0,P|156:240|200:232,1,70,4|2,0:0|0:0,0:0:0:0:
256,256,119662,6,0,B|296:256|324:280|324:280|352:252|404:260,1,140,8|4,0:0|0:0,0:0:0:0:
452,224,120305,1,0,0:0:0:0:
464,148,120519,2,0,B|436:112|436:112|432:68|432:68|392:16,1,140,4|4,0:0|0:0,0:0:0:0:
324,40,121162,1,0,0:0:0:0:
248,32,121376,2,0,B|217:71|217:71|213:115|213:115|185:151,1,140,8|4,0:0|0:0,0:0:0:0:
124,200,122019,1,2,0:0:0:0:
196,228,122233,2,0,P|228:248|288:244,1,70,4|2,0:0|0:0,0:0:0:0:
332,228,122662,1,4,0:0:0:0:
388,176,122876,2,0,P|356:156|296:160,1,70,2|8,0:0|0:0,0:0:0:0:
332,228,123305,1,0,0:0:0:0:
264,108,123519,6,0,B|200:92|200:92|120:92,1,140,4|4,0:0|0:0,0:0:0:0:
96,164,124162,2,0,P|120:228|76:304,1,140
140,352,124805,2,0,L|216:352,1,70,8|0,0:0|0:0,0:0:0:0:
280,316,125233,2,0,B|280:264|280:264|292:232|292:232|292:176,1,140,4|4,0:0|0:0,0:0:0:0:
292,100,125876,1,2,0:0:0:0:
340,40,126090,2,0,P|292:24|244:40,1,70,4|0,0:0|0:0,0:0:0:0:
212,72,126519,2,0,B|160:112|160:112|80:128,1,140,8|4,0:0|0:0,0:0:0:0:
44,192,127162,5,0,0:0:0:0:
112,232,127376,2,0,B|116:272|116:272|104:328,1,70,8|0,0:0|0:0,0:0:0:0:
172,348,127805,2,0,P|224:324|304:352,1,140,4|8,0:0|0:0,0:0:0:0:
376,344,128447,1,0,0:0:0:0:
376,344,128662,2,0,P|368:268|372:252,1,70,4|0,0:0|0:0,0:0:0:0:
408,212,129090,2,0,P|407:177|398:143,1,70,8|0,0:0|0:0,0:0:0:0:
324,120,129519,2,0,B|264:100|264:100|184:100,1,140,4|8,0:0|0:0,0:0:0:0:
124,148,130162,1,0,0:0:0:0:
148,220,130376,6,0,P|156:256|136:304,1,70,4|0,0:0|0:0,0:0:0:0:
80,252,130804,2,0,L|240:252,1,140,8|4,0:0|0:0,0:0:0:0:
280,300,131447,1,0,0:0:0:0:
280,200,131662,1,8,0:0:0:0:
340,248,131876,1,0,0:0:0:0:
408,284,132090,2,0,P|416:232|400:204,1,70,4|0,0:0|0:0,0:0:0:0:
376,148,132519,2,0,B|352:104|352:104|324:80|324:80|300:28,1,140,8|4,0:0|0:0,0:0:0:0:
224,36,133162,1,0,0:0:0:0:
200,108,133376,2,0,B|132:120|132:120|56:104,1,140,8|4,0:0|0:0,0:0:0:0:
16,168,134019,5,0,0:0:0:0:
56,232,134233,2,0,P|60:284|48:320,1,70,8|0,0:0|0:0,0:0:0:0:
124,336,134662,2,0,P|176:332|212:344,1,70,4|0,0:0|0:0,0:0:0:0:
264,304,135090,2,0,B|252:236|252:236|272:164,1,140,8|4,0:0|0:0,0:0:0:0:
316,104,135733,1,0,0:0:0:0:
240,100,135947,1,8,0:0:0:0:
168,68,136162,2,0,P|164:124|176:152,1,70,0|4,0:0|0:0,0:0:0:0:
200,204,136590,1,0,0:0:0:0:
172,276,136804,2,0,P|220:280|276:208,1,140,8|4,0:0|0:0,0:0:0:0:
308,144,137447,5,0,0:0:0:0:
356,84,137662,2,0,L|432:84,1,70,8|0,0:0|0:0,0:0:0:0:
260,84,138090,2,0,L|184:84,1,70,4|0,0:0|0:0,0:0:0:0:
112,92,138519,2,0,B|112:144|112:144|96:180|96:180|96:240,1,140,8|4,0:0|0:0,0:0:0:0:
160,272,139161,1,0,0:0:0:0:
224,232,139376,2,0,P|292:204|360:236,1,140,8|4,0:0|0:0,0:0:0:0:
428,236,140019,1,0,0:0:0:0:
440,160,140233,1,8,0:0:0:0:
256,92,140661,5,4,0:0:0:0:
256,104,144090,5,4,0:0:0:0:
256,116,147519,5,4,0:0:0:0:
388,192,147947,1,4,0:0:0:0:
388,268,148161,1,4,0:0:0:0:
320,232,148376,2,0,L|180:232,1,140,8|4,0:0|0:0,0:0:0:0:
104,232,149018,1,0,0:0:0:0:
52,292,149233,2,0,P|24:224|72:160,1,140,4|4,0:0|0:0,0:0:0:0:
132,144,149876,1,0,0:0:0:0:
196,104,150090,2,0,B|224:84|224:84|268:32,1,70,8|0,0:0|0:0,0:0:0:0:
324,56,150518,2,0,B|344:84|344:84|396:128,1,70,4|0,0:0|0:0,0:0:0:0:
436,148,150947,6,0,P|460:208|420:292,1,140,4|4,0:2|0:0,0:0:0:0:
364,304,151590,1,0,0:0:0:0:
288,296,151804,2,0,B|236:296|236:296|200:272|200:272|136:272,1,140,8|4,0:0|0:0,0:0:0:0:
104,332,152447,1,4,0:0:0:0:
104,332,152661,2,0,P|128:288|84:196,1,140,4|4,0:0|0:0,0:0:0:0:
36,164,153304,1,0,0:0:0:0:
104,128,153518,2,0,L|248:128,1,140,8|4,0:0|0:0,0:0:0:0:
320,132,154161,1,0,0:0:0:0:
392,100,154376,6,0,P|396:160|388:176,1,70,8|0,0:0|0:0,0:0:0:0:
336,220,154804,2,0,P|328:253|336:287,1,70,8|0,0:0|0:0,0:0:0:0:
404,252,155233,2,0,L|236:252,1,140,8|8,0:0|0:0,0:0:0:0:
188,252,155876,1,0,0:0:0:0:
144,188,156090,1,8,0:0:0:0:
68,200,156304,1,0,0:0:0:0:
96,128,156518,2,0,P|144:112|220:172,1,140,8|8,0:0|0:0,0:0:0:0:
264,216,157161,1,0,0:0:0:0:
340,216,157376,2,0,L|416:216,1,70,8|0,0:0|0:0,0:0:0:0:
428,140,157804,6,0,L|352:140,1,70,8|0,0:0|0:0,0:0:0:0:
284,120,158233,2,0,P|276:72|288:44,1,70,8|0,0:0|0:0,0:0:0:0:
188,52,158661,2,0,P|196:100|184:128,1,70,8|0,0:0|0:0,0:0:0:0:
120,88,159090,1,8,0:0:0:0:
40,172,159304,1,0,0:0:0:0:
40,88,159518,5,8,0:0:0:0:
120,172,159733,1,0,0:0:0:0:
184,216,159947,2,0,B|260:228|260:228|348:208,1,140,8|8,0:0|0:0,0:0:0:0:
396,248,160590,1,0,0:0:0:0:
388,172,160804,1,8,0:0:0:0:
460,204,161018,1,0,0:0:0:0:
312,224,169804,6,0,P|340:156|304:88,1,140,4|0,0:0|0:0,0:0:0:0:
244,124,170447,1,0,0:0:0:0:
176,160,170661,2,0,B|108:180|108:180|32:156,1,140,2|2,0:0|0:0,0:0:0:0:
16,88,171304,1,0,0:0:0:0:
36,16,171518,2,0,P|104:12|176:24,1,140,4|0,0:0|0:0,0:0:0:0:
240,64,172161,1,0,0:0:0:0:
312,88,172375,2,0,B|320:124|320:124|308:184,1,70,2|0,0:0|0:0,0:0:0:0:
248,204,172804,2,0,B|241:236|241:236|249:272,1,70,2|0,0:0|0:0,0:0:0:0:
312,320,173232,6,0,P|228:296|184:324,1,140,4|0,0:0|0:0,0:0:0:0:
140,380,173875,2,0,L|140:212,1,140,0|4,0:0|0:0,0:0:0:0:
64,248,174518,2,0,P|120:228|116:144,1,140,4|4,0:0|0:0,0:0:0:0:
256,192,175161,12,0,177518,0:0:0:0:
256,192,178375,5,4,0:0:0:0:
404,312,179232,2,0,P|432:268|432:192,2,105,4|4|4,0:0|0:0|0:0,0:0:0:0:
336,272,180089,6,4,P|264:264|212:328,1,140,4|0,0:0|0:0,0:0:0:0:
156,352,180732,1,0,0:0:0:0:
116,288,180947,2,0,B|116:240|116:240|136:196|136:196|136:128,1,140,4|4,0:0|0:0,0:0:0:0:
172,84,181589,1,0,0:0:0:0:
240,120,181804,2,0,P|244:52|228:28,1,70,4|0,0:0|0:0,0:0:0:0:
172,84,182232,2,0,L|328:84,1,140,4|8,0:3|0:0,0:3:0:0:
372,32,182875,1,0,0:0:0:0:
392,108,183089,2,4,B|376:176|376:176|396:252,1,140,4|4,0:3|0:0,0:0:0:0:
310,320,183732,6,0,L|380:320,1,70,0|4,0:0|0:0,0:0:0:0:
248,272,184161,2,0,L|168:272,1,70,0|4,0:0|0:0,0:0:0:0:
104,252,184589,1,4,0:0:0:0:
32,284,184804,2,0,P|28:232|52:192,1,70,4|0,0:0|0:0,0:0:0:0:
92,164,185232,6,4,P|132:112|96:40,1,140,4|8,0:0|0:0,0:0:0:0:
32,48,185875,1,4,0:3:0:0:
108,48,186089,2,0,L|184:48,1,70,4|4,0:3|0:3,0:0:0:0:
256,56,186518,2,4,B|256:108|256:108|272:144|272:144|272:216,1,140,8|4,0:0|0:3,0:0:0:0:
272,268,187161,1,4,0:3:0:0:
236,336,187375,2,0,P|280:344|324:324,1,70,8|4,0:0|0:3,0:0:0:0:
356,284,187804,2,0,B|380:216|380:216|356:140,1,140,4|8,0:3|0:0,0:0:0:0:
284,132,188447,1,4,0:3:0:0:
228,184,188661,6,0,P|168:196|140:116,1,140,4|8,0:3|0:0,0:0:0:0:
132,60,189304,2,0,L|36:60,1,70,0|4,0:0|0:3,0:0:0:0:
12,120,189732,1,4,0:3:0:0:
32,196,189947,2,0,P|44:276|24:340,1,140,8|4,0:0|0:3,0:0:0:0:
96,372,190589,1,0,0:0:0:0:
164,336,190804,2,0,L|240:336,1,70,4|0,0:0|0:0,0:0:0:0:
304,368,191232,2,0,P|308:316|296:292,1,70,4|0,0:0|0:0,0:0:0:0:
256,240,191661,1,4,0:3:0:0:
344,156,191875,1,4,0:3:0:0:
425,246,192089,6,0,P|413:190|317:162,1,140,4|8,0:0|0:0,0:0:0:0:
276,116,192732,1,4,0:3:0:0:
208,84,192946,2,0,B|140:84|140:84|76:128,1,140,4|8,0:3|0:0,0:0:0:0:
60,200,193589,1,4,0:3:0:0:
92,268,193804,2,0,L|140:320,1,70,4|4,0:3|0:3,0:0:0:0:
216,320,194232,2,0,L|264:268,1,70,8|4,0:0|0:3,0:0:0:0:
332,304,194661,2,0,P|284:264|280:184,1,140,4|8,0:3|0:0,0:0:0:0:
332,136,195304,1,4,0:3:0:0:
256,116,195518,6,0,L|108:116,1,140,4|8,0:3|0:0,0:0:0:0:
60,172,196161,1,4,0:3:0:0:
28,240,196375,1,4,0:3:0:0:
104,236,196589,1,4,0:3:0:0:
180,236,196804,2,0,B|232:236|232:236|268:216|268:216|316:216,1,140,8|4,0:0|0:3,0:0:0:0:
392,84,197661,5,4,0:0:0:0:
240,88,198089,1,4,0:0:0:0:
168,116,198304,2,0,L|116:184,1,70
104,244,198732,2,0,L|104:328,1,70,4|4,0:3|0:0,0:0:0:0:
176,336,199161,5,4,0:3:0:0:
248,312,199375,2,0,B|288:312|288:312|340:292,1,70,8|0,0:0|0:0,0:0:0:0:
376,256,199804,2,0,P|360:184|380:100,1,140,4|8,0:3|0:0,0:0:0:0:
432,72,200446,1,4,0:3:0:0:
360,40,200661,2,0,L|216:40,1,140,4|8,0:3|0:0,0:0:0:0:
152,80,201303,1,4,0:3:0:0:
128,152,201518,2,0,P|132:204|116:240,1,70,4|4,0:3|0:3,0:0:0:0:
208,292,201946,2,0,P|204:240|220:204,1,70,8|4,0:0|0:3,0:0:0:0:
252,160,202375,6,0,B|288:144|320:148|320:148|360:164|416:136,1,140,4|8,0:3|0:0,0:0:0:0:
452,192,203018,2,0,L|456:348,1,140
380,348,203661,2,0,B|332:348|332:348|288:332|288:332|232:332,1,140,8|4,0:0|0:3,0:0:0:0:
152,208,204518,6,0,L|152:116,1,70,4|0,0:0|0:0,0:0:0:0:
152,60,204946,1,4,0:0:0:0:
296,112,205375,1,4,0:3:0:0:
364,152,205589,1,4,0:3:0:0:
424,204,205803,6,0,P|448:264|404:340,1,140,4|8,0:0|0:0,0:0:0:0:
344,316,206446,1,0,0:0:0:0:
268,300,206661,2,0,P|196:280|124:312,1,140,0|8,0:0|0:0,0:0:0:0:
76,348,207303,1,4,0:3:0:0:
16,300,207518,2,0,L|16:144,1,140,4|8,0:3|0:0,0:0:0:0:
84,120,208161,1,0,0:0:0:0:
156,96,208375,2,0,B|212:96|212:96|256:120|320:88,1,140,0|8,0:0|0:0,0:0:0:0:
352,52,209018,1,0,0:0:0:0:
388,120,209232,6,0,B|408:164|400:208|400:208|360:256,1,140,0|8,0:0|0:0,0:0:0:0:
296,276,209875,1,0,0:0:0:0:
224,304,210089,2,0,L|124:304,1,70
100,248,210518,2,0,L|100:156,1,70,8|0,0:0|0:0,0:0:0:0:
36,132,210946,2,0,P|84:104|168:136,1,140,0|8,0:0|0:0,0:0:0:0:
212,184,211589,1,4,0:3:0:0:
268,132,211803,2,0,B|272:96|272:96|264:36,1,70,4|0,0:0|0:0,0:0:0:0:
200,28,212232,1,4,0:0:0:0:
352,28,212660,6,0,P|400:96|456:84,1,140,0|8,0:0|0:0,0:0:0:0:
492,152,213303,1,0,0:0:0:0:
484,228,213518,2,0,L|324:228,1,140,0|8,0:0|0:0,0:0:0:0:
268,232,214160,1,0,0:0:0:0:
196,264,214375,2,0,P|192:216|208:176,1,70
244,136,214803,2,0,P|250:101|245:67,1,70,8|0,0:0|0:0,0:0:0:0:
176,100,215232,2,0,L|344:100,1,140,0|8,0:0|0:0,0:0:0:0:
392,100,215875,1,0,0:0:0:0:
412,176,216089,6,0,B|432:236|392:272|392:272|392:336,1,140,0|4,0:0|0:0,0:0:0:0:
328,348,216732,1,0,0:0:0:0:
260,316,216946,2,0,B|188:304|188:304|112:304,1,140,0|4,0:0|0:0,0:0:0:0:
44,316,217589,1,4,0:0:0:0:
12,248,217803,2,0,P|3:215|10:181,1,70
88,172,218232,1,0,0:0:0:0:
128,108,218446,1,0,0:0:0:0:
204,124,218660,2,0,B|268:96|268:96|360:96,2,140,0|0|4,0:0|0:0|0:0,0:0:0:0:
256,192,219732,12,4,226375,0:0:0:0:
