osu file format v14

[General]
AudioFilename: banashi.mp3
AudioLeadIn: 0
PreviewTime: 195740
Countdown: 0
SampleSet: Soft
StackLeniency: 0.7
Mode: 0
LetterboxInBreaks: 0
WidescreenStoryboard: 0

[Editor]
Bookmarks: 103700
DistanceSpacing: 1.1
BeatDivisor: 4
GridSize: 4
TimelineZoom: 0.9

[Metadata]
Title:Otogi Banashi feat. Hatsune Miku
TitleUnicode:音偽バナシfeat. 初音ミク
Artist:DECO*27
ArtistUnicode:DECO*27
Creator:TT Mouse
Version:Normal
Source:
Tags:Conti New Hatsune Miku Vocaloid Deco27
BeatmapID:639509
BeatmapSetID:274813

[Difficulty]
HPDrainRate:3
CircleSize:3
OverallDifficulty:3
ApproachRate:4
SliderMultiplier:0.900000005960464
SliderTickRate:1

[Events]
//Background and Video events
0,0,"BG.jpg",0,0
//Break Periods
//Storyboard Layer 0 (Background)
//Storyboard Layer 1 (Fail)
//Storyboard Layer 2 (Pass)
//Storyboard Layer 3 (Foreground)
//Storyboard Sound Samples

[TimingPoints]
1940,480,4,2,2,39,1,0
1940,-100,4,2,2,39,0,0
9620,-100,4,2,1,55,0,0
17300,-100,4,2,2,39,0,0
32660,-100,4,2,2,60,0,0
40340,-100,4,2,2,39,0,0
48020,-100,4,2,2,56,0,0
55580,-100,4,2,2,65,0,0
59180,-100,4,2,2,20,0,0
59420,-100,4,2,2,58,0,0
63980,-100,4,2,2,70,0,0
65300,-100,4,2,3,80,0,0
80660,-90.9090909090909,4,2,2,90,0,1
96020,-100,4,2,2,56,0,0
103700,-100,4,2,2,65,0,0
111380,-111.111111111111,4,2,1,39,0,0
126740,-100,4,2,2,50,0,0
130580,-100,4,2,1,39,0,0
138260,-100,4,2,2,50,0,0
145940,-100,4,2,2,60,0,0
153620,-100,4,2,2,39,0,0
163220,-100,4,2,1,60,0,0
176660,-100,4,2,2,70,0,0
180500,-100,4,2,3,80,0,0
194300,-100,4,2,2,85,0,0
195860,-100,4,2,2,90,0,1
210500,-100,4,2,2,5,0,0
212180,-100,4,2,1,30,0,0

[HitObjects]
216,287,1940,6,0,P|190:315|133:342,2,90.0000005960464,2|0|0,0:0|0:0|0:0,0:0:0:0:
168,210,3380,1,0,0:0:0:0:
80,188,3860,2,0,P|147:119|233:148,1,180.000001192093,2|0,0:0|0:0,0:0:0:0:
272,210,5300,1,0,0:0:0:0:
360,228,5780,6,0,P|384:279|385:328,2,90.0000005960464,2|0|0,0:0|0:0|0:0,0:0:0:0:
330,143,7220,1,0,0:0:0:0:
310,55,7700,2,0,P|386:70|411:169,1,180.000001192093,2|0,0:0|0:0,0:0:0:0:
238,118,9620,5,8,0:0:0:0:
152,89,10100,1,8,0:0:0:0:
82,146,10580,1,8,0:0:0:0:
99,234,11060,1,8,0:0:0:0:
164,295,11540,2,0,P|131:323|79:325,2,90.0000005960464,2|2|2,0:0|0:0|0:0,0:0:0:0:
252,309,12980,1,2,0:0:0:0:
305,236,13460,5,8,0:0:0:0:
215,225,13940,1,8,0:0:0:0:
270,153,14420,1,8,0:0:0:0:
180,140,14900,1,8,0:0:0:0:
198,51,15380,2,0,P|153:56|115:82,2,90.0000005960464,2|2|2,0:0|0:0|0:0,0:0:0:0:
285,71,16820,1,2,0:0:0:0:
372,51,17300,6,0,P|393:123|390:237,1,180.000001192093,8|0,0:0|0:0,0:0:0:0:
286,311,18980,1,8,0:0:0:0:
241,316,19220,2,0,P|220:216|233:132,1,180.000001192093,8|0,0:0|0:0,0:0:0:0:
129,50,20900,5,8,0:0:0:0:
117,93,21140,2,0,P|120:138|101:195,1,90.0000005960464,8|0,0:0|0:0,0:0:0:0:
37,236,22100,2,0,P|73:268|126:270,1,90.0000005960464
157,265,22820,1,8,0:0:0:0:
200,253,23060,2,0,B|271:260|271:260|294:316|363:327,1,180.000001192093,8|0,0:0|0:0,0:0:0:0:
459,242,24740,5,8,0:0:0:0:
414,235,24980,2,0,P|393:186|444:66,1,180.000001192093,8|0,0:0|0:0,0:0:0:0:
301,48,26660,1,8,0:0:0:0:
292,92,26900,2,0,P|255:105|189:114,1,90.0000005960464,8|0,0:0|0:0,0:0:0:0:
121,79,27860,2,0,P|111:149|97:184,1,90.0000005960464
71,198,28580,5,8,0:0:0:0:
31,220,28820,2,0,P|62:276|179:285,1,180.000001192093,8|0,0:0|0:0,0:0:0:0:
300,259,30500,1,8,0:0:0:0:
268,227,30740,2,0,P|246:169|293:57,1,180.000001192093,8|0,0:0|0:0,0:0:0:0:
392,145,32420,5,0,0:0:0:0:
429,169,32660,2,0,P|431:212|451:266,1,90.0000005960464,4|0,0:0|0:0,0:0:0:0:
391,328,33620,2,0,P|347:321|291:327,1,90.0000005960464,2|0,0:0|0:0,0:0:0:0:
278,237,34580,2,0,P|313:196|330:162,1,90.0000005960464,8|0,0:0|0:0,0:0:0:0:
298,79,35540,1,2,0:0:0:0:
208,70,36020,1,0,0:0:0:0:
170,94,36260,1,0,0:0:0:0:
132,119,36500,6,0,P|92:191|74:204,1,90.0000005960464,8|0,0:0|0:0,0:0:0:0:
103,283,37460,2,0,P|162:281|202:295,1,90.0000005960464,2|0,0:0|0:0,0:0:0:0:
244,217,38420,2,0,P|228:167|232:123,1,90.0000005960464,8|0,0:0|0:0,0:0:0:0:
313,95,39380,1,2,0:0:0:0:
377,157,39860,1,0,0:0:0:0:
335,237,40340,5,2,0:0:0:0:
424,242,40820,2,0,P|451:210|467:148,1,90.0000005960464
384,57,42020,1,0,0:0:0:0:
343,75,42260,2,0,B|297:80|239:48|239:48|200:65|189:117,1,180.000001192093,2|0,0:0|0:0,0:0:0:0:
193,189,43700,1,0,0:0:0:0:
274,228,44180,6,0,P|242:272|191:281,1,90.0000005960464,2|0,0:0|0:0,0:0:0:0:
122,259,45140,2,0,P|92:212|92:172,1,90.0000005960464
106,136,45860,1,0,0:0:0:0:
146,108,46100,2,0,P|192:95|251:113,1,90.0000005960464,2|0,0:0|0:0,0:0:0:0:
312,144,47060,2,0,P|365:153|399:141,1,90.0000005960464
427,108,47780,1,0,0:0:0:0:
461,78,48020,6,0,P|495:133|472:254,1,180.000001192093,2|0,0:0|0:0,0:0:0:0:
390,254,49460,1,0,0:0:0:0:
300,254,49940,2,0,P|311:309|350:343,2,90.0000005960464,2|0|0,0:0|0:0|0:0,0:0:0:0:
341,174,51380,1,0,0:0:0:0:
376,91,51860,6,0,P|313:88|252:186,1,180.000001192093,2|0,0:0|0:0,0:0:0:0:
187,239,53300,1,0,0:0:0:0:
102,208,53780,2,0,L|69:281,2,67.5000004470348,2|0|0,0:0|0:0|0:0,0:0:0:0:
102,163,54740,2,0,L|68:123,2,45.0000002980232,8|0|2,0:0|0:0|0:0,0:0:0:0:
189,140,55700,6,0,L|195:54,2,67.5000004470348,8|8|8,0:0|0:0|0:0,0:0:0:0:
219,172,56660,1,8,0:0:0:0:
373,78,57620,2,0,L|457:79,2,67.5000004470348,8|8|8,0:0|0:0|0:0,0:0:0:0:
340,109,58580,1,8,0:0:0:0:
356,288,59540,6,0,L|435:261,2,67.5000004470348,8|8|8,0:0|0:0|0:0,0:0:0:0:
311,283,60500,1,8,0:0:0:0:
166,176,61460,2,0,P|175:263|125:344,2,180.000001192093,8|8|10,0:0|0:0|0:0,0:0:0:0:
303,60,64340,1,8,0:0:0:0:
427,189,65300,5,4,0:0:0:0:
340,164,65780,2,0,P|334:216|337:258,1,90.0000005960464,2|8,0:0|0:0,0:0:0:0:
380,332,66740,1,2,0:0:0:0:
290,331,67220,2,0,P|233:335|188:352,1,90.0000005960464,8|2,0:0|0:0,0:0:0:0:
113,326,68180,1,8,0:0:0:0:
71,245,68660,1,2,0:0:0:0:
154,211,69140,6,0,P|119:168|75:156,2,90.0000005960464,8|2|8,0:0|0:0|0:0,0:0:0:0:
242,195,70580,1,2,0:0:0:0:
211,279,71060,2,0,P|287:272|331:179,1,180.000001192093,8|8,0:0|0:0,0:0:0:0:
280,113,72500,1,2,0:0:0:0:
190,120,72980,5,8,0:0:0:0:
100,107,73460,2,0,P|70:64|61:23,2,90.0000005960464,2|8|2,0:0|0:0|0:0,0:0:0:0:
76,193,74900,2,0,P|66:256|71:296,1,90.0000005960464,8|2,0:0|0:0,0:0:0:0:
139,336,75860,1,8,0:0:0:0:
218,293,76340,1,2,0:0:0:0:
294,340,76820,6,0,P|304:284|292:237,1,90.0000005960464,8|2,0:0|0:0,0:0:0:0:
223,202,77780,1,8,0:0:0:0:
136,175,78260,1,2,0:0:0:0:
47,189,78740,2,0,P|42:240|37:281,2,90.0000005960464,8|2|8,0:0|0:0|0:0,0:0:0:0:
52,144,79940,1,2,0:0:0:0:
57,99,80180,1,8,0:0:0:0:
160,131,80660,6,8,P|182:83|184:72,1,49.5000018384457,12|0,0:0|0:0,0:0:0:0:
210,40,81140,1,2,0:0:0:0:
267,60,81380,2,0,P|319:97|339:145,1,99.0000036768914,8|8,0:0|0:0,0:0:0:0:
315,173,82100,1,10,0:0:0:0:
392,234,82580,1,8,0:0:0:0:
358,327,83060,1,2,0:0:0:0:
310,312,83300,2,0,P|252:307|199:314,1,99.0000036768914,8|8,0:0|0:0,0:0:0:0:
165,329,84020,1,2,0:0:0:0:
56,321,84500,6,0,L|51:264,1,49.5000018384457,8|0,0:0|0:0,0:0:0:0:
60,217,84980,1,2,0:0:0:0:
105,186,85220,2,0,P|115:131|99:73,1,99.0000036768914,8|8,0:0|0:0,0:0:0:0:
71,54,85940,1,2,0:0:0:0:
163,19,86420,1,8,0:0:0:0:
226,94,86900,1,2,0:0:0:0:
267,121,87140,2,0,P|339:123|364:115,1,99.0000036768914,8|8,0:0|0:0,0:0:0:0:
397,78,87860,1,2,0:0:0:0:
491,132,88340,6,0,L|502:181,1,49.5000018384457,8|0,0:0|0:0,0:0:0:0:
496,234,88820,1,2,0:0:0:0:
488,286,89060,2,0,P|445:307|378:296,1,99.0000036768914,8|8,0:0|0:0,0:0:0:0:
348,322,89780,1,2,0:0:0:0:
256,284,90260,1,8,0:0:0:0:
245,185,90740,1,2,0:0:0:0:
195,180,90980,2,0,P|149:227|138:272,1,99.0000036768914,8|8,0:0|0:0,0:0:0:0:
150,306,91700,1,2,0:0:0:0:
46,271,92180,6,0,L|9:229,1,49.5000018384457,8|0,0:0|0:0,0:0:0:0:
23,180,92660,1,2,0:0:0:0:
35,124,92900,2,0,L|131:97,1,99.0000036768914,8|8,0:0|0:0,0:0:0:0:
161,58,93620,1,2,0:0:0:0:
259,53,94100,2,0,P|303:81|331:132,1,99.0000036768914,8|8,0:0|0:0,0:0:0:0:
324,169,94820,1,2,0:0:0:0:
324,169,96020,6,0,P|327:239|344:263,1,90.0000005960464,8|0,0:0|0:0,0:0:0:0:
260,302,96980,2,0,P|187:291|119:320,1,135.00000089407,2|0,0:0|0:0,0:0:0:0:
88,326,97940,2,0,P|63:289|52:232,1,90.0000005960464,8|0,0:0|0:0,0:0:0:0:
122,189,98900,1,2,0:0:0:0:
88,105,99380,1,0,0:0:0:0:
164,57,99860,6,0,L|260:54,1,90.0000005960464,8|0,0:0|0:0,0:0:0:0:
337,88,100820,2,0,P|330:139|381:218,1,135.00000089407,2|0,0:0|0:0,0:0:0:0:
414,206,101780,2,0,P|418:256|394:295,1,90.0000005960464,8|0,0:0|0:0,0:0:0:0:
309,283,102740,1,2,0:0:0:0:
240,341,103220,1,0,0:0:0:0:
179,274,103700,6,0,B|144:287|113:323|113:323|59:291|43:242,1,180.000001192093,8|2,0:0|0:0,0:0:0:0:
107,186,105140,1,0,0:0:0:0:
124,97,105620,2,0,P|110:43|91:14,2,90.0000005960464,8|0|2,0:0|0:0|0:0,0:0:0:0:
211,118,107060,1,0,0:0:0:0:
191,205,107540,6,0,P|264:193|301:89,1,180.000001192093,8|2,0:0|0:0,0:0:0:0:
242,34,108980,1,0,0:0:0:0:
339,12,109460,1,8,0:0:0:0:
404,91,109940,2,0,P|458:87|487:68,2,90.0000005960464,0|2|0,0:0|0:0|0:0,0:0:0:0:
374,187,111380,6,0,P|375:260|418:301,1,121.499997096777,8|0,0:0|0:0,0:0:0:0:
191,344,113300,2,0,P|250:329|309:343,1,121.499997096777,8|0,0:0|0:0,0:0:0:0:
138,187,115220,6,0,P|137:260|94:301,1,121.499997096777,8|0,0:0|0:0,0:0:0:0:
312,114,117140,2,0,P|253:128|194:115,1,121.499997096777,8|0,0:0|0:0,0:0:0:0:
387,35,119060,6,0,P|432:85|449:151,2,121.499997096777,8|0|0,0:0|0:0|0:0,0:0:0:0:
307,52,120980,2,0,P|233:59|174:45,2,121.499997096777,8|0|0,0:0|0:0|0:0,0:0:0:0:
356,126,122900,6,0,B|364:178|335:227|335:227|350:301,2,161.999996129036,8|8|8,0:0|0:0|0:0,0:0:0:0:
178,146,125780,1,0,0:0:0:0:
232,216,126260,1,0,0:0:0:0:
134,234,126740,6,0,P|146:268|195:303,2,90.0000005960464,8|0|0,0:0|0:0|0:0,0:0:0:0:
82,149,128180,1,0,0:0:0:0:
128,62,128660,2,0,B|193:38|246:81|246:81|308:72,1,180.000001192093,8|0,0:0|0:0,0:0:0:0:
390,34,130100,1,0,0:0:0:0:
425,126,130580,6,0,B|433:188|401:244|401:244|431:301,2,180.000001192093,2|2|2,0:0|0:0|0:0,0:0:0:0:
283,155,133460,1,2,0:0:0:0:
312,295,134420,6,0,P|234:289|160:211,2,180.000001192093,2|2|2,0:0|0:0|0:0,0:0:0:0:
283,153,137300,1,2,0:0:0:0:
139,146,138260,6,0,L|42:147,2,90.0000005960464,8|0|2,0:0|0:0|0:0,0:0:0:0:
208,75,139700,1,0,0:0:0:0:
303,49,140180,2,0,L|412:48,2,90.0000005960464,8|0|2,0:0|0:0|0:0,0:0:0:0:
282,145,141620,1,0,0:0:0:0:
260,241,142100,6,0,P|214:216|188:176,2,90.0000005960464,8|0|2,0:0|0:0|0:0,0:0:0:0:
353,207,143540,1,0,0:0:0:0:
417,281,144020,2,0,P|404:350|395:371,2,90.0000005960464,8|0|2,0:0|0:0|0:0,0:0:0:0:
444,185,145460,1,0,0:0:0:0:
430,86,145940,6,0,P|393:99|359:130,2,67.5000004470348,8|8|8,0:0|0:0|0:0,0:0:0:0:
479,87,146900,1,8,0:0:0:0:
283,55,147860,2,0,P|250:72|202:81,2,67.5000004470348,8|8|8,0:0|0:0|0:0,0:0:0:0:
319,22,148820,1,8,0:0:0:0:
287,217,149780,6,0,P|288:270|296:301,2,67.5000004470348,8|8|8,0:0|0:0|0:0,0:0:0:0:
302,170,150740,1,8,0:0:0:0:
105,194,151700,2,0,P|71:142|69:123,2,67.5000004470348,8|8|8,0:0|0:0|0:0,0:0:0:0:
146,221,152660,2,0,P|135:279|124:300,1,67.5000004470348,8|0,0:0|0:0,0:0:0:0:
249,323,153620,6,0,P|341:340|440:315,1,180.000001192093,2|0,0:0|0:0,0:0:0:0:
468,262,154940,1,0,0:0:0:0:
432,196,155300,1,0,0:0:0:0:
432,196,155540,2,0,B|434:122|473:70|473:70|430:28,1,180.000001192093,2|0,0:0|0:0,0:0:0:0:
366,30,156860,1,0,0:0:0:0:
314,83,157220,5,0,0:0:0:0:
314,83,157460,2,0,P|291:144|320:263,1,180.000001192093,2|0,0:0|0:0,0:0:0:0:
330,325,158780,1,0,0:0:0:0:
259,348,159140,1,0,0:0:0:0:
259,348,159380,2,0,P|198:326|180:328,1,67.5000004470348,2|0,0:0|0:0,0:0:0:0:
123,339,160100,1,0,0:0:0:0:
123,339,160340,2,0,P|144:294|127:161,1,180.000001192093
82,79,163220,6,0,P|125:88|188:75,1,90.0000005960464,2|0,0:0|0:0,0:0:0:0:
256,32,164180,1,2,0:0:0:0:
343,77,164660,1,0,0:0:0:0:
327,174,165140,2,0,P|329:222|358:271,2,90.0000005960464,2|0|2,0:0|0:0|0:0,0:0:0:0:
228,164,166580,1,0,0:0:0:0:
142,213,167060,6,0,P|133:266|144:317,1,90.0000005960464,2|0,0:0|0:0,0:0:0:0:
236,286,168020,1,0,0:0:0:0:
319,339,168500,1,2,0:0:0:0:
417,325,168980,2,0,P|440:279|446:235,1,90.0000005960464,0|2,0:0|0:0,0:0:0:0:
375,170,169940,1,0,0:0:0:0:
446,101,170420,1,2,0:0:0:0:
364,45,170900,6,0,P|307:73|237:65,1,135.00000089407,2|2,0:0|0:0,0:0:0:0:
91,36,172340,1,2,0:0:0:0:
150,115,172820,2,0,P|174:180|171:260,1,135.00000089407,2|2,0:0|0:0,0:0:0:0:
49,325,174260,1,2,0:0:0:0:
147,336,174740,6,0,P|220:327|294:340,1,135.00000089407,2|2,0:0|0:0,0:0:0:0:
418,282,176180,1,2,0:0:0:0:
328,240,176660,1,8,0:0:0:0:
376,153,177140,1,0,0:0:0:0:
463,199,177620,1,8,0:0:0:0:
379,137,180500,5,8,0:0:0:0:
294,84,180980,2,0,P|281:131|286:191,1,90.0000005960464,2|8,0:0|0:0,0:0:0:0:
356,237,181940,1,2,0:0:0:0:
263,270,182420,2,0,P|209:262|166:272,1,90.0000005960464,8|2,0:0|0:0,0:0:0:0:
97,331,183380,1,8,0:0:0:0:
40,249,183860,1,2,0:0:0:0:
77,157,184340,6,0,L|55:55,2,90.0000005960464,8|2|8,0:0|0:0|0:0,0:0:0:0:
174,141,185780,1,2,0:0:0:0:
252,201,186260,2,0,P|320:181|368:77,1,180.000001192093,8|8,0:0|0:0,0:0:0:0:
452,36,187700,1,2,0:0:0:0:
491,126,188180,5,8,0:0:0:0:
432,205,188660,2,0,L|458:307,1,90.0000005960464,2|8,0:0|0:0,0:0:0:0:
369,344,189620,1,2,0:0:0:0:
300,272,190100,1,8,0:0:0:0:
224,336,190580,2,0,P|207:280|213:233,1,90.0000005960464,2|8,0:0|0:0,0:0:0:0:
275,176,191540,1,2,0:0:0:0:
373,166,192020,6,0,P|365:110|344:76,1,90.0000005960464,8|2,0:0|0:0,0:0:0:0:
249,81,192980,1,8,0:0:0:0:
161,127,193460,2,0,L|125:174,1,45.0000002980232,2|0,0:0|0:0,0:0:0:0:
85,173,193940,2,0,P|85:227|114:263,1,90.0000005960464,12|0,0:0|0:0,0:0:0:0:
202,270,194900,2,0,L|262:250,1,45.0000002980232,8|0,0:0|0:0,0:0:0:0:
292,270,195380,1,8,0:0:0:0:
372,327,195860,6,0,L|426:299,1,45.0000002980232,8|0,0:0|0:0,0:0:0:0:
412,256,196340,1,2,0:0:0:0:
385,203,196580,2,0,P|392:156|433:116,1,90.0000005960464,8|8,0:0|0:0,0:0:0:0:
466,113,197300,1,2,0:0:0:0:
407,32,197780,1,8,0:0:0:0:
311,58,198260,1,2,0:0:0:0:
290,103,198500,2,0,P|256:139|200:163,1,90.0000005960464,8|8,0:0|0:0,0:0:0:0:
170,161,199220,1,2,0:0:0:0:
112,80,199700,6,0,L|73:124,1,45.0000002980232,8|0,0:0|0:0,0:0:0:0:
67,160,200180,1,2,0:0:0:0:
91,202,200420,2,0,P|87:263|70:298,1,90.0000005960464,8|8,0:0|0:0,0:0:0:0:
36,319,201140,1,2,0:0:0:0:
126,357,201620,1,8,0:0:0:0:
210,305,202100,1,2,0:0:0:0:
259,309,202340,2,0,L|273:209,1,90.0000005960464,8|8,0:0|0:0,0:0:0:0:
282,171,203060,1,2,0:0:0:0:
362,228,203540,6,0,L|428:236,1,45.0000002980232,8|0,0:0|0:0,0:0:0:0:
456,229,204020,1,2,0:0:0:0:
495,199,204260,2,0,P|484:137|485:94,1,90.0000005960464,8|8,0:0|0:0,0:0:0:0:
492,61,204980,1,2,0:0:0:0:
397,90,205460,1,8,0:0:0:0:
304,55,205940,1,2,0:0:0:0:
265,85,206180,2,0,P|204:90|159:72,1,90.0000005960464,8|8,0:0|0:0,0:0:0:0:
144,44,206900,1,2,0:0:0:0:
83,121,207380,6,0,L|89:181,1,45.0000002980232,8|0,0:0|0:0,0:0:0:0:
90,215,207860,1,2,0:0:0:0:
100,263,208100,2,0,P|139:296|194:301,1,90.0000005960464,8|8,0:0|0:0,0:0:0:0:
230,296,208820,1,2,0:0:0:0:
271,268,209060,1,0,0:0:0:0:
307,234,209300,2,0,P|320:173|310:133,2,90.0000005960464,8|2|2,0:0|0:0|0:0,0:0:0:0:
389,260,212180,5,2,0:0:0:0:
389,260,213140,2,0,P|424:222|434:125,1,135.00000089407,2|0,0:0|0:0,0:0:0:0:
420,95,214100,2,0,B|329:92|329:92|308:45,1,135.00000089407,2|0,0:0|0:0,0:0:0:0:
311,52,215060,2,0,B|241:117|241:117|232:168,1,135.00000089407,2|0,0:0|0:0,0:0:0:0:
226,204,216020,1,2,0:0:0:0:
226,204,216980,6,0,P|293:221|357:205,1,135.00000089407,2|0,0:0|0:0,0:0:0:0:
395,175,217940,2,0,P|410:238|396:315,1,135.00000089407,2|0,0:0|0:0,0:0:0:0:
357,332,218900,2,0,P|288:325|205:341,1,135.00000089407,2|0,0:0|0:0,0:0:0:0:
176,352,219860,1,2,0:0:0:0:
176,352,220820,5,2,0:0:0:0:
65,260,221780,1,2,0:0:0:0:
106,122,222740,1,2,0:0:0:0:
245,87,223700,1,2,0:0:0:0:
254,185,224180,5,0,0:0:0:0:
267,283,224660,2,0,L|321:310,1,45.0000002980232,2|0,0:0|0:0,0:0:0:0:
355,314,225140,2,0,L|394:286,1,45.0000002980232
436,267,225620,2,0,L|486:334,2,67.5000004470348,2|0|0,0:0|0:0|0:0,0:0:0:0:
