osu file format v14

[General]
AudioFilename: banashi.mp3
AudioLeadIn: 0
PreviewTime: 195740
Countdown: 0
SampleSet: Soft
StackLeniency: 0.7
Mode: 0
LetterboxInBreaks: 0
WidescreenStoryboard: 0

[Editor]
Bookmarks: 103700
DistanceSpacing: 1.1
BeatDivisor: 4
GridSize: 4
TimelineZoom: 1.6

[Metadata]
Title:Otogi Banashi feat. Hatsune Miku
TitleUnicode:音偽バナシfeat. 初音ミク
Artist:DECO*27
ArtistUnicode:DECO*27
Creator:TT Mouse
Version:Insane
Source:
Tags:Conti New Hatsune Miku Vocaloid Deco27
BeatmapID:623591
BeatmapSetID:274813

[Difficulty]
HPDrainRate:7
CircleSize:3.7
OverallDifficulty:6.5
ApproachRate:8
SliderMultiplier:1.3
SliderTickRate:1

[Events]
//Background and Video events
0,0,"BG.jpg",0,0
//Break Periods
//Storyboard Layer 0 (Background)
//Storyboard Layer 1 (Fail)
//Storyboard Layer 2 (Pass)
//Storyboard Layer 3 (Foreground)
//Storyboard Sound Samples

[TimingPoints]
1940,480,4,2,2,39,1,0
9620,-100,4,2,1,55,0,0
17300,-100,4,2,2,39,0,0
32660,-83.3333333333333,4,2,2,60,0,0
40340,-83.3333333333333,4,2,2,39,0,0
48020,-83.3333333333333,4,2,2,56,0,0
55580,-111.111111111111,4,2,2,65,0,0
59180,-111.111111111111,4,2,2,20,0,0
59420,-111.111111111111,4,2,2,58,0,0
63980,-111.111111111111,4,2,2,70,0,0
65300,-80,4,2,3,80,0,0
72980,-74.0740740740741,4,2,3,80,0,0
80660,-60.6060606060606,4,2,3,90,0,1
96020,-83.3333333333333,4,2,2,56,0,0
103700,-74.0740740740741,4,2,2,65,0,0
111380,-105.263157894737,4,2,1,39,0,0
126740,-86.9565217391304,4,2,1,50,0,0
130580,-86.9565217391304,4,2,1,39,0,0
138260,-86.9565217391304,4,2,2,50,0,0
145940,-111.111111111111,4,2,2,60,0,0
153620,-111.111111111111,4,2,1,39,0,0
161060,-111.111111111111,4,2,1,5,0,0
163220,-99.9999999999999,4,2,3,60,0,0
163940,-99.9999999999999,4,2,3,27,0,0
164660,-99.9999999999999,4,2,3,60,0,0
165860,-99.9999999999999,4,2,3,27,0,0
166580,-99.9999999999999,4,2,3,60,0,0
167780,-99.9999999999999,4,2,3,27,0,0
168500,-99.9999999999999,4,2,3,60,0,0
169700,-99.9999999999999,4,2,3,27,0,0
170420,-99.9999999999999,4,2,3,60,0,0
171620,-99.9999999999999,4,2,3,27,0,0
172340,-99.9999999999999,4,2,3,60,0,0
173540,-99.9999999999999,4,2,3,27,0,0
174260,-99.9999999999999,4,2,3,60,0,0
175460,-99.9999999999999,4,2,3,27,0,0
175700,-99.9999999999999,4,2,3,60,0,0
176660,-99.9999999999999,4,2,3,70,0,0
180500,-76.9230769230769,4,2,3,80,0,0
194300,-68.9655172413793,4,2,3,85,0,0
195860,-68.9655172413793,4,2,2,90,0,1
210500,-68.9655172413793,4,2,3,5,0,0
212180,-133.333333333333,4,2,1,30,0,0

[HitObjects]
150,81,1940,5,2,0:0:0:0:
150,81,2300,2,0,P|199:63|266:70,1,97.5,0|0,0:0|0:0,0:0:0:0:
331,98,2900,2,0,L|395:66,2,65,0|0|0,0:0|0:0|0:0,0:0:0:0:
256,153,3620,1,0,0:0:0:0:
256,153,3860,6,0,P|276:203|319:243,1,97.5,2|0,0:0|0:0,0:0:0:0:
421,247,4580,1,0,0:0:0:0:
421,247,4820,2,0,P|398:310|338:345,1,130
219,291,5780,5,2,0:0:0:0:
219,291,6140,2,0,P|254:249|264:186,1,97.5,0|0,0:0|0:0,0:0:0:0:
237,122,6740,2,0,P|208:116|165:94,2,65,0|0|0,0:0|0:0|0:0,0:0:0:0:
331,140,7460,1,0,0:0:0:0:
331,140,7700,6,0,P|361:96|369:31,1,97.5,2|0,0:0|0:0,0:0:0:0:
465,144,8420,1,0,0:0:0:0:
465,144,8660,2,0,L|496:279,1,130
356,309,9620,5,8,0:0:0:0:
224,253,10100,1,8,0:0:0:0:
83,281,10580,1,8,0:0:0:0:
111,140,11060,1,8,0:0:0:0:
235,77,11540,5,2,0:0:0:0:
243,71,12020,1,2,0:0:0:0:
254,65,12500,1,2,0:0:0:0:
265,59,12980,1,2,0:0:0:0:
276,53,13460,5,8,0:0:0:0:
407,15,13940,1,8,0:0:0:0:
490,131,14420,1,8,0:0:0:0:
395,238,14900,1,8,0:0:0:0:
259,192,15380,5,2,0:0:0:0:
254,204,15860,1,2,0:0:0:0:
249,216,16340,1,2,0:0:0:0:
244,228,16820,1,2,0:0:0:0:
239,240,17300,5,8,0:0:0:0:
112,306,17780,2,0,P|88:227|95:164,1,130,0|0,0:0|0:0,0:0:0:0:
134,45,18740,1,0,0:0:0:0:
191,137,18980,1,8,0:0:0:0:
191,137,19220,6,0,P|276:137|330:115,1,130,8|0,0:0|0:0,0:0:0:0:
382,198,19940,2,0,L|362:265,2,65,0|0|0,0:0|0:0|0:0,0:0:0:0:
409,105,20660,1,0,0:0:0:0:
371,18,20900,1,8,0:0:0:0:
371,18,21140,6,0,L|315:78,1,65,8|0,0:0|0:0,0:0:0:0:
234,153,21620,2,0,P|238:90|205:23,1,130
88,61,22580,1,0,0:0:0:0:
131,150,22820,1,8,0:0:0:0:
131,150,23060,6,0,P|137:222|118:300,1,130,8|0,0:0|0:0,0:0:0:0:
63,344,23780,2,0,P|41:313|28:275,2,65,0|0|0,0:0|0:0|0:0,0:0:0:0:
152,366,24500,1,0,0:0:0:0:
226,310,24740,1,8,0:0:0:0:
226,310,24980,6,0,P|244:228|281:169,1,130,8|0,0:0|0:0,0:0:0:0:
337,139,25700,1,0,0:0:0:0:
337,139,25940,2,0,L|371:198,2,65,0|0|0,0:0|0:0|0:0,0:0:0:0:
252,99,26660,1,8,0:0:0:0:
252,99,26900,6,0,L|112:132,1,130,8|0,0:0|0:0,0:0:0:0:
39,138,27620,2,0,P|20:103|13:54,2,65,0|0|0,0:0|0:0|0:0,0:0:0:0:
88,214,28340,1,0,0:0:0:0:
42,297,28580,1,8,0:0:0:0:
42,297,28820,6,0,P|114:299|173:250,1,130,8|0,0:0|0:0,0:0:0:0:
171,180,29540,1,0,0:0:0:0:
171,180,29780,2,0,L|302:209,1,130
350,290,30500,1,8,0:0:0:0:
350,290,30740,6,0,P|390:234|373:152,1,130,8|0,0:0|0:0,0:0:0:0:
349,84,31460,2,0,P|392:79|428:85,2,65
275,147,32180,1,0,0:0:0:0:
213,75,32420,1,8,0:0:0:0:
137,126,32660,6,0,P|149:172|170:217,1,77.999997619629,4|0,0:0|0:0,0:0:0:0:
166,214,33020,1,0,0:0:0:0:
174,226,33140,1,2,0:0:0:0:
261,285,33380,1,0,0:0:0:0:
119,316,33620,2,0,L|38:321,2,77.999997619629,8|0|2,0:0|0:0|0:0,0:0:0:0:
201,368,34340,1,0,0:0:0:0:
303,373,34580,6,0,P|337:341|357:293,1,77.999997619629,8|0,0:0|0:0,0:0:0:0:
356,295,34940,1,0,0:0:0:0:
357,279,35060,1,2,0:0:0:0:
325,176,35300,1,0,0:0:0:0:
394,91,35540,2,0,L|474:82,2,77.999997619629,8|0|2,0:0|0:0|0:0,0:0:0:0:
283,76,36260,1,0,0:0:0:0:
211,161,36500,6,0,L|224:256,1,77.999997619629,12|0,0:0|0:0,0:0:0:0:
223,253,36860,1,0,0:0:0:0:
225,268,36980,1,2,0:0:0:0:
237,365,37220,1,0,0:0:0:0:
95,331,37460,2,0,L|14:343,2,77.999997619629,8|0|2,0:0|0:0|0:0,0:0:0:0:
125,227,38180,1,0,0:0:0:0:
104,121,38420,6,0,P|87:77|62:32,1,77.999997619629,8|0,0:0|0:0,0:0:0:0:
72,49,38780,1,0,0:0:0:0:
72,49,38900,1,2,0:0:0:0:
197,64,39140,1,0,0:0:0:0:
258,161,39380,2,0,P|311:130|328:27,1,155.999995239258,8|2,0:0|0:0,0:0:0:0:
453,194,40340,5,8,0:0:0:0:
331,321,40820,2,0,L|240:296,1,77.999997619629,0|0,0:0|0:0,0:0:0:0:
152,336,41300,1,8,0:0:0:0:
152,336,41420,2,0,P|145:293|155:250,1,77.999997619629,2|0,0:0|0:0,0:0:0:0:
171,238,41780,1,0,0:0:0:0:
86,152,42020,1,0,0:0:0:0:
86,152,42260,6,0,P|122:105|132:64,1,77.999997619629,8|0,0:0|0:0,0:0:0:0:
320,68,42740,2,0,P|289:133|284:154,1,77.999997619629,0|0,0:0|0:0,0:0:0:0:
331,254,43220,1,8,0:0:0:0:
331,254,43340,2,0,P|288:255|239:248,1,77.999997619629,2|0,0:0|0:0,0:0:0:0:
225,229,43700,1,0,0:0:0:0:
297,349,43940,1,0,0:0:0:0:
297,349,44180,6,0,P|358:354|392:361,1,77.999997619629,8|0,0:0|0:0,0:0:0:0:
470,196,44660,2,0,P|409:191|375:184,1,77.999997619629
330,122,45140,2,0,L|365:76,1,38.9999988098145,8|2,0:0|0:0,0:0:0:0:
353,90,45620,2,0,L|244:121,1,77.999997619629
285,212,46100,6,0,P|278:252|262:294,1,77.999997619629,8|0,0:0|0:0,0:0:0:0:
65,325,46580,2,0,P|72:285|88:243,1,77.999997619629
165,157,47060,2,0,L|183:202,1,38.9999988098145,8|2,0:0|0:0,0:0:0:0:
179,193,47540,2,0,L|87:161,1,77.999997619629
70,148,47900,1,0,0:0:0:0:
58,114,48020,6,0,P|92:52|93:36,1,77.999997619629,12|0,0:0|0:0,0:0:0:0:
209,27,48500,2,0,P|242:57|294:69,1,77.999997619629,8|0,0:0|0:0,0:0:0:0:
371,47,48980,1,0,0:0:0:0:
277,154,49220,1,0,0:0:0:0:
372,47,49460,1,0,0:0:0:0:
418,211,49700,1,0,0:0:0:0:
371,47,49940,6,0,P|391:99|454:143,1,116.999996429443,8|0,0:0|0:0,0:0:0:0:
502,180,50420,2,0,P|514:143|508:105,1,77.999997619629,8|0,0:0|0:0,0:0:0:0:
418,211,50900,2,0,B|407:256|428:289|428:289|473:307,1,116.999996429443
404,360,51380,2,0,P|364:354|314:333,1,77.999997619629
239,285,51860,6,0,P|200:278|153:283,1,77.999997619629,12|0,0:0|0:0,0:0:0:0:
140,271,52220,1,0,0:0:0:0:
121,257,52340,1,8,0:0:0:0:
194,365,52580,1,0,0:0:0:0:
200,184,52820,2,0,L|204:95,1,77.999997619629,0|0,0:0|0:0,0:0:0:0:
309,206,53300,2,0,L|325:287,1,77.999997619629
400,155,53780,6,0,B|368:86|368:86|325:72,1,116.999996429443,8|0,0:0|0:0,0:0:0:0:
253,103,54260,2,0,L|280:132,1,38.9999988098145,8|0,0:0|0:0,0:0:0:0:
159,64,54500,2,0,L|164:25,1,38.9999988098145,8|0,0:0|0:0,0:0:0:0:
96,134,54740,1,8,0:0:0:0:
95,156,54860,1,8,0:0:0:0:
95,177,54980,1,2,0:0:0:0:
131,258,55220,2,0,L|54:258,1,77.999997619629,2|0,0:0|0:0,0:0:0:0:
190,335,55700,6,0,P|240:311|277:273,1,87.7499973220826,12|0,0:0|0:0,0:0:0:0:
412,330,56420,1,0,0:0:0:0:
453,253,56660,2,0,L|528:273,2,58.4999982147217,8|0|0,0:0|0:0|0:0,0:0:0:0:
407,179,57380,1,0,0:0:0:0:
407,179,57620,6,0,P|419:126|421:80,1,87.7499973220826,8|0,0:0|0:0,0:0:0:0:
258,61,58340,1,0,0:0:0:0:
186,105,58580,2,0,P|169:63|168:27,2,58.4999982147217,8|0|0,0:0|0:0|0:0,0:0:0:0:
196,187,59300,5,8,0:0:0:0:
196,208,59420,1,8,0:0:0:0:
196,227,59540,2,0,L|151:316,1,87.7499973220826,12|0,0:0|0:0,0:0:0:0:
330,334,60260,1,0,0:0:0:0:
388,231,60500,2,0,P|423:257|442:297,2,87.7499973220826,8|0|0,0:0|0:0|0:0,0:0:0:0:
280,226,61460,6,0,L|302:116,2,87.7499973220826,8|8|8,0:0|0:0|0:0,0:0:0:0:
199,319,62420,1,8,0:0:0:0:
130,123,62900,1,8,0:0:0:0:
93,202,63140,5,8,0:0:0:0:
93,202,63260,1,8,0:0:0:0:
93,202,63380,2,0,P|144:208|195:179,1,87.7499973220826,12|0,0:0|0:0,0:0:0:0:
201,64,64100,1,0,0:0:0:0:
294,249,64340,1,8,0:0:0:0:
286,142,64580,1,0,0:0:0:0:
294,249,64820,1,8,0:0:0:0:
294,249,65300,5,12,0:0:0:0:
353,57,65540,1,0,0:0:0:0:
439,197,65780,1,2,0:0:0:0:
286,142,66020,1,0,0:0:0:0:
439,197,66260,2,0,P|444:243|435:287,1,81.25,8|0,0:0|0:0,0:0:0:0:
318,339,66740,1,2,0:0:0:0:
357,205,66980,1,0,0:0:0:0:
318,339,67220,6,0,P|310:286|291:258,1,81.25,8|0,0:0|0:0,0:0:0:0:
215,336,67700,1,2,0:0:0:0:
400,289,67940,1,0,0:0:0:0:
268,144,68180,2,0,P|233:159|194:203,1,81.25
137,277,68660,1,2,0:0:0:0:
28,254,68900,1,0,0:0:0:0:
133,88,69140,5,12,0:0:0:0:
137,277,69380,1,0,0:0:0:0:
29,136,69620,1,2,0:0:0:0:
199,177,69860,1,0,0:0:0:0:
28,254,70100,2,0,P|39:316|55:341,1,81.25,8|0,0:0|0:0,0:0:0:0:
239,289,70580,2,0,P|282:281|340:290,1,81.25,2|0,0:0|0:0,0:0:0:0:
411,333,71060,5,8,0:0:0:0:
322,141,71300,1,8,0:0:0:0:
420,217,71540,1,8,0:0:0:0:
240,288,71780,1,8,0:0:0:0:
322,141,72020,2,0,L|367:109,1,40.625,8|0,0:0|0:0,0:0:0:0:
247,46,72260,2,0,L|242:86,1,40.625,8|0,0:0|0:0,0:0:0:0:
202,193,72500,1,2,0:0:0:0:
92,255,72740,1,2,0:0:0:0:
202,193,72980,6,0,P|200:242|176:284,1,87.7500003347397,12|0,0:0|0:0,0:0:0:0:
104,112,73460,1,2,0:0:0:0:
248,44,73700,1,0,0:0:0:0:
248,44,73940,2,0,L|368:61,1,87.7500003347397,8|0,0:0|0:0,0:0:0:0:
431,191,74420,2,0,L|331:177,1,87.7500003347397,2|0,0:0|0:0,0:0:0:0:
209,281,74900,6,0,L|304:297,1,87.7500003347397,8|0,0:0|0:0,0:0:0:0:
480,266,75380,1,2,0:0:0:0:
394,345,75620,1,0,0:0:0:0:
431,192,75860,2,0,L|453:99,1,87.7500003347397,8|0,0:0|0:0,0:0:0:0:
273,35,76340,2,0,L|251:135,1,87.7500003347397,2|0,0:0|0:0,0:0:0:0:
210,279,76820,5,12,0:0:0:0:
151,158,77060,1,0,0:0:0:0:
312,229,77300,1,2,0:0:0:0:
151,157,77540,1,0,0:0:0:0:
210,279,77780,2,0,P|202:332|164:381,1,87.7500003347397,8|0,0:0|0:0,0:0:0:0:
80,274,78260,1,2,0:0:0:0:
312,227,78500,1,0,0:0:0:0:
151,158,78740,6,0,P|153:88|164:52,1,87.7500003347397,8|0,0:0|0:0,0:0:0:0:
297,141,79220,1,2,0:0:0:0:
418,61,79460,1,8,0:0:0:0:
418,61,79580,1,8,0:0:0:0:
418,61,79700,1,10,0:0:0:0:
457,269,79940,1,8,0:0:0:0:
296,141,80180,1,10,0:0:0:0:
323,343,80420,1,8,0:0:0:0:
334,66,80660,6,0,L|190:51,1,107.250001022816,12|2,0:0|0:0,0:0:0:0:
92,312,81140,2,0,L|236:327,1,107.250001022816,8|2,0:0|0:0,0:0:0:0:
335,56,81620,2,0,L|191:41,1,107.250001022816,8|2,0:0|0:0,0:0:0:0:
93,302,82100,2,0,L|237:317,1,107.250001022816,8|2,0:0|0:0,0:0:0:0:
336,45,82580,6,0,L|192:30,1,107.250001022816,12|2,0:0|0:0,0:0:0:0:
94,291,83060,2,0,L|238:306,1,107.250001022816,8|2,0:0|0:0,0:0:0:0:
399,318,83540,1,8,0:0:0:0:
252,195,83780,1,2,0:0:0:0:
295,370,84020,1,2,0:0:0:0:
361,209,84260,1,2,0:0:0:0:
67,244,84500,6,0,L|122:347,1,107.250001022816,12|2,0:0|0:0,0:0:0:0:
438,181,84980,2,0,L|375:73,1,107.250001022816,8|2,0:0|0:0,0:0:0:0:
79,239,85460,2,0,L|134:342,1,107.250001022816,8|2,0:0|0:0,0:0:0:0:
450,176,85940,2,0,L|387:68,1,107.250001022816,8|2,0:0|0:0,0:0:0:0:
93,234,86420,6,0,L|148:337,1,107.250001022816,12|2,0:0|0:0,0:0:0:0:
464,171,86900,2,0,L|401:63,1,107.250001022816,0|2,0:0|0:0,0:0:0:0:
282,68,87380,1,8,0:0:0:0:
201,157,87620,1,2,0:0:0:0:
242,269,87860,1,2,0:0:0:0:
282,68,88100,1,2,0:0:0:0:
241,270,88340,6,0,P|298:289|371:281,1,107.250001022816,12|2,0:0|0:0,0:0:0:0:
308,186,88820,1,8,0:0:0:0:
174,341,89060,1,2,0:0:0:0:
136,212,89300,1,8,0:0:0:0:
50,334,89540,1,2,0:0:0:0:
13,198,89780,2,0,P|44:147|88:118,1,107.250001022816,8|2,0:0|0:0,0:0:0:0:
261,38,90260,6,0,P|242:85|191:130,1,107.250001022816,12|2,0:0|0:0,0:0:0:0:
138,31,90740,1,8,0:0:0:0:
355,107,90980,1,2,0:0:0:0:
355,107,91220,2,0,P|360:176|350:219,1,107.250001022816,8|2,0:0|0:0,0:0:0:0:
264,350,91700,1,2,0:0:0:0:
253,226,91940,1,2,0:0:0:0:
392,327,92180,5,12,0:0:0:0:
194,290,92420,1,2,0:0:0:0:
327,149,92660,1,8,0:0:0:0:
265,349,92900,1,2,0:0:0:0:
91,250,93140,2,0,P|115:171|139:144,1,107.250001022816,8|2,0:0|0:0,0:0:0:0:
257,75,93620,1,8,0:0:0:0:
253,224,93860,1,8,0:0:0:0:
156,47,94100,6,0,L|50:37,1,107.250001022816,12|2,0:0|0:0,0:0:0:0:
253,224,94580,2,0,L|367:227,1,107.250001022816,8|2,0:0|0:0,0:0:0:0:
360,226,95060,1,2,0:0:0:0:
440,143,96020,5,8,0:0:0:0:
359,63,96260,1,0,0:0:0:0:
339,62,96380,1,0,0:0:0:0:
319,62,96500,2,0,L|253:119,1,77.999997619629
168,196,96980,1,8,0:0:0:0:
68,94,97220,2,0,L|104:78,1,38.9999988098145
104,78,97460,2,0,P|94:163|88:173,1,77.999997619629
61,257,97940,6,0,P|99:310|130:333,1,77.999997619629,8|0,0:0|0:0,0:0:0:0:
108,318,98300,1,0,0:0:0:0:
108,318,98420,1,0,0:0:0:0:
220,287,98660,1,0,0:0:0:0:
314,355,98900,2,0,P|351:301|365:256,1,77.999997619629,8|0,0:0|0:0,0:0:0:0:
355,289,99260,1,0,0:0:0:0:
355,289,99380,1,8,0:0:0:0:
291,199,99620,1,0,0:0:0:0:
176,212,99860,5,8,0:0:0:0:
222,114,100100,1,0,0:0:0:0:
233,97,100220,1,0,0:0:0:0:
244,81,100340,2,0,L|330:83,1,77.999997619629
408,166,100820,1,8,0:0:0:0:
357,291,101060,2,0,L|383:321,1,38.9999988098145
383,321,101300,2,0,P|393:255|385:223,1,77.999997619629
253,174,101780,6,0,P|247:246|259:286,1,77.999997619629,8|0,0:0|0:0,0:0:0:0:
247,250,102140,1,0,0:0:0:0:
247,250,102260,1,0,0:0:0:0:
169,320,102500,1,0,0:0:0:0:
71,276,102740,1,8,0:0:0:0:
79,163,102980,1,0,0:0:0:0:
79,163,103100,1,0,0:0:0:0:
79,163,103220,2,0,P|136:140|158:114,1,77.999997619629
179,43,103700,6,0,P|229:66|291:75,1,87.7500003347397,12|0,0:0|0:0,0:0:0:0:
291,72,104060,1,0,0:0:0:0:
327,69,104180,2,0,L|363:159,1,87.7500003347397,8|0,0:0|0:0,0:0:0:0:
398,250,104660,1,8,0:0:0:0:
452,103,104900,1,0,0:0:0:0:
394,261,105140,1,0,0:0:0:0:
448,114,105380,1,0,0:0:0:0:
390,269,105620,6,0,P|327:304|292:304,1,87.7500003347397,8|0,0:0|0:0,0:0:0:0:
271,292,105980,1,0,0:0:0:0:
235,279,106100,2,0,P|223:338|233:365,1,87.7500003347397,8|0,0:0|0:0,0:0:0:0:
315,215,106580,2,0,P|327:156|317:129,1,87.7500003347397,8|0,0:0|0:0,0:0:0:0:
186,169,107060,2,0,P|104:147|84:135,1,87.7500003347397
26,259,107540,6,0,P|108:281|128:293,1,87.7500003347397,12|0,0:0|0:0,0:0:0:0:
122,300,107900,1,0,0:0:0:0:
137,320,108020,2,0,L|223:268,1,87.7500003347397,8|0,0:0|0:0,0:0:0:0:
318,207,108500,1,8,0:0:0:0:
295,369,108740,1,0,0:0:0:0:
394,300,108980,1,0,0:0:0:0:
211,273,109220,1,0,0:0:0:0:
394,300,109460,6,0,P|444:241|445:213,1,87.7500003347397,8|0,0:0|0:0,0:0:0:0:
443,212,109820,1,0,0:0:0:0:
440,190,109940,2,0,L|430:94,1,87.7500003347397,8|0,0:0|0:0,0:0:0:0:
383,21,110420,2,0,B|347:30|328:68|328:68|282:97|196:74,1,175.500000669479,8|0,0:0|0:0,0:0:0:0:
230,81,111380,6,0,L|179:23,2,61.7499983510972,2|0|0,0:0|0:0|0:0,0:0:0:0:
287,154,112100,1,2,0:0:0:0:
287,154,113300,5,2,0:0:0:0:
230,219,113540,1,0,0:0:0:0:
273,293,113780,1,0,0:0:0:0:
359,289,114020,1,2,0:0:0:0:
359,289,115220,5,2,0:0:0:0:
273,293,115460,1,0,0:0:0:0:
230,219,115700,1,0,0:0:0:0:
287,154,115940,1,2,0:0:0:0:
287,154,117140,6,0,L|365:168,2,61.7499983510972,2|0|0,0:0|0:0|0:0,0:0:0:0:
202,134,117860,1,2,0:0:0:0:
202,134,119060,5,2,0:0:0:0:
175,216,119300,1,0,0:0:0:0:
91,195,119540,1,0,0:0:0:0:
115,112,119780,1,2,0:0:0:0:
115,112,120980,5,2,0:0:0:0:
91,195,121220,1,0,0:0:0:0:
175,216,121460,1,0,0:0:0:0:
202,134,121700,1,2,0:0:0:0:
202,134,122900,6,0,B|279:129|327:76|327:76|387:94,1,185.249995053291,2|0,0:0|0:0,0:0:0:0:
355,168,123860,2,0,P|434:141|438:43,1,185.249995053291,2|0,0:0|0:0,0:0:0:0:
370,88,124820,6,0,B|457:139|457:139|446:191|466:241,1,185.249995053291,2|0,0:0|0:0,0:0:0:0:
508,308,125780,1,2,0:0:0:0:
359,232,126260,1,2,0:0:0:0:
359,232,126740,6,0,L|306:291,1,74.7500014257431,12|0,0:0|0:0,0:0:0:0:
163,310,127220,2,0,L|216:251,1,74.7500014257431,2|0,0:0|0:0,0:0:0:0:
256,184,127700,1,8,0:0:0:0:
238,103,127940,1,0,0:0:0:0:
167,60,128180,1,2,0:0:0:0:
88,83,128420,1,0,0:0:0:0:
40,149,128660,6,0,P|65:203|42:301,1,149.500002851486,8|2,0:0|0:0,0:0:0:0:
208,244,129620,1,8,0:0:0:0:
344,335,130100,1,2,0:0:0:0:
491,261,130580,6,0,B|509:211|509:174|509:174|523:147,2,112.125002138615,2|0|0,0:0|0:0|0:0,0:0:0:0:
464,339,131540,1,2,0:0:0:0:
393,237,131900,1,0,0:0:0:0:
270,249,132260,1,0,0:0:0:0:
238,324,132500,6,0,P|193:284|189:227,2,112.125002138615,2|0|0,0:0|0:0|0:0,0:0:0:0:
320,319,133460,1,2,0:0:0:0:
343,197,133820,1,0,0:0:0:0:
268,98,134180,1,0,0:0:0:0:
186,106,134420,6,0,P|127:103|74:83,2,112.125002138615,2|0|0,0:0|0:0|0:0,0:0:0:0:
220,31,135380,1,2,0:0:0:0:
343,32,135740,1,0,0:0:0:0:
431,118,136100,1,0,0:0:0:0:
393,190,136340,6,0,P|408:248|448:288,2,112.125002138615,2|0|0,0:0|0:0|0:0,0:0:0:0:
352,118,137300,1,2,0:0:0:0:
253,192,137660,1,0,0:0:0:0:
141,138,138020,1,0,0:0:0:0:
141,138,138260,6,0,P|131:201|154:254,1,112.125002138615,12|0,0:0|0:0,0:0:0:0:
186,258,138740,2,0,P|147:316|121:325,1,74.7500014257431,8|0,0:0|0:0,0:0:0:0:
274,328,139220,2,0,P|313:270|339:261,1,74.7500014257431,8|0,0:0|0:0,0:0:0:0:
412,268,139700,1,0,0:0:0:0:
415,177,139940,1,0,0:0:0:0:
415,177,140180,6,0,P|355:163|293:166,2,112.125002138615,8|0|0,0:0|0:0|0:0,0:0:0:0:
481,226,141140,1,2,0:0:0:0:
423,72,141620,1,2,0:0:0:0:
342,56,141860,1,0,0:0:0:0:
342,56,142100,6,0,P|286:56|231:43,1,112.125002138615,12|0,0:0|0:0,0:0:0:0:
196,20,142580,2,0,L|158:91,1,74.7500014257431,8|0,0:0|0:0,0:0:0:0:
176,226,143060,2,0,L|214:155,1,74.7500014257431,0|0,0:0|0:0,0:0:0:0:
267,220,143540,1,0,0:0:0:0:
317,284,143780,1,0,0:0:0:0:
317,284,144020,6,0,P|348:213|329:166,2,112.125002138615,8|0|0,0:0|0:0|0:0,0:0:0:0:
236,300,144980,1,2,0:0:0:0:
147,161,145460,2,0,P|129:104|128:66,1,74.7500014257431,2|0,0:0|0:0,0:0:0:0:
66,168,145940,6,0,L|40:265,1,87.7499973220826,12|8,0:0|0:0,0:0:0:0:
153,353,146660,1,8,0:0:0:0:
237,300,146900,2,0,L|334:332,2,87.7499973220826,8|0|0,0:0|0:0|0:0,0:0:0:0:
225,200,147860,6,0,P|222:151|233:99,1,87.7499973220826,8|8,0:0|0:0,0:0:0:0:
365,53,148580,1,8,0:0:0:0:
407,142,148820,2,0,P|457:97|471:56,2,87.7499973220826,8|0|0,0:0|0:0|0:0,0:0:0:0:
376,151,149660,1,8,0:0:0:0:
343,152,149780,6,0,P|335:225|342:250,1,87.7499973220826,12|8,0:0|0:0,0:0:0:0:
224,335,150500,1,8,0:0:0:0:
156,262,150740,2,0,P|89:239|64:240,2,87.7499973220826,8|0|0,0:0|0:0|0:0,0:0:0:0:
240,209,151700,5,8,0:0:0:0:
219,61,152060,1,8,0:0:0:0:
97,147,152420,1,8,0:0:0:0:
196,138,152660,2,0,L|307:127,1,87.7499973220826,8|0,0:0|0:0,0:0:0:0:
315,126,153140,1,8,0:0:0:0:
347,123,153260,1,8,0:0:0:0:
378,119,153380,1,2,0:0:0:0:
446,190,153620,6,0,P|429:252|431:290,1,87.7499973220826,6|0,0:0|0:0,0:0:0:0:
287,324,154340,1,0,0:0:0:0:
190,299,154580,2,0,P|178:234|165:203,1,87.7499973220826,2|0,0:0|0:0,0:0:0:0:
102,81,155300,1,0,0:0:0:0:
193,120,155540,6,0,P|258:97|278:73,1,87.7499973220826,2|0,0:0|0:0,0:0:0:0:
298,231,156260,1,0,0:0:0:0:
378,289,156500,2,0,P|379:336|363:377,1,87.7499973220826,2|0,0:0|0:0,0:0:0:0:
454,228,157220,1,0,0:0:0:0:
396,146,157460,6,0,P|391:65|400:36,1,87.7499973220826,2|0,0:0|0:0,0:0:0:0:
250,105,158180,1,0,0:0:0:0:
152,124,158420,2,0,P|96:100|70:79,2,87.7499973220826,2|0|0,0:0|0:0|0:0,0:0:0:0:
218,197,159380,5,2,0:0:0:0:
133,319,159740,1,2,0:0:0:0:
282,324,160100,1,2,0:0:0:0:
282,324,160340,6,0,P|362:241|341:124,1,233.999992858887
346,131,163220,6,0,L|427:105,2,65,12|0|2,0:0|0:0|0:0,0:0:0:0:
210,84,163940,2,0,L|224:32,5,32.5,8|8|8|8|8|8,0:0|0:0|0:0|0:0|0:0|0:0,0:0:0:0:
173,115,164660,2,0,P|194:146|202:181,1,65,2|0,0:0|0:0,0:0:0:0:
101,266,165140,6,0,P|79:234|72:200,1,65,8|0,0:0|0:0,0:0:0:0:
205,274,165620,2,0,P|271:287|290:286,1,65,2|8,0:0|0:0,0:0:0:0:
289,276,165980,1,8,0:0:0:0:
308,254,166100,2,0,L|318:205,1,32.5,8|8,0:0|0:0,0:0:0:0:
411,248,166340,2,0,L|447:202,1,32.5,8|8,0:0|0:0,0:0:0:0:
474,332,166580,2,0,P|411:359|387:356,1,65,2|0,0:0|0:0,0:0:0:0:
308,252,167060,6,0,L|274:175,1,65,12|0,0:0|0:0,0:0:0:0:
259,80,167540,2,0,P|234:83|201:107,1,65,2|8,0:0|0:0,0:0:0:0:
189,132,167900,1,8,0:0:0:0:
179,159,168020,2,0,L|198:215,1,32.5,8|8,0:0|0:0,0:0:0:0:
106,233,168260,2,0,L|94:264,1,32.5,8|8,0:0|0:0,0:0:0:0:
154,344,168500,2,0,P|177:321|191:292,1,65,2|0,0:0|0:0,0:0:0:0:
321,292,168980,6,0,P|341:330|366:350,2,65,8|0|2,0:0|0:0|0:0,0:0:0:0:
356,208,169700,1,8,0:0:0:0:
368,189,169820,1,8,0:0:0:0:
382,171,169940,2,0,P|411:167|443:177,1,32.5,8|8,0:0|0:0,0:0:0:0:
484,113,170180,2,0,P|484:88|499:62,1,32.5,8|8,0:0|0:0,0:0:0:0:
418,27,170420,2,0,P|385:34|351:33,1,65,2|0,0:0|0:0,0:0:0:0:
252,109,170900,6,0,P|253:141|244:192,2,65,12|0|2,0:0|0:0|0:0,0:0:0:0:
162,53,171620,2,0,L|119:31,4,32.5,8|8|8|8|8,0:0|0:0|0:0|0:0|0:0,0:0:0:0:
107,143,172340,1,2,0:0:0:0:
176,227,172580,1,0,0:0:0:0:
111,307,172820,6,0,P|140:325|197:334,1,65,8|0,0:0|0:0,0:0:0:0:
169,333,173180,1,8,0:0:0:0:
169,333,173300,1,2,0:0:0:0:
290,284,173540,2,0,L|321:329,4,32.5,8|8|8|8|8,0:0|0:0|0:0|0:0|0:0,0:0:0:0:
319,170,174260,1,2,0:0:0:0:
405,254,174500,1,0,0:0:0:0:
319,170,174740,6,0,P|317:93|323:79,2,65,12|0|2,0:0|0:0|0:0,0:0:0:0:
209,198,175460,1,8,0:0:0:0:
209,198,175580,1,8,0:0:0:0:
209,198,175700,2,0,P|213:259|207:283,1,65,8|0,0:0|0:0,0:0:0:0:
121,318,176180,2,0,P|184:358|203:358,1,65,2|0,0:0|0:0,0:0:0:0:
354,246,176660,5,8,0:0:0:0:
275,363,176900,1,8,0:0:0:0:
287,123,177140,1,8,0:0:0:0:
277,349,177380,1,8,0:0:0:0:
289,109,177620,1,8,0:0:0:0:
289,109,180500,5,12,0:0:0:0:
421,199,180740,1,0,0:0:0:0:
397,27,180980,1,2,0:0:0:0:
289,109,181220,1,0,0:0:0:0:
421,199,181460,2,0,P|489:159|500:138,1,84.4999961318971,8|0,0:0|0:0,0:0:0:0:
382,118,181940,1,2,0:0:0:0:
332,258,182180,1,0,0:0:0:0:
332,258,182420,6,0,P|282:257|248:243,1,84.4999961318971,8|0,0:0|0:0,0:0:0:0:
220,162,182900,1,2,0:0:0:0:
138,303,183140,1,0,0:0:0:0:
305,177,183380,1,8,0:0:0:0:
148,216,183620,1,0,0:0:0:0:
88,132,183860,1,2,0:0:0:0:
163,53,184100,1,0,0:0:0:0:
260,88,184340,6,0,P|316:80|350:59,1,84.4999961318971,12|0,0:0|0:0,0:0:0:0:
305,177,184820,2,0,P|300:250|309:276,1,84.4999961318971,2|0,0:0|0:0,0:0:0:0:
375,327,185300,1,8,0:0:0:0:
212,294,185540,1,0,0:0:0:0:
282,362,185780,1,2,0:0:0:0:
393,230,186020,5,8,0:0:0:0:
407,209,186140,1,8,0:0:0:0:
422,189,186260,2,0,L|400:99,1,84.4999961318971,8|0,0:0|0:0,0:0:0:0:
296,80,186740,1,2,0:0:0:0:
276,228,186980,1,0,0:0:0:0:
212,95,187220,2,0,L|184:29,1,42.2499980659486,8|0,0:0|0:0,0:0:0:0:
101,95,187460,2,0,L|44:85,1,42.2499980659486
34,192,187700,1,2,0:0:0:0:
88,296,187940,1,2,0:0:0:0:
292,338,188180,6,0,P|253:317|213:307,1,84.4999961318971,12|0,0:0|0:0,0:0:0:0:
180,180,188660,1,2,0:0:0:0:
88,296,188900,1,0,0:0:0:0:
257,231,189140,2,0,P|272:168|264:128,1,84.4999961318971,8|0,0:0|0:0,0:0:0:0:
185,59,189620,2,0,P|267:30|284:32,1,84.4999961318971,2|0,0:0|0:0,0:0:0:0:
370,93,190100,6,0,P|411:85|449:66,1,84.4999961318971,8|0,0:0|0:0,0:0:0:0:
389,223,190580,1,2,0:0:0:0:
484,170,190820,1,0,0:0:0:0:
315,166,191060,1,8,0:0:0:0:
360,303,191300,1,0,0:0:0:0:
369,93,191540,1,2,0:0:0:0:
285,245,191780,5,8,0:0:0:0:
285,245,191900,1,8,0:0:0:0:
285,245,192020,2,0,P|275:301|242:354,1,84.4999961318971,12|0,0:0|0:0,0:0:0:0:
111,264,192500,1,2,0:0:0:0:
167,354,192740,1,0,0:0:0:0:
190,195,192980,2,0,L|200:95,1,84.4999961318971,8|0,0:0|0:0,0:0:0:0:
207,18,193460,1,2,0:0:0:0:
303,128,193700,5,8,0:0:0:0:
303,128,193820,1,8,0:0:0:0:
303,128,193940,1,8,0:0:0:0:
86,139,194180,1,8,0:0:0:0:
300,270,194420,1,2,0:0:0:0:
326,261,194540,1,0,0:0:0:0:
352,252,194660,1,2,0:0:0:0:
378,243,194780,1,0,0:0:0:0:
404,232,194900,6,0,L|447:131,1,94.2500028762818,14|0,0:0|0:0,0:0:0:0:
461,90,195260,1,0,0:0:0:0:
432,47,195380,2,0,P|390:64|310:49,1,94.2500028762818,14|0,0:0|0:0,0:0:0:0:
215,32,195860,5,12,0:0:0:0:
321,226,196100,1,2,0:0:0:0:
328,94,196340,1,8,0:0:0:0:
180,265,196580,1,0,0:0:0:0:
222,49,196820,5,8,0:0:0:0:
328,243,197060,1,2,0:0:0:0:
335,111,197300,1,8,0:0:0:0:
187,282,197540,1,0,0:0:0:0:
202,51,197780,6,0,B|158:70|158:70|111:128,1,94.2500028762818,12|2,0:0|0:0,0:0:0:0:
212,334,198260,2,0,B|256:315|256:315|303:257,1,94.2500028762818,8|0,0:0|0:0,0:0:0:0:
454,116,198740,1,8,0:0:0:0:
461,267,198980,1,2,0:0:0:0:
328,270,199220,1,8,0:0:0:0:
326,111,199460,1,0,0:0:0:0:
461,267,199700,6,0,P|427:344|411:361,1,94.2500028762818,12|2,0:0|0:0,0:0:0:0:
327,111,200180,2,0,P|361:34|377:17,1,94.2500028762818,8|0,0:0|0:0,0:0:0:0:
451,262,200660,2,0,P|417:339|401:356,1,94.2500028762818,8|2,0:0|0:0,0:0:0:0:
317,106,201140,2,0,P|351:29|367:12,1,94.2500028762818,8|0,0:0|0:0,0:0:0:0:
453,120,201620,5,12,0:0:0:0:
309,271,201860,1,2,0:0:0:0:
219,132,202100,1,8,0:0:0:0:
380,194,202340,1,0,0:0:0:0:
194,331,202580,2,0,P|210:286|214:240,1,94.2500028762818,8|2,0:0|0:0,0:0:0:0:
129,60,203060,2,0,P|113:104|109:151,1,94.2500028762818,8|0,0:0|0:0,0:0:0:0:
328,123,203540,5,12,0:0:0:0:
147,251,203780,1,2,0:0:0:0:
227,45,204020,1,8,0:0:0:0:
280,253,204260,1,0,0:0:0:0:
341,137,204500,5,8,0:0:0:0:
160,265,204740,1,2,0:0:0:0:
240,59,204980,1,8,0:0:0:0:
293,267,205220,1,0,0:0:0:0:
339,21,205460,6,0,P|341:67|328:112,1,94.2500028762818,12|2,0:0|0:0,0:0:0:0:
292,318,205940,2,0,P|286:272|294:226,1,94.2500028762818,8|0,0:0|0:0,0:0:0:0:
406,201,206420,1,8,0:0:0:0:
369,350,206660,1,2,0:0:0:0:
206,315,206900,1,8,0:0:0:0:
249,163,207140,1,0,0:0:0:0:
406,201,207380,6,0,L|476:291,1,94.2500028762818,12|2,0:0|0:0,0:0:0:0:
207,316,207860,2,0,L|137:226,1,94.2500028762818,8|0,0:0|0:0,0:0:0:0:
391,207,208340,2,0,L|461:297,1,94.2500028762818,8|2,0:0|0:0,0:0:0:0:
192,322,208820,1,8,0:0:0:0:
104,203,209060,1,0,0:0:0:0:
208,88,209300,5,12,0:0:0:0:
291,210,209540,1,2,0:0:0:0:
192,322,209780,1,10,0:0:0:0:
200,170,210020,2,0,P|330:116|378:252,1,282.750008628845,2|0,0:0|0:0,0:0:0:0:
388,217,212180,6,0,L|458:168,2,73.1250027894975,2|0|2,0:0|0:0|0:0,0:0:0:0:
315,282,213140,2,0,P|313:325|328:365,2,73.1250027894975,2|0|2,0:0|0:0|0:0,0:0:0:0:
301,185,214100,1,2,0:0:0:0:
218,305,214460,1,0,0:0:0:0:
82,249,214820,1,2,0:0:0:0:
130,160,215060,6,0,P|157:185|174:218,2,73.1250027894975,2|0|2,0:0|0:0|0:0,0:0:0:0:
54,99,216020,2,0,P|51:46|58:20,2,73.1250027894975,2|0|2,0:0|0:0|0:0,0:0:0:0:
145,64,216980,1,2,0:0:0:0:
247,168,217340,1,0,0:0:0:0:
356,71,217700,1,2,0:0:0:0:
392,161,217940,6,0,P|424:189|455:211,2,73.1250027894975,2|0|2,0:0|0:0|0:0,0:0:0:0:
325,233,218900,2,0,P|298:255|248:277,1,73.1250027894975,2|0,0:0|0:0,0:0:0:0:
123,230,219620,1,2,0:0:0:0:
183,153,219860,2,0,P|193:95|189:73,2,73.1250027894975,2|0|2,0:0|0:0|0:0,0:0:0:0:
123,230,220820,6,0,P|118:276|124:321,2,73.1250027894975,2|0|2,0:0|0:0|0:0,0:0:0:0:
219,241,221780,2,0,P|274:266|304:272,1,73.1250027894975,2|0,0:0|0:0,0:0:0:0:
412,224,222500,1,2,0:0:0:0:
366,149,222740,2,0,P|362:103|373:61,1,73.1250027894975,2|0,0:0|0:0,0:0:0:0:
228,24,223460,1,2,0:0:0:0:
147,58,223700,6,0,P|111:89|95:118,2,73.1250027894975,2|0|2,0:0|0:0|0:0,0:0:0:0:
217,109,224660,1,2,0:0:0:0:
254,188,224900,1,2,0:0:0:0:
254,188,225020,1,2,0:0:0:0:
254,188,225140,2,0,L|310:220,1,48.750001859665,2|0,0:0|0:0,0:0:0:0:
367,263,225620,2,0,P|381:230|383:174,2,73.1250027894975,2|0|2,0:0|0:0|0:0,0:0:0:0:
