osu file format v14

[General]
AudioFilename: banashi.mp3
AudioLeadIn: 0
PreviewTime: 195740
Countdown: 0
SampleSet: Soft
StackLeniency: 0.7
Mode: 0
LetterboxInBreaks: 0
WidescreenStoryboard: 0

[Editor]
Bookmarks: 103700
DistanceSpacing: 1
BeatDivisor: 4
GridSize: 4
TimelineZoom: 0.9

[Metadata]
Title:Otogi Banashi feat. Hatsune Miku
TitleUnicode:音偽バナシfeat. 初音ミク
Artist:DECO*27
ArtistUnicode:DECO*27
Creator:TT Mouse
Version:Easy
Source:
Tags:Conti New Hatsune Miku Vocaloid Deco27
BeatmapID:639465
BeatmapSetID:274813

[Difficulty]
HPDrainRate:2
CircleSize:2.5
OverallDifficulty:1.5
ApproachRate:3
SliderMultiplier:0.800000005960464
SliderTickRate:1

[Events]
//Background and Video events
0,0,"BG.jpg",0,0
//Break Periods
//Storyboard Layer 0 (Background)
//Storyboard Layer 1 (Fail)
//Storyboard Layer 2 (Pass)
//Storyboard Layer 3 (Foreground)
//Storyboard Sound Samples

[TimingPoints]
1940,480,4,2,2,39,1,0
1940,-111.111111111111,4,2,2,39,0,0
9620,-111.111111111111,4,2,1,55,0,0
17300,-111.111111111111,4,2,2,39,0,0
32660,-111.111111111111,4,2,2,60,0,0
40340,-111.111111111111,4,2,2,39,0,0
48020,-111.111111111111,4,2,2,56,0,0
55580,-111.111111111111,4,2,2,65,0,0
59180,-111.111111111111,4,2,2,20,0,0
59420,-111.111111111111,4,2,2,58,0,0
63980,-111.111111111111,4,2,2,70,0,0
65300,-111.111111111111,4,2,3,80,0,0
80660,-111.111111111111,4,2,3,90,0,1
96020,-111.111111111111,4,2,2,56,0,0
103700,-111.111111111111,4,2,2,65,0,0
111380,-111.111111111111,4,2,1,39,0,0
126740,-111.111111111111,4,2,2,50,0,0
130580,-111.111111111111,4,2,1,39,0,0
138260,-111.111111111111,4,2,2,50,0,0
145940,-111.111111111111,4,2,2,60,0,0
153620,-111.111111111111,4,2,2,39,0,0
163220,-111.111111111111,4,2,2,60,0,0
176660,-111.111111111111,4,2,2,70,0,0
180500,-111.111111111111,4,2,3,80,0,0
194300,-111.111111111111,4,2,2,85,0,0
195860,-111.111111111111,4,2,2,90,0,1
210500,-111.111111111111,4,2,2,5,0,0
212180,-111.111111111111,4,2,1,30,0,0

[HitObjects]
72,272,1940,6,0,P|151:321|204:319,1,143.999996678352,2|0,0:0|0:0,0:0:0:0:
178,177,3860,1,2,0:0:0:0:
297,96,4820,1,0,0:0:0:0:
329,236,5780,2,0,P|379:247|408:245,2,71.9999983391762,2|0|0,0:0|0:0|0:0,0:0:0:0:
219,302,7700,5,2,0:0:0:0:
120,196,8660,1,0,0:0:0:0:
218,91,9620,2,0,L|150:41,3,71.9999983391762,8|8|8|8,0:0|0:0|0:0|0:0,0:0:0:0:
185,327,13460,2,0,L|118:296,3,71.9999983391762,8|8|8|8,0:0|0:0|0:0|0:0,0:0:0:0:
453,200,17300,6,0,P|403:254|324:267,1,143.999996678352,8|0,0:0|0:0,0:0:0:0:
326,109,19220,1,8,0:0:0:0:
206,190,20180,2,0,P|180:159|169:128,1,71.9999983391762
97,122,21140,6,0,P|97:193|89:274,1,143.999996678352,8|0,0:0|0:0,0:0:0:0:
216,335,23060,1,8,0:0:0:0:
335,254,24020,2,0,P|402:240|415:243,1,71.9999983391762
443,179,24980,6,0,L|306:123,1,143.999996678352,8|0,0:0|0:0,0:0:0:0:
180,188,26900,1,8,0:0:0:0:
310,248,27860,2,0,P|334:282|344:317,1,71.9999983391762
285,354,28820,6,0,L|138:314,1,143.999996678352,8|0,0:0|0:0,0:0:0:0:
137,172,30740,1,8,0:0:0:0:
200,43,31700,2,0,P|230:62|255:89,1,71.9999983391762
285,154,32660,6,0,L|396:55,2,143.999996678352,12|2|8,0:0|0:0|0:0,0:0:0:0:
349,282,35540,2,0,P|314:278|281:263,1,71.9999983391762,2|0,0:0|0:0,0:0:0:0:
218,229,36500,6,0,P|196:305|195:378,2,143.999996678352,8|2|8,0:0|0:0|0:0,0:0:0:0:
195,86,39380,1,2,0:0:0:0:
123,85,39860,1,2,0:0:0:0:
62,124,40340,6,0,L|39:271,1,143.999996678352,8|0,0:0|0:0,0:0:0:0:
164,337,42260,2,0,P|244:343|316:329,1,143.999996678352,8|0,0:0|0:0,0:0:0:0:
383,210,44180,5,8,0:0:0:0:
302,90,45140,1,0,0:0:0:0:
231,215,46100,1,8,0:0:0:0:
153,93,47060,1,0,0:0:0:0:
109,230,48020,6,0,P|66:240|25:236,2,71.9999983391762,8|0|0,0:0|0:0|0:0,0:0:0:0:
229,309,49940,2,0,P|294:313|309:310,2,71.9999983391762,8|0|0,0:0|0:0|0:0,0:0:0:0:
252,166,51860,6,0,L|253:94,2,71.9999983391762,8|0|0,0:0|0:0|0:0,0:0:0:0:
394,186,53780,2,0,L|393:258,2,71.9999983391762,8|0|0,0:0|0:0|0:0,0:0:0:0:
252,212,55700,6,0,P|184:226|108:203,1,143.999996678352,8|8,0:0|0:0,0:0:0:0:
106,62,57620,1,8,0:0:0:0:
229,135,58580,1,8,0:0:0:0:
356,68,59540,6,0,P|378:125|356:213,1,143.999996678352,8|8,0:0|0:0,0:0:0:0:
245,289,61460,1,8,0:0:0:0:
107,245,62420,1,8,0:0:0:0:
227,165,63380,2,0,P|175:109|104:97,1,143.999996678352,8|8,0:0|0:0,0:0:0:0:
49,226,65300,6,0,L|45:311,2,71.9999983391762,12|0|2,0:0|0:0|0:0,0:0:0:0:
169,304,67220,2,0,P|243:315|318:294,1,143.999996678352,8|2,0:0|0:0,0:0:0:0:
397,184,69140,6,0,L|458:238,2,71.9999983391762,8|0|2,0:0|0:0|0:0,0:0:0:0:
273,109,71060,1,8,0:0:0:0:
167,207,72020,1,2,0:0:0:0:
96,192,72500,1,2,0:0:0:0:
40,145,72980,6,0,L|63:68,2,71.9999983391762,12|0|2,0:0|0:0|0:0,0:0:0:0:
40,288,74900,2,0,P|121:297|188:263,1,143.999996678352,8|2,0:0|0:0,0:0:0:0:
311,323,76820,6,0,L|396:314,2,71.9999983391762,8|0|2,0:0|0:0|0:0,0:0:0:0:
286,181,78740,1,8,0:0:0:0:
187,76,79700,1,10,0:0:0:0:
135,126,80180,1,10,0:0:0:0:
82,175,80660,6,0,L|83:258,1,71.9999983391762,12|2,0:0|0:0,0:0:0:0:
141,288,81620,2,0,P|125:332|98:352,2,71.9999983391762,8|2|8,0:0|0:0|0:0,0:0:0:0:
202,250,83060,1,2,0:0:0:0:
271,230,83540,2,0,P|292:194|299:151,2,71.9999983391762,8|2|12,0:0|0:0|0:0,0:0:0:0:
299,296,84980,5,2,0:0:0:0:
364,325,85460,2,0,P|415:327|452:321,1,71.9999983391762,8|2,0:0|0:0,0:0:0:0:
477,265,86420,2,0,P|472:216|480:190,1,71.9999983391762,8|2,0:0|0:0,0:0:0:0:
497,125,87380,1,8,0:0:0:0:
433,91,87860,1,2,0:0:0:0:
365,116,88340,6,0,L|344:192,2,71.9999983391762,12|2|8,0:0|0:0|0:0,0:0:0:0:
308,71,89780,1,2,0:0:0:0:
245,34,90260,2,0,P|183:61|100:50,1,143.999996678352,0|8,0:0|0:0,0:0:0:0:
53,99,91700,1,2,0:0:0:0:
81,165,92180,6,0,P|68:216|53:242,2,71.9999983391762,12|2|8,0:0|0:0|0:0,0:0:0:0:
152,168,93620,1,2,0:0:0:0:
222,182,94100,2,0,P|223:252|188:325,1,143.999996678352,8|8,0:0|0:0,0:0:0:0:
337,309,96020,6,0,P|378:306|416:314,2,71.9999983391762,10|0|0,0:0|0:0|0:0,0:0:0:0:
348,165,97940,1,8,0:0:0:0:
465,248,98900,1,0,0:0:0:0:
476,104,99860,6,0,P|424:44|359:28,1,143.999996678352,10|0,0:0|0:0,0:0:0:0:
230,82,101780,1,8,0:0:0:0:
89,48,102740,1,0,0:0:0:0:
119,188,103700,6,0,L|83:265,2,71.9999983391762,8|0|2,0:0|0:0|0:0,0:0:0:0:
260,215,105620,2,0,L|333:217,2,71.9999983391762,8|0|2,0:0|0:0|0:0,0:0:0:0:
157,315,107540,5,8,0:0:0:0:
300,321,108500,2,0,L|385:322,2,71.9999983391762,2|0|8,0:0|0:0|0:0,0:0:0:0:
371,195,110420,2,0,L|313:141,1,71.9999983391762,2|0,0:0|0:0,0:0:0:0:
268,94,111380,5,2,0:0:0:0:
228,232,113300,1,2,0:0:0:0:
84,242,115220,5,2,0:0:0:0:
23,111,117140,1,2,0:0:0:0:
134,20,119060,5,2,0:0:0:0:
147,163,120980,1,2,0:0:0:0:
62,279,122900,6,0,P|127:301|209:303,1,143.999996678352,2|2,0:0|0:0,0:0:0:0:
342,336,124820,2,0,P|341:258|300:192,1,143.999996678352,2|10,0:0|0:0,0:0:0:0:
238,191,126260,1,8,0:0:0:0:
166,188,126740,6,8,L|128:123,3,71.9999983391762,8|8|2|8,0:0|0:0|0:0|0:0,0:0:0:0:
147,56,128660,2,0,P|207:81|294:76,1,143.999996678352,8|2,0:0|0:0,0:0:0:0:
352,53,130100,1,2,0:0:0:0:
414,88,130580,5,10,0:0:0:0:
467,221,131540,1,2,0:0:0:0:
324,198,132500,1,10,0:0:0:0:
241,316,133460,1,2,0:0:0:0:
137,215,134420,5,10,0:0:0:0:
229,104,135380,1,2,0:0:0:0:
294,232,136340,1,10,0:0:0:0:
379,116,137300,1,2,0:0:0:0:
442,245,138260,6,0,L|439:320,2,71.9999983391762,8|0|2,0:0|0:0|0:0,0:0:0:0:
380,114,140180,2,0,L|387:39,2,71.9999983391762,8|0|2,0:0|0:0|0:0,0:0:0:0:
284,221,142100,6,0,L|281:296,2,71.9999983391762,8|0|2,0:0|0:0|0:0,0:0:0:0:
216,93,144020,2,0,L|223:18,2,71.9999983391762,8|0|2,0:0|0:0|0:0,0:0:0:0:
184,233,145940,6,0,P|110:238|30:225,1,143.999996678352,8|8,0:0|0:0,0:0:0:0:
141,331,147860,1,8,0:0:0:0:
284,331,148820,1,8,0:0:0:0:
395,240,149780,5,8,0:0:0:0:
361,100,150740,1,8,0:0:0:0:
222,138,151700,2,0,L|76:104,1,143.999996678352,8|8,0:0|0:0,0:0:0:0:
42,243,153620,5,8,0:0:0:0:
174,298,154580,1,2,0:0:0:0:
306,240,155540,1,8,0:0:0:0:
435,303,156500,1,2,0:0:0:0:
393,165,157460,6,0,P|391:83|404:15,1,143.999996678352,8|2,0:0|0:0,0:0:0:0:
278,96,159380,1,8,0:0:0:0:
143,45,160340,2,0,P|132:139|157:196,1,143.999996678352,2|0,0:0|0:0,0:0:0:0:
247,187,163220,6,0,L|285:83,2,107.999997508764,8|0|2,0:0|0:0|0:0,0:0:0:0:
178,209,165140,1,8,0:0:0:0:
90,272,165860,1,0,0:0:0:0:
188,316,166580,1,2,0:0:0:0:
257,335,167060,6,0,L|371:332,1,107.999997508764,8|0,0:0|0:0,0:0:0:0:
428,244,168500,1,2,0:0:0:0:
375,194,168980,2,0,P|368:139|389:83,2,107.999997508764,8|0|2,0:0|0:0|0:0,0:0:0:0:
308,222,170900,5,8,0:0:0:0:
221,157,171620,1,0,0:0:0:0:
112,161,172340,1,2,0:0:0:0:
94,230,172820,2,0,P|84:281|59:337,2,107.999997508764,8|0|2,0:0|0:0|0:0,0:0:0:0:
163,209,174740,6,0,P|217:228|255:260,2,107.999997508764,8|0|2,0:0|0:0|0:0,0:0:0:0:
173,137,176660,2,0,L|179:57,2,71.9999983391762,8|2|2,0:0|0:0|0:0,0:0:0:0:
257,194,180500,6,0,L|258:272,2,71.9999983391762,8|0|2,0:0|0:0|0:0,0:0:0:0:
356,89,182420,2,0,P|291:57|220:59,1,143.999996678352,8|2,0:0|0:0,0:0:0:0:
101,139,184340,6,0,L|28:128,2,71.9999983391762,8|0|2,0:0|0:0|0:0,0:0:0:0:
152,273,186260,1,8,0:0:0:0:
294,293,187220,2,0,L|375:287,1,71.9999983391762,2|0,0:0|0:0,0:0:0:0:
411,343,188180,6,0,P|454:282|463:210,1,143.999996678352,8|2,0:0|0:0,0:0:0:0:
392,88,190100,2,0,L|468:62,2,71.9999983391762,8|0|2,0:0|0:0|0:0,0:0:0:0:
248,84,192020,6,0,L|168:59,2,71.9999983391762,8|0|2,0:0|0:0|0:0,0:0:0:0:
309,121,193460,1,2,0:0:0:0:
312,192,193940,2,0,L|311:341,1,143.999996678352,12|0,0:0|0:0,0:0:0:0:
173,294,195860,5,8,0:0:0:0:
104,313,196340,1,8,0:0:0:0:
43,273,196820,2,0,L|45:199,1,71.9999983391762,2|0,0:0|0:0,0:0:0:0:
75,135,197780,1,8,0:0:0:0:
142,110,198260,2,0,L|100:41,2,71.9999983391762,8|2|0,0:0|0:0|0:0,0:0:0:0:
195,158,199700,6,0,P|276:172|335:159,1,143.999996678352,8|2,0:0|0:0,0:0:0:0:
396,120,201140,1,0,0:0:0:0:
462,91,201620,2,0,P|469:155|477:175,1,71.9999983391762,8|8,0:0|0:0,0:0:0:0:
505,225,202580,2,0,P|504:262|490:299,1,71.9999983391762,2|0,0:0|0:0,0:0:0:0:
420,291,203540,5,8,0:0:0:0:
359,330,204020,1,8,0:0:0:0:
292,302,204500,1,2,0:0:0:0:
228,335,204980,1,0,0:0:0:0:
158,316,205460,2,0,P|133:253|149:173,1,143.999996678352,8|2,0:0|0:0,0:0:0:0:
208,143,206900,1,0,0:0:0:0:
202,71,207380,6,0,P|142:61|128:61,2,71.9999983391762,8|8|2,0:0|0:0|0:0,0:0:0:0:
263,108,208820,1,0,0:0:0:0:
317,154,209300,2,0,P|384:141|436:80,1,143.999996678352,8|2,0:0|0:0,0:0:0:0:
451,179,212180,5,2,0:0:0:0:
355,286,213140,1,2,0:0:0:0:
227,218,214100,1,2,0:0:0:0:
98,282,215060,1,2,0:0:0:0:
116,139,216020,5,2,0:0:0:0:
257,111,216980,2,0,P|327:122|402:99,2,143.999996678352,2|2|2,0:0|0:0|0:0,0:0:0:0:
151,209,219860,5,2,0:0:0:0:
232,327,220820,1,2,0:0:0:0:
331,223,221780,1,2,0:0:0:0:
400,349,222740,2,0,P|453:289|465:227,2,143.999996678352,2|2|2,0:0|0:0|0:0,0:0:0:0:
276,274,225620,2,0,L|217:249,2,53.9999987543821,2|2|2,0:0|0:0|0:0,0:0:0:0:
