osu file format v14

[General]
AudioFilename: mozaikrole.mp3
AudioLeadIn: 0
PreviewTime: 69997
Countdown: 0
SampleSet: None
StackLeniency: 0.7
Mode: 2
LetterboxInBreaks: 1
WidescreenStoryboard: 0

[Editor]
DistanceSpacing: 0.9
BeatDivisor: 4
GridSize: 4
TimelineZoom: 1

[Metadata]
Title:Mozaik Role
TitleUnicode:モザイクロール
Artist:DECO*27
ArtistUnicode:DECO*27
Creator:Tenshichan
Version:Overdose
Source:Nico Nico Douga
Tags:nico nico chorus megpoid gumi nnd yu-k@ ヲタみん iciko グリリ わたあめ リシエ のこる けったろ エリイ らさ てん Yoru 小松菜 vip店長 暁乃 妹姫 やっふい rojer substac9 sionkotori qhideaki13 newtoniorock8
BeatmapID:1247532
BeatmapSetID:589371

[Difficulty]
HPDrainRate:7
CircleSize:4
OverallDifficulty:9
ApproachRate:9
SliderMultiplier:2.8
SliderTickRate:2

[Events]
//Background and Video events
0,0,"mozaikrolebg.jpg",0,0
//Break Periods
2,83437,89259
//Storyboard Layer 0 (Background)
//Storyboard Layer 1 (Fail)
//Storyboard Layer 2 (Pass)
//Storyboard Layer 3 (Foreground)
//Storyboard Sound Samples

[TimingPoints]
480,413.793103448276,4,1,0,25,1,0
12376,-100,4,1,0,5,0,0
12480,-100,4,1,0,25,0,0
12790,-100,4,1,0,5,0,0
12893,-100,4,1,0,25,0,0
13204,-100,4,1,0,5,0,0
13307,-100,4,1,0,25,0,0
13617,-100,4,1,0,5,0,0
13721,-100,4,1,0,50,0,0
69997,-100,4,1,0,50,0,1
70204,-66.6666666666667,4,1,0,50,0,1
83238,-100,4,1,0,50,0,0
125445,-66.6666666666667,4,1,0,50,0,0
125859,-100,4,1,0,50,0,0
126273,-100,4,1,0,50,0,1
132893,-100,4,1,0,40,0,1
139514,-133.333333333333,4,2,0,15,0,0
150686,-133.333333333333,4,2,0,5,0,0
152755,-66.6666666666667,4,1,0,50,0,1
165997,-100,4,1,0,50,0,0
179238,-100,4,1,0,40,0,0
179652,-100,4,1,0,35,0,0
180066,-100,4,1,0,30,0,0
180480,-100,4,1,0,25,0,0
180893,-100,4,1,0,20,0,0
181307,-100,4,1,0,15,0,0
181721,-100,4,1,0,10,0,0
182135,-100,4,1,0,5,0,0

[Colours]
Combo1 : 81,81,162
Combo2 : 0,168,168
Combo3 : 185,185,185
Combo4 : 138,138,138

[HitObjects]
128,232,480,6,0,L|32:104,1,140
384,232,893,2,0,L|480:104,1,140
128,232,1307,2,0,L|32:104,1,140,8|0,0:0|0:0,0:0:0:0:
384,232,1721,2,0,L|480:104,1,140
256,128,2135,6,0,L|256:292,1,140
100,192,2548,1,0,0:0:0:0:
412,192,2755,1,0,0:0:0:0:
256,128,2962,6,0,L|256:292,1,140,8|0,0:0|0:0,0:0:0:0:
412,192,3376,1,0,0:0:0:0:
100,192,3582,1,0,0:0:0:0:
52,192,3790,6,0,L|200:192,1,140
460,192,4204,2,0,L|312:192,1,140
52,192,4617,2,0,L|192:192,1,140,8|0,0:0|0:0,0:0:0:0:
460,192,5031,2,0,L|312:192,1,140
188,192,5445,5,0,0:0:0:0:
324,192,5652,1,0,0:0:0:0:
148,192,5859,1,0,0:0:0:0:
364,192,6066,1,0,0:0:0:0:
104,192,6273,1,8,0:0:0:0:
408,192,6480,1,0,0:0:0:0:
256,116,6686,5,0,0:0:0:0:
208,92,6790,1,0,0:0:0:0:
164,64,6893,1,0,0:0:0:0:
120,36,6997,1,0,0:0:0:0:
76,12,7100,6,0,P|56:140|76:172,1,140
248,192,7514,1,0,0:0:0:0:
60,192,7721,1,0,0:0:0:0:
248,192,7928,2,0,P|156:312|92:336,2,210,8|0|0,0:0|0:0|0:0,0:0:0:0:
440,192,8755,1,0,0:0:0:0:
232,112,8962,6,0,L|320:248,1,140
96,192,9376,1,0,0:0:0:0:
284,292,9583,2,0,P|340:204|480:172,2,210,8|0|0,0:0|0:0|0:0,0:0:0:0:
472,296,10411,1,0,0:0:0:0:
284,292,10617,6,0,L|172:184,1,140
60,192,11031,1,0,0:0:0:0:
332,192,11238,2,0,P|376:116|480:24,2,210,8|0|0,0:0|0:0|0:0,0:0:0:0:
192,192,12066,6,0,P|96:116|52:32,1,210
320,192,12480,2,0,P|416:116|460:32,1,210
192,192,12893,2,0,P|96:116|52:32,1,210
320,192,13307,2,0,P|416:116|460:32,1,210
160,192,13721,6,0,L|28:104,1,140,4|0,0:0|0:0,0:0:0:0:
256,112,14135,2,0,L|124:20,1,140,8|0,0:0|0:0,0:0:0:0:
352,192,14548,2,0,L|484:100,1,140
256,112,14962,2,0,L|384:24,1,140,8|0,0:0|0:0,0:0:0:0:
252,192,15376,5,0,0:0:0:0:
60,192,15583,1,0,0:0:0:0:
224,192,15790,1,8,0:0:0:0:
32,192,15997,1,0,0:0:0:0:
260,192,16204,5,0,0:0:0:0:
452,192,16411,1,0,0:0:0:0:
288,192,16618,1,8,0:0:0:0:
480,192,16825,1,0,0:0:0:0:
208,192,17031,6,0,L|136:56,1,140
304,192,17445,2,0,L|376:56,1,140,8|0,0:0|0:0,0:0:0:0:
256,68,17859,1,0,0:0:0:0:
142,68,18066,1,0,0:0:0:0:
369,68,18273,1,8,0:0:0:0:
142,68,18480,1,0,0:0:0:0:
370,68,18686,6,0,L|437:190,1,140
143,68,19100,2,0,L|75:190,1,140,8|0,0:0|0:0,0:0:0:0:
437,190,19514,1,0,0:0:0:0:
74,190,19721,1,0,0:0:0:0:
437,190,19928,1,8,0:0:0:0:
74,190,20135,1,0,0:0:0:0:
348,332,20342,6,0,L|348:192,1,140
164,332,20755,2,0,L|164:192,1,140,8|0,0:0|0:0,0:0:0:0:
436,332,21169,2,0,L|436:192,1,140,0|0,0:0|0:0,0:0:0:0:
76,332,21583,2,0,L|76:192,1,140,8|0,0:0|0:0,0:0:0:0:
392,312,21997,6,0,L|476:312,2,70
120,312,22411,2,0,L|36:312,2,70,8|0|0,0:0|0:0|0:0,0:0:0:0:
392,312,22824,2,0,L|476:312,2,70
120,312,23238,2,0,L|36:312,2,70,8|0|0,0:0|0:0|0:0,0:0:0:0:
300,212,23652,5,0,0:0:0:0:
428,212,23859,1,0,0:0:0:0:
252,212,24066,1,8,0:0:0:0:
476,212,24273,1,0,0:0:0:0:
212,212,24480,5,0,0:0:0:0:
84,212,24687,1,0,0:0:0:0:
260,212,24893,1,8,0:0:0:0:
40,212,25101,1,0,0:0:0:0:
124,152,25307,6,0,L|-8:48,1,140
220,152,25721,2,0,L|92:52,1,140,8|0,0:0|0:0,0:0:0:0:
316,152,26135,2,0,L|188:52,1,140
412,152,26548,2,0,L|296:60,1,140,8|0,0:0|0:0,0:0:0:0:
160,192,26962,6,0,P|92:224|64:308,1,140,4|0,0:0|0:0,0:0:0:0:
60,312,27273,1,0,0:0:0:0:
60,344,27376,1,8,0:0:0:0:
284,288,27583,5,0,0:0:0:0:
232,312,27686,1,0,0:0:0:0:
180,340,27790,1,0,0:0:0:0:
360,344,27997,1,0,0:0:0:0:
40,344,28204,1,8,0:0:0:0:
256,340,28411,1,0,0:0:0:0:
472,344,28617,2,0,P|400:244|316:176,2,210,0|8|0,0:0|0:0|0:0,0:0:0:0:
288,340,29445,5,0,0:0:0:0:
256,288,29548,1,0,0:0:0:0:
224,340,29652,1,0,0:0:0:0:
324,232,29859,1,8,0:0:0:0:
108,192,30066,1,0,0:0:0:0:
400,192,30273,6,0,P|352:92|240:32,2,210,0|8|0,0:0|0:0|0:0,0:0:0:0:
340,200,30997,1,0,0:0:0:0:
284,200,31100,1,0,0:0:0:0:
464,200,31307,1,0,0:0:0:0:
140,196,31514,1,8,0:0:0:0:
360,200,31721,1,0,0:0:0:0:
256,284,31928,6,0,P|320:184|424:136,2,210,0|8|0,0:0|0:0|0:0,0:0:0:0:
112,280,32755,5,0,0:0:0:0:
48,268,32859,1,0,0:0:0:0:
100,228,32962,1,0,0:0:0:0:
36,216,33066,1,0,0:0:0:0:
88,176,33169,1,8,0:0:0:0:
256,172,33376,1,0,0:0:0:0:
436,176,33583,6,0,P|376:80|276:32,2,210,4|8|0,0:0|0:0|0:0,0:0:0:0:
384,204,34307,1,0,0:0:0:0:
332,232,34411,1,0,0:0:0:0:
136,236,34617,1,0,0:0:0:0:
432,236,34824,1,8,0:0:0:0:
224,236,35031,1,0,0:0:0:0:
432,236,35238,6,0,P|364:148|256:56,2,210,0|8|0,0:0|0:0|0:0,0:0:0:0:
304,236,36066,6,0,L|236:192,1,70
424,164,36273,2,0,L|484:124,1,70
304,160,36480,2,0,L|236:116,1,70,8|0,0:0|0:0,0:0:0:0:
416,92,36686,2,0,L|488:48,1,70
416,56,36893,5,0,0:0:0:0:
40,56,37204,1,8,0:0:0:0:
272,56,37514,1,0,0:0:0:0:
312,80,37617,1,0,0:0:0:0:
352,104,37721,1,0,0:0:0:0:
196,104,37928,1,0,0:0:0:0:
484,192,38135,1,8,0:0:0:0:
288,192,38342,1,0,0:0:0:0:
92,200,38548,6,0,P|32:136|32:0,2,210,0|8|0,0:0|0:0|0:0,0:0:0:0:
152,200,39273,1,0,0:0:0:0:
212,200,39376,1,0,0:0:0:0:
436,96,39583,1,0,0:0:0:0:
88,96,39790,1,8,0:0:0:0:
436,96,39997,1,0,0:0:0:0:
256,192,40204,12,0,43514,0:0:0:0:
64,192,43928,6,0,L|160:84,1,140
448,192,44342,2,0,L|352:84,1,140
64,192,44755,2,0,L|160:84,1,140
354,87,45169,6,0,L|448:192,1,140
157,87,45583,2,0,L|64:192,1,140
354,87,45997,2,0,L|448:192,1,140
256,192,46411,1,0,0:0:0:0:
256,192,46824,12,0,49928,0:0:0:0:
256,192,50135,6,0,L|408:192,1,140
256,192,50548,1,8,0:0:0:0:
48,192,50755,1,0,0:0:0:0:
256,192,50962,1,0,0:0:0:0:
464,192,51169,1,0,0:0:0:0:
256,192,51376,1,8,0:0:0:0:
48,192,51583,1,0,0:0:0:0:
256,192,51790,6,0,L|336:72,1,140
124,72,52204,1,8,0:0:0:0:
333,75,52411,1,0,0:0:0:0:
124,72,52617,1,0,0:0:0:0:
333,75,52824,2,0,L|480:76,2,140,0|8|0,0:0|0:0|0:0,0:0:0:0:
44,72,53445,6,0,P|72:192|160:232,2,210,0|8|0,0:0|0:0|0:0,0:0:0:0:
276,72,54169,1,0,0:0:0:0:
340,72,54273,1,0,0:0:0:0:
404,72,54376,1,0,0:0:0:0:
468,72,54480,1,0,0:0:0:0:
152,192,54686,1,8,0:0:0:0:
352,192,54893,1,0,0:0:0:0:
40,192,55100,6,0,P|64:96|176:12,2,210,0|8|0,0:0|0:0|0:0,0:0:0:0:
224,192,55928,1,0,0:0:0:0:
348,280,56135,1,0,0:0:0:0:
172,280,56342,1,8,0:0:0:0:
388,280,56548,1,0,0:0:0:0:
88,280,56755,6,0,P|64:140|8:84,2,210,0|8|0,0:0|0:0|0:0,0:0:0:0:
156,280,57480,1,0,0:0:0:0:
224,280,57583,1,0,0:0:0:0:
156,280,57686,1,0,0:0:0:0:
88,280,57790,1,0,0:0:0:0:
412,280,57997,1,8,0:0:0:0:
192,280,58204,1,0,0:0:0:0:
412,280,58411,6,0,P|372:176|256:104,2,210,0|8|0,0:0|0:0|0:0,0:0:0:0:
372,280,59135,2,0,L|316:232,1,70
224,244,59342,2,0,L|276:176,1,70
88,192,59652,2,0,P|44:104|48:48,1,140,8|0,0:0|0:0,0:0:0:0:
356,60,60066,6,0,P|412:112|344:220,2,210,0|8|0,0:0|0:0|0:0,0:0:0:0:
292,60,60790,1,0,0:0:0:0:
228,60,60893,1,0,0:0:0:0:
292,60,60997,1,0,0:0:0:0:
228,60,61100,1,0,0:0:0:0:
72,60,61307,1,8,0:0:0:0:
440,60,61514,1,0,0:0:0:0:
72,60,61721,6,0,P|88:148|180:236,2,210,0|8|0,0:0|0:0|0:0,0:0:0:0:
140,60,62445,2,0,L|208:84,1,70
272,84,62652,1,0,0:0:0:0:
336,84,62755,1,0,0:0:0:0:
200,192,62962,1,8,0:0:0:0:
400,192,63169,1,0,0:0:0:0:
96,192,63376,6,0,P|36:140|108:36,2,210,0|8|0,0:0|0:0|0:0,0:0:0:0:
168,188,64100,2,0,L|104:124,1,70
240,184,64307,2,0,L|168:108,1,70
48,96,64617,1,8,0:0:0:0:
424,100,64824,1,0,0:0:0:0:
248,100,65031,6,0,P|200:160|304:208,2,210,0|8|0,0:0|0:0|0:0,0:0:0:0:
296,100,65755,1,0,0:0:0:0:
336,100,65859,1,0,0:0:0:0:
468,100,66066,1,0,0:0:0:0:
256,96,66273,1,8,0:0:0:0:
44,100,66480,1,0,0:0:0:0:
208,96,66686,6,0,P|252:164|204:368,1,280,4|0,0:0|0:0,0:0:0:0:
48,348,67307,1,0,0:0:0:0:
396,344,67514,6,0,P|456:216|344:84,1,280
96,104,68135,1,0,0:0:0:0:
248,104,68342,6,0,P|248:184|64:308,1,280,4|0,0:0|0:0,0:0:0:0:
56,192,68962,1,0,0:0:0:0:
256,344,69169,6,0,B|120:284|292:288|412:204|200:224|40:172|352:164|244:100,2,280,0|0|4,0:0|0:0|0:0,0:0:0:0:
176,296,70204,5,0,0:0:0:0:
336,296,70411,1,0,0:0:0:0:
144,192,70617,1,0,0:0:0:0:
368,192,70824,2,0,L|468:0,1,210.000008010865
256,192,71238,1,0,0:0:0:0:
144,192,71445,6,0,L|44:0,1,210.000008010865
144,192,71859,1,0,0:0:0:0:
368,192,72066,1,0,0:0:0:0:
44,192,72273,1,0,0:0:0:0:
468,192,72480,1,0,0:0:0:0:
120,312,72893,5,0,0:0:0:0:
392,312,73100,1,0,0:0:0:0:
120,312,73307,2,0,L|264:136,1,210.000008010865
392,312,73721,1,0,0:0:0:0:
120,312,73928,1,0,0:0:0:0:
392,312,74135,2,0,L|248:136,1,210.000008010865
208,312,74548,5,0,0:0:0:0:
32,312,74755,1,0,0:0:0:0:
304,312,74962,1,0,0:0:0:0:
480,312,75169,1,0,0:0:0:0:
208,312,75376,1,0,0:0:0:0:
32,312,75583,1,0,0:0:0:0:
304,312,75790,1,0,0:0:0:0:
480,312,75997,1,0,0:0:0:0:
208,192,76204,2,0,L|24:64,2,210.000008010865,0|0|4,0:0|0:0|0:0,0:0:0:0:
408,276,76824,5,0,0:0:0:0:
160,276,77031,1,0,0:0:0:0:
352,276,77238,1,0,0:0:0:0:
104,276,77445,2,0,P|52:172|68:68,1,210.000008010865
256,192,77859,1,0,0:0:0:0:
52,192,78066,6,0,P|140:80|204:48,1,210.000008010865
368,52,78480,1,0,0:0:0:0:
140,116,78686,1,0,0:0:0:0:
416,116,78893,1,0,0:0:0:0:
104,184,79100,1,0,0:0:0:0:
468,296,79514,6,0,L|232:296,2,210.000008010865
256,240,80135,1,0,0:0:0:0:
44,296,80342,2,0,L|280:296,2,210.000008010865
152,240,80962,1,0,0:0:0:0:
256,192,81169,6,0,L|476:192,1,210.000008010865
256,192,81583,2,0,L|40:192,1,210.000008010865
256,192,81997,2,0,L|476:192,1,210.000008010865
256,192,82411,2,0,L|40:192,1,210.000008010865
256,192,82824,2,0,L|480:192,2,210.000008010865,0|0|4,0:0|0:0|0:0,0:0:0:0:
164,192,89859,6,0,L|76:84,1,140,4|0,0:0|0:0,0:0:0:0:
280,80,90273,1,8,0:0:0:0:
75,83,90480,1,0,0:0:0:0:
348,192,90686,2,0,L|436:84,1,140,0|0,0:0|0:0,0:0:0:0:
232,80,91100,1,8,0:0:0:0:
436,83,91307,1,0,0:0:0:0:
124,332,91514,6,0,L|124:164,1,140
240,112,91928,1,8,0:0:0:0:
40,112,92135,1,0,0:0:0:0:
388,332,92342,2,0,L|388:164,1,140
272,112,92755,1,8,0:0:0:0:
472,112,92963,1,0,0:0:0:0:
188,296,93169,6,0,L|140:144,1,140
348,224,93583,2,0,L|296:56,1,140,8|0,0:0|0:0,0:0:0:0:
424,52,93997,1,0,0:0:0:0:
184,52,94204,1,0,0:0:0:0:
312,52,94411,1,8,0:0:0:0:
72,52,94617,1,0,0:0:0:0:
256,192,94824,6,0,L|368:292,1,140
256,192,95238,2,0,L|144:292,1,140,12|0,0:0|0:0,0:0:0:0:
400,192,95652,2,0,L|444:332,1,140,4|0,0:0|0:0,0:0:0:0:
112,192,96066,2,0,L|68:332,1,140,8|0,0:0|0:0,0:0:0:0:
328,188,96480,6,0,P|364:96|480:32,2,210,0|8|0,0:0|0:0|0:0,0:0:0:0:
244,184,97204,2,0,L|312:104,1,70
160,188,97411,2,0,L|216:124,1,70
424,92,97721,2,0,P|448:160|456:232,1,140,8|0,0:0|0:0,0:0:0:0:
384,296,98135,5,0,0:0:0:0:
72,292,98445,1,8,0:0:0:0:
384,296,98755,2,0,L|316:232,1,70
200,268,98962,2,0,L|256:216,1,70
352,184,99169,1,0,0:0:0:0:
128,176,99376,2,0,P|72:108|56:48,1,140,8|0,0:0|0:0,0:0:0:0:
160,40,99790,5,0,0:0:0:0:
472,40,100100,1,8,0:0:0:0:
160,40,100411,2,0,L|104:104,1,70
248,56,100617,2,0,L|244:128,1,70
372,128,100824,2,0,P|448:156|500:208,1,140,0|8,0:0|0:0,0:0:0:0:
272,196,101238,1,0,0:0:0:0:
56,196,101445,6,0,P|116:264|16:352,2,210,0|8|0,0:0|0:0|0:0,0:0:0:0:
112,172,102169,1,0,0:0:0:0:
168,148,102273,1,0,0:0:0:0:
300,96,102480,1,0,0:0:0:0:
64,96,102686,1,8,0:0:0:0:
252,96,102893,1,0,0:0:0:0:
464,96,103100,6,0,P|464:200|396:292,2,210,4|8|0,0:0|0:0|0:0,0:0:0:0:
420,96,103824,1,0,0:0:0:0:
300,96,103928,1,0,0:0:0:0:
420,96,104031,1,0,0:0:0:0:
300,96,104135,1,0,0:0:0:0:
96,196,104342,1,8,0:0:0:0:
300,196,104548,1,0,0:0:0:0:
96,196,104755,6,0,B|32:136|176:104|80:0,2,210,0|8|0,0:0|0:0|0:0,0:0:0:0:
236,196,105583,1,0,0:0:0:0:
380,280,105790,1,0,0:0:0:0:
156,280,105997,1,8,0:0:0:0:
380,280,106204,1,0,0:0:0:0:
156,280,106411,6,0,P|76:224|40:104,2,210,0|8|0,0:0|0:0|0:0,0:0:0:0:
244,284,107135,2,0,L|152:284,1,70
300,284,107342,2,0,L|208:284,1,70
424,284,107652,1,8,0:0:0:0:
220,284,107859,1,0,0:0:0:0:
424,284,108066,2,0,B|312:208|572:224|380:112,2,210,0|8|0,0:0|0:0|0:0,0:0:0:0:
44,284,109100,5,0,0:0:0:0:
256,288,109307,1,8,0:0:0:0:
468,284,109514,1,0,0:0:0:0:
256,288,109721,6,0,B|188:192|348:188|228:64,2,210,4|8|0,0:0|0:0|0:0,0:0:0:0:
160,288,110445,2,0,L|140:212,1,70
352,288,110652,2,0,L|368:208,1,70
64,192,110962,1,8,0:0:0:0:
456,192,111169,1,0,0:0:0:0:
256,192,111376,6,0,P|140:96|124:36,2,210,0|8|0,0:0|0:0|0:0,0:0:0:0:
312,192,112100,1,0,0:0:0:0:
364,192,112204,1,0,0:0:0:0:
416,192,112307,1,0,0:0:0:0:
468,192,112411,1,0,0:0:0:0:
256,192,112617,1,8,0:0:0:0:
44,192,112824,1,0,0:0:0:0:
256,192,113031,6,0,P|336:164|388:40,2,210,0|8|0,0:0|0:0|0:0,0:0:0:0:
156,192,113755,2,0,L|116:128,1,70
356,192,113962,2,0,L|396:128,1,70
156,188,114273,1,8,0:0:0:0:
372,192,114480,1,0,0:0:0:0:
144,192,114686,6,0,P|84:228|32:356,2,210,0|8|0,0:0|0:0|0:0,0:0:0:0:
224,196,115411,2,0,L|176:260,1,70
324,196,115617,2,0,L|368:256,1,70
464,192,115928,2,0,P|424:112|324:60,1,140,8|0,0:0|0:0,0:0:0:0:
120,80,116342,5,4,0:0:0:0:
424,80,116652,1,8,0:0:0:0:
120,80,116962,1,0,0:0:0:0:
96,140,117066,2,0,L|172:160,1,70
68,216,117273,2,0,L|156:224,1,70
40,292,117480,2,0,L|132:292,1,70,0|8,0:0|0:0,0:0:0:0:
280,292,117790,1,0,0:0:0:0:
452,292,117997,6,0,P|428:188|328:128,2,210,0|8|0,0:0|0:0|0:0,0:0:0:0:
256,252,118824,1,0,0:0:0:0:
76,192,119031,2,0,P|108:104|152:68,1,140,0|8,0:0|0:0,0:0:0:0:
256,76,119445,1,0,0:0:0:0:
372,76,119652,5,0,0:0:0:0:
88,76,119962,1,8,0:0:0:0:
372,76,120273,1,0,0:0:0:0:
276,192,120480,2,0,P|320:256|412:288,2,140,0|0|8,0:0|0:0|0:0,0:0:0:0:
56,192,121100,1,0,0:0:0:0:
192,192,121307,6,0,P|176:272|72:336,2,210,0|8|0,0:0|0:0|0:0,0:0:0:0:
256,192,122031,1,0,0:0:0:0:
320,192,122135,1,0,0:0:0:0:
384,192,122238,1,0,0:0:0:0:
448,192,122342,1,0,0:0:0:0:
120,112,122548,1,8,0:0:0:0:
356,112,122755,1,0,0:0:0:0:
164,112,122962,6,0,L|72:240,1,140,4|0,0:0|0:0,0:0:0:0:
348,112,123376,2,0,L|440:240,1,140,8|0,0:0|0:0,0:0:0:0:
120,112,123790,2,0,L|60:264,1,140
392,112,124204,2,0,L|452:264,1,140,8|0,0:0|0:0,0:0:0:0:
64,112,124617,2,0,L|48:264,1,140,4|0,0:0|0:0,0:0:0:0:
448,112,125031,2,0,L|464:264,1,140,8|0,0:0|0:0,0:0:0:0:
465,312,125445,6,0,L|44:312,1,420.000016021729
324,192,126273,6,0,L|464:192,1,140,4|0,0:0|0:0,0:0:0:0:
188,192,126686,2,0,L|48:192,1,140,8|0,0:0|0:0,0:0:0:0:
344,112,127100,5,0,0:0:0:0:
168,112,127307,1,0,0:0:0:0:
400,112,127514,1,8,0:0:0:0:
112,112,127721,1,0,0:0:0:0:
400,112,127928,6,0,L|436:264,1,140
112,112,128342,2,0,L|76:264,1,140,8|0,0:0|0:0,0:0:0:0:
432,248,128755,1,0,0:0:0:0:
79,248,128962,1,0,0:0:0:0:
432,248,129169,2,0,L|292:164,2,140,8|0|0,0:0|0:0|0:0,0:0:0:0:
100,192,129997,6,0,L|176:68,1,140,8|0,0:0|0:0,0:0:0:0:
460,76,130411,1,0,0:0:0:0:
176,72,130617,1,0,0:0:0:0:
460,76,130824,1,8,0:0:0:0:
176,72,131030,1,0,0:0:0:0:
460,76,131238,6,0,L|344:184,1,140
52,76,131652,2,0,L|168:184,1,140,8|0,0:0|0:0,0:0:0:0:
460,76,132066,2,0,L|344:184,1,140
52,76,132480,2,0,L|168:184,1,140,8|0,0:0|0:0,0:0:0:0:
300,196,132893,5,0,0:0:0:0:
356,196,132996,1,0,0:0:0:0:
412,196,133100,1,0,0:0:0:0:
468,196,133203,1,0,0:0:0:0:
356,276,133307,5,8,0:0:0:0:
292,276,133411,1,0,0:0:0:0:
228,276,133514,1,0,0:0:0:0:
164,276,133617,1,0,0:0:0:0:
40,112,133721,5,0,0:0:0:0:
108,112,133824,1,0,0:0:0:0:
176,112,133928,1,0,0:0:0:0:
244,112,134031,1,0,0:0:0:0:
392,44,134135,5,8,0:0:0:0:
320,44,134238,1,0,0:0:0:0:
248,44,134342,1,0,0:0:0:0:
176,44,134445,1,0,0:0:0:0:
108,56,134548,6,0,L|20:80,1,70
104,112,134755,2,0,L|20:136,1,70
156,172,134962,2,0,L|244:188,1,70,8|0,0:0|0:0,0:0:0:0:
164,232,135169,2,0,L|244:248,1,70
296,248,135376,6,0,L|344:180,1,70
140,248,135583,2,0,L|104:188,1,70
380,208,135790,2,0,L|400:132,1,70,8|0,0:0|0:0,0:0:0:0:
64,208,135997,2,0,L|48:136,1,70
48,244,136204,5,0,0:0:0:0:
52,200,136307,1,0,0:0:0:0:
72,152,136411,1,0,0:0:0:0:
108,112,136514,1,0,0:0:0:0:
304,192,136617,5,8,0:0:0:0:
360,152,136721,1,0,0:0:0:0:
360,152,136824,1,0,0:0:0:0:
304,192,136928,1,0,0:0:0:0:
144,192,137031,5,0,0:0:0:0:
88,152,137135,1,0,0:0:0:0:
88,152,137238,1,0,0:0:0:0:
144,192,137342,1,0,0:0:0:0:
304,192,137445,5,8,0:0:0:0:
360,152,137549,1,0,0:0:0:0:
360,152,137652,1,0,0:0:0:0:
304,192,137756,1,0,0:0:0:0:
264,192,137859,6,0,L|192:192,3,70
396,192,138273,2,0,L|520:192,3,70,8|0|0|0,0:0|0:0|0:0|0:0,0:0:0:0:
176,192,138686,2,0,L|88:192,3,70
408,192,139100,2,0,L|520:192,3,70,8|0|0|0,0:0|0:0|0:0|0:0,0:0:0:0:
480,312,139514,1,0,0:0:0:0:
424,312,139721,5,0,0:0:0:0:
368,312,139928,1,0,0:0:0:0:
312,312,140135,1,0,0:0:0:0:
256,192,140342,2,2,P|236:108|136:24,1,210.000008010865,0|0,0:0|0:0,0:0:0:0:
32,100,140962,6,2,P|52:184|148:268,1,210.000008010865
304,260,141583,1,0,0:0:0:0:
128,264,141790,1,0,0:0:0:0:
352,260,141997,1,2,0:0:0:0:
88,192,142411,6,0,L|228:192,2,105.000004005432
424,192,143238,2,0,L|284:192,2,105.000004005432
96,252,144066,2,2,P|60:156|104:56,1,210.000008010865
416,252,144893,2,2,P|452:156|408:56,1,210.000008010865
200,192,145721,1,0,0:0:0:0:
312,192,145928,1,0,0:0:0:0:
396,88,146342,5,0,0:0:0:0:
256,88,146548,1,0,0:0:0:0:
116,88,146755,1,0,0:0:0:0:
68,192,146962,2,2,P|104:272|220:328,1,210.000008010865
360,324,147583,2,2,P|420:244|424:104,1,210.000008010865
352,100,148204,1,0,0:0:0:0:
304,100,148411,1,0,0:0:0:0:
256,100,148617,1,2,0:0:0:0:
156,192,149031,5,0,0:0:0:0:
76,192,149238,1,0,0:0:0:0:
156,192,149445,1,2,0:0:0:0:
356,192,149859,1,0,0:0:0:0:
436,192,150066,1,0,0:0:0:0:
356,192,150273,1,2,0:0:0:0:
256,192,150686,12,0,152548,0:0:0:0:
256,192,152755,5,4,0:0:0:0:
120,192,152962,5,0,0:0:0:0:
392,192,153169,1,0,0:0:0:0:
80,192,153376,1,0,0:0:0:0:
256,192,153583,6,0,L|436:48,1,210.000008010865
256,192,153997,2,0,L|76:48,1,210.000008010865
256,64,154411,1,0,0:0:0:0:
416,64,154617,1,0,0:0:0:0:
96,64,154824,1,0,0:0:0:0:
448,64,155031,1,0,0:0:0:0:
64,64,155238,2,0,L|232:224,1,210.000008010865
360,284,155652,6,0,P|440:204|464:96,1,210.000008010865
108,104,156066,1,4,0:0:0:0:
332,104,156273,1,0,0:0:0:0:
152,284,156480,2,0,P|72:204|48:96,1,210.000008010865
404,104,156893,1,4,0:0:0:0:
180,104,157100,1,0,0:0:0:0:
360,192,157307,6,0,L|496:192,2,105.000004005432
152,192,157721,2,0,L|16:192,2,105.000004005432
360,192,158135,2,0,L|496:192,2,105.000004005432
152,192,158549,2,0,L|16:192,2,105.000004005432
360,192,158962,2,0,L|384:80,1,105.000004005432
152,192,159169,2,0,L|128:80,1,105.000004005432
256,84,159376,1,4,0:0:0:0:
440,84,159583,5,0,0:0:0:0:
256,84,159790,1,0,0:0:0:0:
72,84,159997,1,0,0:0:0:0:
256,84,160204,2,0,L|496:84,3,210.000008010865
256,84,161031,1,0,0:0:0:0:
45,84,161238,2,0,L|256:84,3,210.000008010865
256,192,162066,1,0,0:0:0:0:
348,192,162273,6,0,L|380:296,1,105.000004005432
164,192,162480,2,0,L|132:296,1,105.000004005432
256,268,162686,2,0,L|256:36,1,210.000008010865
424,192,163100,6,0,L|456:296,1,105.000004005432
88,192,163307,2,0,L|56:296,1,105.000004005432
256,268,163514,2,0,L|256:36,1,210.000008010865
466,192,163928,6,0,L|256:192,1,210.000008010865
45,192,164342,2,0,L|256:192,1,210.000008010865
466,192,164755,2,0,L|256:192,1,210.000008010865
45,192,165169,2,0,L|256:192,1,210.000008010865
312,116,165583,5,0,0:0:0:0:
200,116,165686,1,0,0:0:0:0:
312,116,165790,1,0,0:0:0:0:
200,116,165893,1,0,0:0:0:0:
256,192,165997,12,0,168480,0:0:0:0:
256,192,168893,5,0,0:0:0:0:
256,192,169307,12,0,172204,0:0:0:0:
116,192,172617,6,0,L|64:44,1,140,4|0,0:0|0:0,0:0:0:0:
256,192,173031,2,0,L|256:44,1,140,8|0,0:0|0:0,0:0:0:0:
396,192,173445,2,0,L|448:44,1,140
256,192,173859,2,0,L|256:44,1,140,8|0,0:0|0:0,0:0:0:0:
168,48,174273,5,0,0:0:0:0:
344,48,174480,1,0,0:0:0:0:
136,48,174686,1,8,0:0:0:0:
376,48,174893,1,0,0:0:0:0:
444,180,175100,2,0,L|424:324,1,140
68,180,175514,2,0,L|88:324,1,140,8|0,0:0|0:0,0:0:0:0:
312,192,175928,6,0,L|404:68,3,140,0|0|8|0,0:0|0:0|0:0|0:0,0:0:0:0:
200,192,176755,2,0,L|108:68,3,140,0|0|8|0,0:0|0:0|0:0|0:0,0:0:0:0:
312,192,177583,2,0,L|476:192,3,140,0|0|8|0,0:0|0:0|0:0|0:0,0:0:0:0:
200,192,178411,2,0,L|36:192,3,140,0|0|8|0,0:0|0:0|0:0|0:0,0:0:0:0:
256,192,179238,12,0,182548,0:0:0:0:
