osu file format v14

[General]
AudioFilename: mozaikrole.mp3
AudioLeadIn: 0
PreviewTime: 69997
Countdown: 0
SampleSet: None
StackLeniency: 0.7
Mode: 2
LetterboxInBreaks: 1
WidescreenStoryboard: 0

[Editor]
DistanceSpacing: 0.9
BeatDivisor: 4
GridSize: 4
TimelineZoom: 1

[Metadata]
Title:Mozaik Role
TitleUnicode:モザイクロール
Artist:DECO*27
ArtistUnicode:DECO*27
Creator:Tenshichan
Version:Cup
Source:Nico Nico Douga
Tags:nico nico chorus megpoid gumi nnd yu-k@ ヲタみん iciko グリリ わたあめ リシエ のこる けったろ エリイ らさ てん Yoru 小松菜 vip店長 暁乃 妹姫 やっふい rojer substac9 sionkotori qhideaki13 newtoniorock8
BeatmapID:1247530
BeatmapSetID:589371

[Difficulty]
HPDrainRate:3
CircleSize:2
OverallDifficulty:5
ApproachRate:5
SliderMultiplier:1.6
SliderTickRate:1

[Events]
//Background and Video events
0,0,"mozaikrolebg.jpg",0,0
//Break Periods
2,13921,19142
2,83437,95280
//Storyboard Layer 0 (Background)
//Storyboard Layer 1 (Fail)
//Storyboard Layer 2 (Pass)
//Storyboard Layer 3 (Foreground)
//Storyboard Sound Samples

[TimingPoints]
480,413.793103448276,4,1,0,25,1,0
13721,-100,4,1,0,50,0,0
69997,-100,4,1,0,50,0,1
83238,-100,4,1,0,50,0,0
126273,-100,4,1,0,50,0,1
132893,-100,4,1,0,40,0,1
139514,-133.333333333333,4,2,0,15,0,0
150686,-133.333333333333,4,2,0,5,0,0
152755,-100,4,1,0,50,0,1
165997,-100,4,1,0,50,0,0
179238,-100,4,1,0,40,0,0
179652,-100,4,1,0,35,0,0
180066,-100,4,1,0,30,0,0
180480,-100,4,1,0,25,0,0
180893,-100,4,1,0,20,0,0
181307,-100,4,1,0,15,0,0
181721,-100,4,1,0,10,0,0
182135,-100,4,1,0,5,0,0

[Colours]
Combo1 : 81,81,162
Combo2 : 0,168,168
Combo3 : 185,185,185
Combo4 : 138,138,138

[HitObjects]
184,260,480,6,0,L|60:116,1,160
224,136,1307,1,8,0:0:0:0:
368,136,1721,1,0,0:0:0:0:
224,136,2135,6,0,L|136:272,1,160
304,276,2962,2,0,L|400:116,1,160,8|0,0:0|0:0,0:0:0:0:
224,136,3790,6,0,L|116:292,2,160,0|0|8,0:0|0:0|0:0,0:0:0:0:
64,136,5031,1,0,0:0:0:0:
224,136,5445,5,0,0:0:0:0:
64,136,5859,1,0,0:0:0:0:
224,136,6273,2,0,L|388:44,2,160,8|0|0,0:0|0:0|0:0,0:0:0:0:
60,136,7514,5,0,0:0:0:0:
224,136,7928,1,8,0:0:0:0:
388,132,8342,1,0,0:0:0:0:
224,136,8755,6,0,L|160:312,1,160
336,300,9583,2,0,L|464:168,2,160,8|0|0,0:0|0:0|0:0,0:0:0:0:
176,300,10824,2,0,L|48:168,2,160,0|8|0,0:0|0:0|0:0,0:0:0:0:
312,192,12066,5,0,0:0:0:0:
204,192,12480,1,0,0:0:0:0:
348,192,12893,1,0,0:0:0:0:
164,192,13307,1,0,0:0:0:0:
256,192,13721,1,4,0:0:0:0:
68,248,20342,6,0,L|68:64,1,160,0|8,0:0|0:0,0:0:0:0:
228,88,21169,2,0,L|228:260,1,160,0|8,0:0|0:0,0:0:0:0:
388,244,21997,2,0,L|464:80,3,160,0|8|0|8,0:0|0:0|0:0|0:0,0:0:0:0:
320,92,23652,6,0,L|196:224,1,160,0|8,0:0|0:0,0:0:0:0:
320,92,24480,2,0,L|196:224,1,160,0|8,0:0|0:0,0:0:0:0:
52,208,25307,2,0,L|132:40,3,160,0|8|0|8,0:0|0:0|0:0|0:0,0:0:0:0:
280,64,26962,6,0,L|364:156,2,120,0|8|0,0:0|0:0|0:0,0:0:0:0:
52,64,28204,1,8,0:0:0:0:
52,64,28617,2,0,L|124:164,2,120,0|0|0,0:0|0:0|0:0,0:0:0:0:
320,64,29859,5,8,0:0:0:0:
156,64,30273,2,0,L|56:164,2,120,0|8|0,0:0|0:0|0:0,0:0:0:0:
396,64,31514,1,8,0:0:0:0:
236,68,31928,2,0,L|316:188,2,120,0|8|0,0:0|0:0|0:0,0:0:0:0:
56,72,33169,5,8,0:0:0:0:
56,72,33583,2,0,L|148:184,2,120,0|8|0,0:0|0:0|0:0,0:0:0:0:
268,72,34824,1,8,0:0:0:0:
268,72,35238,2,0,L|184:184,2,120,0|8|0,0:0|0:0|0:0,0:0:0:0:
64,76,36480,5,8,0:0:0:0:
212,76,36893,2,0,L|280:192,2,120,0|8|0,0:0|0:0|0:0,0:0:0:0:
448,76,38135,5,8,0:0:0:0:
448,76,38548,2,0,L|364:188,2,120,0|8|0,0:0|0:0|0:0,0:0:0:0:
284,72,39583,2,0,L|216:136,2,80
256,192,40204,12,0,43514,0:0:0:0:
176,192,43928,6,0,L|56:72,2,160
332,192,45169,6,0,L|452:72,3,160
256,192,46824,12,0,50135,0:0:0:0:
156,192,50548,6,0,L|280:80,1,160,8|0,0:0|0:0,0:0:0:0:
444,88,51376,2,0,L|320:204,1,160,8|0,0:0|0:0,0:0:0:0:
168,196,52204,1,8,0:0:0:0:
336,196,52617,1,0,0:0:0:0:
168,196,53031,1,8,0:0:0:0:
336,196,53445,6,0,L|424:88,2,120,0|8|0,0:0|0:0|0:0,0:0:0:0:
76,196,54686,1,8,0:0:0:0:
224,196,55100,2,0,L|284:64,2,120,0|8|0,0:0|0:0|0:0,0:0:0:0:
456,192,56342,1,8,0:0:0:0:
352,188,56755,2,0,L|408:72,2,120,0|8|0,0:0|0:0|0:0,0:0:0:0:
152,188,57997,5,8,0:0:0:0:
44,188,58411,2,0,L|100:72,2,120,0|8|0,0:0|0:0|0:0,0:0:0:0:
276,188,59652,1,8,0:0:0:0:
444,188,60066,2,0,L|388:56,2,120,0|8|0,0:0|0:0|0:0,0:0:0:0:
204,192,61307,5,8,0:0:0:0:
376,192,61721,2,0,L|420:76,2,120,0|8|0,0:0|0:0|0:0,0:0:0:0:
104,192,62962,1,8,0:0:0:0:
252,188,63376,2,0,L|312:76,2,120,0|8|0,0:0|0:0|0:0,0:0:0:0:
444,188,64617,1,8,0:0:0:0:
276,188,65031,2,0,L|216:76,2,120,0|8|0,0:0|0:0|0:0,0:0:0:0:
92,188,66273,5,8,0:0:0:0:
256,188,66686,2,0,L|416:188,1,160,0|8,0:0|0:0,0:0:0:0:
256,188,67514,2,0,L|84:188,1,160,0|8,0:0|0:0,0:0:0:0:
256,188,68342,2,0,L|256:24,1,160,0|8,0:0|0:0,0:0:0:0:
172,188,69169,1,0,0:0:0:0:
340,188,69583,1,0,0:0:0:0:
172,188,69997,6,0,L|60:48,1,160,4|0,0:0|0:0,0:0:0:0:
240,64,70824,2,0,L|404:64,1,160
240,64,71652,1,0,0:0:0:0:
68,64,72066,1,0,0:0:0:0:
240,64,72480,1,0,0:0:0:0:
408,64,72893,6,0,L|408:236,1,160
240,64,73721,2,0,L|240:248,1,160
72,224,74548,5,0,0:0:0:0:
248,224,74962,1,0,0:0:0:0:
424,224,75376,1,0,0:0:0:0:
248,224,75790,1,0,0:0:0:0:
72,224,76204,2,0,L|160:60,1,160,0|4,0:0|0:0,0:0:0:0:
300,72,77031,6,0,L|460:72,1,160
300,72,77859,2,0,L|476:72,1,160
300,72,78686,2,0,L|124:72,1,160
308,192,79514,5,0,0:0:0:0:
208,192,79928,1,0,0:0:0:0:
328,192,80342,1,0,0:0:0:0:
184,192,80755,1,0,0:0:0:0:
348,192,81169,1,0,0:0:0:0:
164,192,81583,1,0,0:0:0:0:
368,192,81997,1,0,0:0:0:0:
144,192,82411,1,0,0:0:0:0:
256,192,82824,6,0,L|256:32,1,160,0|4,0:0|0:0,0:0:0:0:
132,272,96480,6,0,P|80:164|152:52,2,240,0|0|8,0:0|0:0|0:0,0:0:0:0:
308,272,98135,2,0,P|360:164|288:52,2,240,0|0|8,0:0|0:0|0:0,0:0:0:0:
132,276,99790,6,0,L|316:104,1,240
52,116,101031,1,8,0:0:0:0:
228,116,101445,2,0,P|244:188|388:284,1,240
432,52,102480,2,0,L|432:168,2,80,0|8|0,0:0|0:0|0:0,0:0:0:0:
368,224,103100,6,0,P|312:272|124:296,2,240,0|0|8,0:0|0:0|0:0,0:0:0:0:
200,224,104755,2,0,P|220:148|364:48,2,240,0|0|8,0:0|0:0|0:0,0:0:0:0:
380,224,106411,6,0,P|340:156|284:124,2,120
128,228,107652,1,8,0:0:0:0:
32,224,108066,2,0,P|48:152|100:104,2,120
196,228,109100,1,0,0:0:0:0:
248,176,109307,1,0,0:0:0:0:
300,124,109514,1,0,0:0:0:0:
232,52,109721,6,0,P|152:72|232:152,2,240,0|0|8,0:0|0:0|0:0,0:0:0:0:
384,52,111376,2,0,P|464:72|384:152,2,240,0|0|8,0:0|0:0|0:0,0:0:0:0:
216,48,113031,6,0,B|132:128|220:144|292:200|200:264,2,240,0|0|8,0:0|0:0|0:0,0:0:0:0:
392,48,114686,2,0,B|448:84|448:84|416:128|416:128|460:192|460:192|432:240,2,240,0|0|8,0:0|0:0|0:0,0:0:0:0:
232,48,116342,6,0,L|272:180,2,120
56,48,117583,1,8,0:0:0:0:
228,44,117997,2,0,L|176:176,2,120
388,44,119031,2,0,L|388:148,2,80,0|8|0,0:0|0:0|0:0,0:0:0:0:
344,216,119652,6,0,P|288:292|132:320,2,240,0|0|8,0:0|0:0|0:0,0:0:0:0:
176,216,121307,2,0,P|240:112|380:64,2,240,0|0|8,0:0|0:0|0:0,0:0:0:0:
352,200,122962,6,0,L|408:40,1,160,0|8,0:0|0:0,0:0:0:0:
256,200,123790,2,0,L|312:36,1,160,0|8,0:0|0:0,0:0:0:0:
160,200,124617,2,0,L|220:32,1,160,0|8,0:0|0:0,0:0:0:0:
56,48,125445,1,0,0:0:0:0:
296,48,125859,1,0,0:0:0:0:
124,56,126273,6,0,L|32:192,2,160,4|8|0,0:0|0:0|0:0,0:0:0:0:
320,52,127514,1,8,0:0:0:0:
184,56,127928,2,0,L|304:200,2,160,0|8|0,0:0|0:0|0:0,0:0:0:0:
72,56,129169,1,8,0:0:0:0:
268,56,129583,5,0,0:0:0:0:
464,56,129997,2,0,P|472:112|436:224,1,160,8|0,0:0|0:0,0:0:0:0:
264,208,130824,2,0,L|96:208,1,160,8|0,0:0|0:0,0:0:0:0:
264,208,131652,2,0,L|432:208,1,160,8|0,0:0|0:0,0:0:0:0:
264,208,132480,1,8,0:0:0:0:
256,192,132893,12,4,139514,0:0:0:0:
456,324,140342,6,2,L|40:48,1,480.000018310548
228,56,142411,2,2,B|328:72|384:152|376:272|224:296,1,360.000013732911
64,292,144066,2,2,B|64:224|144:176|144:176|224:176|224:176|264:104|264:104|348:104|348:104|432:44,1,480.000018310548
192,56,146962,6,2,P|128:60|192:328,1,480.000018310548
364,324,149031,2,2,P|400:304|336:48,1,360.000013732911
256,192,150686,12,0,152342,0:0:0:0:
384,192,152755,6,0,L|240:64,1,160,4|0,0:0|0:0,0:0:0:0:
80,88,153583,2,0,L|208:196,1,160
400,192,154411,1,0,0:0:0:0:
216,192,154824,1,0,0:0:0:0:
32,192,155238,1,0,0:0:0:0:
216,192,155652,6,0,L|156:28,1,160
336,192,156480,2,0,L|396:32,1,160
208,40,157307,5,0,0:0:0:0:
400,44,157721,1,0,0:0:0:0:
208,40,158135,2,0,L|160:208,1,160
356,196,158962,2,0,P|320:288|248:324,1,160
84,316,159790,6,0,L|236:256,3,160
404,256,161445,2,0,P|456:188|464:104,1,160
312,100,162273,5,0,0:0:0:0:
200,100,162686,1,0,0:0:0:0:
332,100,163100,1,0,0:0:0:0:
180,100,163514,1,0,0:0:0:0:
352,100,163928,1,0,0:0:0:0:
160,100,164342,1,0,0:0:0:0:
372,100,164755,1,0,0:0:0:0:
256,100,165169,1,0,0:0:0:0:
140,100,165583,1,0,0:0:0:0:
256,192,165997,12,0,168480,0:0:0:0:
256,192,168893,5,0,0:0:0:0:
256,192,169307,12,0,171790,0:0:0:0:
256,192,172204,5,0,0:0:0:0:
256,192,172617,12,0,175514,0:0:0:0:
104,216,175928,6,0,L|104:56,1,160,0|8,0:0|0:0,0:0:0:0:
256,216,176755,2,0,L|256:44,1,160,0|8,0:0|0:0,0:0:0:0:
408,216,177583,2,0,L|408:56,1,160,0|8,0:0|0:0,0:0:0:0:
256,216,178411,2,8,L|176:144,3,80,8|8|8|12,0:0|0:0|0:0|0:0,0:0:0:0:
256,192,179238,12,0,182548,0:0:0:0:
