osu file format v12

[General]
AudioFilename: DECO-27 - HEART'S HOMING INSTINCT feat. Aoi Yuki feat. .mp3
AudioLeadIn: 0
PreviewTime: 55164
Countdown: 0
SampleSet: Soft
StackLeniency: 0.7
Mode: 0
LetterboxInBreaks: 0
WidescreenStoryboard: 0

[Editor]
Bookmarks: 62095,185019
DistanceSpacing: 1
BeatDivisor: 4
GridSize: 4
TimelineZoom: 1

[Metadata]
Title:Kisou Honnou feat. Yuuki Aoi
TitleUnicode:帰想本能 feat. 悠木碧
Artist:DECO*27
ArtistUnicode:DECO*27
Creator:Kibbleru
Version:Insane
Source:
Tags:LOVE CALENDER so18140621 Ryosuke Dr.R Sakai pkmnyab HEART'S HOMING INSTINCT Vocaloid Hatsune Miku
BeatmapID:359869
BeatmapSetID:144367

[Difficulty]
HPDrainRate:7
CircleSize:4
OverallDifficulty:7
ApproachRate:8
SliderMultiplier:1.4
SliderTickRate:2

[Events]
//Background and Video events
Video,-93,"That one video.avi"
0,0,"KanoChan.png",0,0
//Break Periods
2,83302,94138
//Storyboard Layer 0 (Background)
//Storyboard Layer 1 (Fail)
//Storyboard Layer 2 (Pass)
//Storyboard Layer 3 (Foreground)
//Storyboard Sound Samples
//Background Colour Transformations
3,100,163,162,255

[TimingPoints]
544,413.793103448276,4,2,1,70,1,0
2199,-80,4,2,1,70,0,0
15440,-80,4,2,1,50,0,0
28681,-80,4,2,1,60,0,0
48544,-80,4,2,1,65,0,0
55164,-66.6666666666667,4,2,1,80,0,1
81647,-80,4,2,1,50,0,0
108130,-80,4,2,1,60,0,0
121371,-80,4,2,1,60,0,0
127992,-80,4,2,1,65,0,0
134612,-100,4,2,1,40,0,0
141233,-100,4,2,1,50,0,0
147854,-100,4,2,1,60,0,0
159440,-100,4,2,1,30,0,0
159647,-100,4,2,1,40,0,0
159854,-100,4,2,1,50,0,0
160061,-100,4,2,1,60,0,0
160268,-100,4,2,1,40,0,0
161095,-66.6666666666667,4,2,1,80,0,1
187578,-80,4,2,1,70,0,0
214475,-80,4,2,1,50,0,0
214888,-80,4,2,1,40,0,0
215302,-80,4,2,1,30,0,0
215716,-80,4,2,1,20,0,0
216130,-80,4,2,1,10,0,0

[Colours]
Combo1 : 112,245,115
Combo2 : 242,164,17
Combo3 : 239,101,239
Combo4 : 82,158,235

[HitObjects]
72,120,2199,6,0,P|128:128|160:152,1,87.5,4|0,0:0|0:0,0:0:0:0:
124,256,2612,1,8,0:0:0:0:
236,240,2819,2,0,P|273:261|316:264,1,87.5,0|0,0:0|0:0,0:0:0:0:
464,204,3233,1,0,0:0:0:0:
320,136,3440,1,8,0:0:0:0:
412,264,3647,1,0,0:0:0:0:
396,108,3854,5,0,0:0:0:0:
292,28,4061,1,0,0:0:0:0:
164,56,4268,2,0,P|152:100|116:140,1,87.5,8|0,0:0|0:0,0:0:0:0:
24,212,4681,1,0,0:0:0:0:
128,292,4888,1,0,0:0:0:0:
256,264,5095,2,0,P|268:220|304:180,1,87.5,8|0,0:0|0:0,0:0:0:0:
396,108,5509,6,0,P|438:117|481:109,1,87.5,0|0,0:0|0:0,0:0:0:0:
292,28,5923,1,8,0:0:0:0:
216,116,6130,2,0,P|204:160|168:200,1,87.5,0|0,0:0|0:0,0:0:0:0:
24,212,6544,1,0,0:0:0:0:
84,356,6750,1,8,0:0:0:0:
216,272,6957,1,0,0:0:0:0:
216,116,7164,5,0,0:0:0:0:
112,192,7371,1,0,0:0:0:0:
216,272,7578,2,0,P|268:268|316:240,1,87.5,8|0,0:0|0:0,0:0:0:0:
412,184,7992,1,0,0:0:0:0:
292,136,8199,1,0,0:0:0:0:
352,20,8406,2,0,P|392:2|435:1,1,87.5,8|0,0:0|0:0,0:0:0:0:
292,136,8819,6,0,P|251:150|207:147,1,87.5,0|0,0:0|0:0,0:0:0:0:
160,44,9233,1,8,0:0:0:0:
56,92,9440,2,0,P|29:122|17:182,1,87.5,0|0,0:0|0:0,0:0:0:0:
32,324,9854,1,0,0:0:0:0:
188,356,10061,1,8,0:0:0:0:
140,208,10268,1,0,0:0:0:0:
120,300,10475,5,0,0:0:0:0:
232,276,10681,1,0,0:0:0:0:
296,372,10888,2,0,P|376:348|448:288,1,175,8|0,0:0|0:0,0:0:0:0:
404,184,11509,1,0,0:0:0:0:
413,72,11716,2,0,P|456:83|492:108,1,87.5,8|0,0:0|0:0,0:0:0:0:
312,120,12130,6,0,P|300:78|303:34,2,87.5,0|0|8,0:0|0:0|0:0,0:0:0:0:
404,184,12750,2,0,P|373:215|334:233,1,87.5,0|0,0:0|0:0,0:0:0:0:
180,272,13164,1,0,0:0:0:0:
224,120,13371,1,8,0:0:0:0:
334,233,13578,1,0,0:0:0:0:
480,228,13785,5,0,0:0:0:0:
492,96,13992,1,0,0:0:0:0:
376,32,14199,2,0,P|308:44|284:62,1,87.5,8|0,0:0|0:0,0:0:0:0:
496,208,14612,1,0,0:0:0:0:
473,77,14819,1,0,0:0:0:0:
356,132,15026,2,0,P|317:187|312:218,1,87.5,8|0,0:0|0:0,0:0:0:0:
284,336,15440,5,4,0:0:0:0:
68,272,15854,1,8,0:0:0:0:
68,272,16061,2,0,B|86:246|86:246|114:230|114:230|142:194,1,87.5,0|0,0:0|0:0,0:0:0:0:
148,56,16475,1,0,0:0:0:0:
32,160,16681,1,8,0:0:0:0:
184,152,16888,1,0,0:0:0:0:
248,92,17095,6,0,P|272:55|309:34,2,87.5,0|0|8,0:0|0:0|0:0,0:0:0:0:
184,152,17716,2,0,P|232:176|292:168,1,87.5
332,120,18130,2,0,P|351:158|351:202,1,87.5,0|8,0:0|0:0,0:0:0:0:
332,360,18544,1,0,0:0:0:0:
240,292,18750,6,0,P|192:268|132:276,1,87.5
20,348,19164,1,8,0:0:0:0:
176,344,19371,1,0,0:0:0:0:
88,216,19578,1,0,0:0:0:0:
88,216,19992,2,0,P|132:192|156:164,1,87.5,8|0,0:0|0:0,0:0:0:0:
212,96,20406,6,0,P|171:66|136:56,2,87.5,0|0|8,0:0|0:0|0:0,0:0:0:0:
248,200,21026,1,0,0:0:0:0:
300,104,21233,2,0,P|292:54|274:22,2,87.5,0|0|8,0:0|0:0|0:0,0:3:0:0:
248,200,21853,1,0,0:3:0:0:
352,168,22061,6,0,P|381:127|391:92,1,87.5
460,36,22475,1,8,0:2:0:0:
300,104,22681,1,0,0:3:0:0:
456,128,22888,1,0,0:2:0:0:
336,20,23095,1,0,0:2:0:0:
352,168,23302,2,0,P|322:208|312:243,1,87.5,8|0,0:0|0:0,0:0:0:0:
360,320,23716,6,0,B|328:340|300:340|268:324|268:324|240:340|160:340,1,175,0|8,0:0|0:0,0:0:0:0:
44,244,24544,2,0,P|44:188|64:144,1,87.5
152,216,24957,1,8,0:0:0:0:
64,84,25164,1,0,0:0:0:0:
128,28,25371,6,0,L|220:40,1,87.5
372,32,25785,1,8,0:0:0:0:
252,132,25992,1,0,0:0:0:0:
180,180,26199,2,0,P|220:212|268:216,1,87.5
380,124,26612,1,8,0:0:0:0:
400,280,26819,1,0,0:0:0:0:
324,320,27026,6,0,L|237:308,1,87.5
156,336,27440,1,8,0:0:0:0:
156,336,27854,2,0,B|136:265|136:265|118:251|118:251|95:174,1,175,0|8,0:0|0:0,0:0:0:0:
96,176,28681,6,0,P|51:149|25:110,2,87.5,4|0|8,0:0|0:0|0:0,0:0:0:0:
164,268,29302,1,0,0:0:0:0:
224,124,29509,2,0,P|196:90|158:69,1,87.5
96,176,29923,1,8,0:0:0:0:
224,124,30130,1,0,0:0:0:0:
360,156,30337,6,0,P|408:148|452:104,1,87.5
472,16,30750,1,8,0:0:0:0:
364,52,30957,2,0,B|368:104|416:152|420:224,1,175
404,348,31578,1,8,0:0:0:0:
312,256,31785,1,0,0:0:0:0:
180,268,31992,6,0,P|152:224|132:176,1,87.5
220,152,32406,1,8,0:0:0:0:
64,140,32612,1,0,0:0:0:0:
64,140,33026,1,0,0:0:0:0:
112,66,33233,2,0,P|156:72|200:68,1,87.5,8|0,0:0|0:0,0:0:0:0:
224,196,33647,6,8,P|249:231|266:271,2,87.5,0|0|8,0:0|0:0|0:0,0:0:0:0:
200,68,34268,1,0,0:0:0:0:
367,37,34475,2,8,P|341:72|324:111,2,87.5,0|0|8,0:0|0:0|0:0,0:0:0:0:
312,192,35095,1,0,0:0:0:0:
172,284,35302,6,0,P|120:220|92:124,1,175,0|8,0:0|0:0,0:0:0:0:
224,196,35923,1,0,0:0:0:0:
248,336,36130,2,0,P|216:360|156:376,1,87.5,0|0,0:0|0:0,0:0:0:0:
96,328,36544,1,8,0:0:0:0:
224,196,36957,6,0,B|260:228|303:232,2,87.5,0|0|8,0:0|0:0|0:0,0:0:0:0:
248,336,37578,2,0,B|290:339|326:371,1,87.5
488,368,37992,1,0,0:0:0:0:
400,284,38199,1,8,0:0:0:0:
496,208,38406,1,0,0:0:0:0:
452,96,38612,6,0,P|376:96|344:84,1,87.5
292,48,39026,2,0,P|224:40|184:48,1,87.5,8|0,0:0|0:0,0:0:0:0:
125,134,39440,2,0,P|168:142|212:140,2,87.5,0|0|8,0:0|0:0|0:0,0:0:0:0:
64,232,40061,1,0,0:0:0:0:
176,252,40268,6,0,P|210:280|232:318,1,87.5
148,332,40681,1,8,0:0:0:0:
312,216,40888,1,0,0:0:0:0:
312,216,41302,5,0,0:0:0:0:
432,244,41509,1,8,0:0:0:0:
464,124,41716,1,0,0:0:0:0:
380,28,41923,5,4,0:0:0:0:
380,168,42130,1,0,0:0:0:0:
288,76,42337,1,8,0:0:0:0:
464,124,42544,1,0,0:0:0:0:
432,244,42750,2,0,P|407:280|369:299,1,87.5
248,270,43164,2,0,P|273:235|312:216,1,87.5,8|0,0:0|0:0,0:0:0:0:
432,244,43578,5,0,0:0:0:0:
248,270,43785,1,0,0:0:0:0:
380,168,43992,1,8,0:0:0:0:
340,340,44199,1,0,0:0:0:0:
224,188,44406,2,0,P|272:192|320:220,1,87.5
380,168,44819,2,0,P|400:211|400:267,1,87.5,8|0,0:0|0:0,0:0:0:0:
248,270,45233,5,0,0:0:0:0:
280,116,45440,1,0,0:0:0:0:
132,172,45647,1,8,0:0:0:0:
224,188,45854,1,0,0:0:0:0:
176,76,46061,2,0,P|134:89|91:88,1,87.5
132,172,46475,2,0,P|95:208|81:239,1,87.5,8|0,0:0|0:0,0:0:0:0:
120,320,46888,5,0,0:0:0:0:
224,188,47095,1,0,0:0:0:0:
212,336,47302,1,8,0:0:0:0:
132,172,47509,1,0,0:0:0:0:
176,256,47716,2,0,P|280:260|356:232,1,175,0|8,0:0|0:0,0:0:0:0:
436,240,48337,1,0,0:0:0:0:
436,240,48544,6,0,P|420:188|376:152,1,87.5,4|0,0:0|0:0,0:0:0:0:
320,132,48957,2,0,P|280:184|256:200,1,87.5,8|0,0:0|0:0,0:0:0:0:
252,84,49371,2,0,P|292:32|316:16,2,87.5,0|0|8,0:0|0:0|0:0,0:0:0:0:
220,240,49992,1,0,0:0:0:0:
174,117,50199,2,0,P|148:56|147:27,2,87.5,0|0|8,0:0|0:0|0:0,0:0:0:0:
296,220,50820,1,0,0:0:0:0:
157,194,51026,2,0,P|91:185|66:172,2,87.5,0|0|8,0:0|0:0|0:0,0:0:0:0:
308,140,51647,1,0,0:0:0:0:
420,160,51854,6,0,P|412:92|304:28,1,175,0|8,0:0|0:0,0:0:0:0:
308,140,52475,1,0,0:0:0:0:
348,244,52681,2,0,P|400:272|436:272,1,87.5
308,140,53095,2,0,P|256:112|220:112,1,87.5,8|0,0:0|0:0,0:0:0:0:
61,37,53509,5,8,0:0:0:0:
153,196,53716,1,8,0:0:0:0:
172,13,53923,1,8,0:0:0:0:
49,150,54130,1,8,0:0:0:0:
229,111,54337,1,0,0:0:0:0:
481,54,54750,5,0,0:0:0:0:
308,140,55164,6,0,P|359:227|460:238,1,210.000008010865,4|8,0:0|0:0,0:0:0:0:
416,142,55785,1,0,0:0:0:0:
260,251,55992,1,0,0:0:0:0:
429,334,56199,2,0,P|432:282|460:237,1,105.000004005432,0|8,0:0|0:0,0:0:0:0:
416,142,56612,2,0,P|356:230|228:242,1,210.000008010865
88,172,57233,1,8,0:0:0:0:
256,164,57440,5,0,0:0:0:0:
116,256,57647,1,0,0:0:0:0:
138,88,57854,2,0,P|190:84|240:68,1,105.000004005432,0|8,0:0|0:0,0:0:0:0:
364,12,58268,2,0,P|372:64|360:120,2,105.000004005432,0|0|0,0:0|0:0|0:0,0:0:0:0:
240,68,58888,1,8,0:0:0:0:
332,184,59095,5,0,0:0:0:0:
188,152,59302,1,0,0:0:0:0:
280,268,59509,2,0,P|228:300|180:304,1,105.000004005432,0|8,0:0|0:0,0:0:0:0:
332,184,59923,2,0,P|384:152|432:148,1,105.000004005432,0|0,0:0|0:0,0:0:0:0:
248,172,60337,2,0,P|262:112|293:75,1,105.000004005432,0|8,0:0|0:0,0:0:0:0:
192,228,60750,2,0,P|160:175|156:128,1,105.000004005432,0|0,0:0|0:0,0:0:0:0:
332,184,61164,1,0,0:0:0:0:
192,228,61371,1,8,0:0:0:0:
312,316,61578,1,0,0:0:0:0:
452,272,61785,1,0,0:0:0:0:
452,272,62199,5,8,0:0:0:0:
428,168,62406,1,0,0:0:0:0:
360,88,62612,2,0,B|384:60|432:60|432:60|464:28,2,105.000004005432,0|0|8,0:0|0:0|0:0,0:0:0:0:
232,172,63233,1,0,0:0:0:0:
120,92,63440,6,0,P|153:53|202:35,1,105.000004005432,0|0,0:0|0:0,0:0:0:0:
232,172,63854,2,0,P|199:211|150:229,1,105.000004005432,8|0,0:0|0:0,0:0:0:0:
260,312,64268,2,0,P|310:321|350:354,1,105.000004005432,0|0,0:0|0:0,0:0:0:0:
353,219,64681,2,0,P|335:171|344:120,1,105.000004005432,8|0,0:0|0:0,0:3:0:0:
476,156,65095,6,0,P|493:204|484:255,2,105.000004005432,0|0|8,0:0|0:0|0:0,0:0:0:0:
420,80,65716,1,0,0:0:0:0:
344,120,65923,2,0,P|296:108|252:64,1,105.000004005432,0|0,0:0|0:0,0:3:0:0:
344,16,66337,1,8,0:0:0:0:
240,184,66544,5,0,0:0:0:0:
132,68,66750,1,0,0:0:0:0:
88,220,66957,1,0,0:0:0:0:
244,160,67164,1,8,0:0:0:0:
111,73,67371,1,0,0:0:0:0:
105,231,67578,2,0,P|140:292|196:320,1,105.000004005432,0|8,0:0|0:0,0:0:0:0:
302,263,67992,2,0,P|280:216|240:184,1,105.000004005432,8|0,0:0|0:0,0:0:0:0:
302,263,68406,6,0,P|395:217|450:130,1,210.000008010865,4|8,0:0|0:0,0:0:0:0:
348,116,69026,1,0,0:0:0:0:
444,280,69233,1,0,0:0:0:0:
288,172,69440,2,0,P|236:196|208:236,1,105.000004005432,0|8,0:0|0:0,0:0:0:0:
76,200,69854,2,0,P|128:176|156:136,1,105.000004005432,0|0,0:0|0:0,0:0:0:0:
160,32,70268,1,0,0:0:0:0:
76,200,70475,1,8,0:0:0:0:
236,128,70681,5,0,0:0:0:0:
152,296,70888,2,0,P|204:328|256:332,1,105.000004005432
352,332,71302,1,8,0:0:0:0:
408,244,71509,2,0,B|376:192|376:148|376:148|400:88|360:32,1,210.000008010865
276,103,72130,1,8,0:0:0:0:
174,129,72337,6,0,P|174:77|200:32,2,105.000004005432
148,232,72957,1,8,0:0:0:0:
248,200,73164,2,0,P|273:155|276:103,1,105.000004005432
200,32,73578,2,0,P|148:60|116:104,1,105.000004005432,0|8,0:0|0:0,0:0:0:0:
248,200,73992,2,0,P|300:172|332:128,1,105.000004005432
200,32,74406,1,0,0:0:0:0:
148,232,74612,1,8,0:0:0:0:
344,168,74819,1,0,0:0:0:0:
488,304,75026,1,0,0:0:0:0:
488,304,75440,6,0,P|468:236|436:208,1,105.000004005432,8|0,0:0|0:0,0:0:0:0:
384,300,75854,2,0,B|348:328|312:320|288:308|288:308|228:276|164:320,1,210.000008010865,0|8,0:0|0:0,0:0:0:0:
32,368,76475,1,0,0:0:0:0:
124,240,76681,6,0,P|160:196|172:148,1,105.000004005432
116,24,77095,2,0,P|80:68|68:116,1,105.000004005432,8|0,0:0|0:0,0:0:0:0:
268,192,77509,1,0,0:0:0:0:
284,4,77716,1,0,0:0:0:0:
172,152,77923,1,8,0:0:0:0:
352,96,78130,1,0,0:0:0:0:
367,227,78337,6,0,B|388:258|388:258|396:283|395:328,2,105.000004005432,0|0|8,0:0|0:0|0:0,0:0:0:0:
268,192,78957,1,0,0:0:0:0:
172,152,79164,2,0,P|184:252|280:292,1,210.000008010865,0|8,0:0|0:0,0:0:0:0:
367,227,79785,1,0,0:0:0:0:
308,40,79992,6,0,L|208:4,1,105.000004005432
268,192,80406,2,0,L|366:227,1,105.000004005432,8|0,0:0|0:0,0:0:0:0:
332,132,80819,2,0,L|232:96,1,105.000004005432,0|8,0:0|0:0,0:0:0:0:
294,285,81233,2,0,L|392:320,1,105.000004005432,8|0,0:0|0:0,0:0:0:0:
268,192,81647,5,4,0:0:0:0:
256,192,81750,12,8,82888,0:0:0:0:
444,88,94888,6,0,B|404:120|356:108|356:108|296:96|264:136,1,175,4|8,0:0|0:0,0:0:0:0:
184,188,95509,1,0,0:0:0:0:
204,76,95716,2,0,P|244:44|300:28,2,87.5,0|0|8,0:0|0:0|0:0,0:0:0:0:
184,188,96337,1,0,0:0:0:0:
172,276,96544,6,0,P|100:220|120:128,1,175,0|8,0:0|0:0,0:0:0:0:
184,188,97164,2,0,P|248:220|260:240,1,87.5
316,296,97578,2,0,P|340:248|376:216,1,87.5,0|8,0:0|0:0,0:0:0:0:
436,124,97992,1,0,0:0:0:0:
356,32,98199,6,0,P|332:80|296:112,1,87.5,0|0,0:0|0:0,0:0:0:0:
264,28,98612,1,8,0:0:0:0:
436,124,98819,1,0,0:0:0:0:
296,192,99026,1,0,0:0:0:0:
192,72,99233,1,0,0:0:0:0:
368,148,99440,2,0,P|388:200|392:240,1,87.5,8|0,0:0|0:0,0:0:0:0:
296,192,99854,6,0,P|276:140|272:100,2,87.5,0|0|8,0:0|0:0|0:0,0:0:0:0:
392,232,100475,1,0,0:0:0:0:
296,284,100681,2,0,P|245:261|213:235,1,87.5
128,112,101095,1,8,0:0:0:0:
80,260,101302,1,0,0:0:0:0:
200,160,101509,2,0,P|222:109|248:77,1,87.5
292,156,101923,1,8,0:0:0:0:
128,112,102130,1,0,0:0:0:0:
176,264,102337,1,0,0:0:0:0:
292,156,102544,1,0,0:0:0:0:
380,168,102750,2,0,P|340:228|312:240,1,87.5,8|0,0:0|0:0,0:0:0:0:
292,156,103164,6,0,P|336:96|448:112,1,175,0|8,0:0|0:0,0:0:0:0:
380,168,103785,1,0,0:0:0:0:
292,156,103992,2,0,P|221:170|193:158,1,87.5,0|0,0:0|0:0,0:0:0:0:
148,266,104406,2,0,P|188:250|232:256,1,87.5,8|0,0:0|0:0,0:0:0:0:
344,264,104819,6,0,L|298:362,1,87.5
232,256,105233,1,8,0:0:0:0:
408,324,105440,1,0,0:0:0:0:
452,248,105647,2,0,L|490:169,1,87.5
508,40,106061,1,8,0:0:0:0:
420,140,106268,1,0,0:0:0:0:
348,88,106475,6,0,P|336:144|312:180,1,87.5
248,104,106888,2,0,P|260:48|284:12,1,87.5,8|0,0:0|0:0,0:0:0:0:
192,188,107302,2,0,P|160:139|152:97,1,87.5
112,4,107716,1,8,0:0:0:0:
0,32,107923,1,0,0:0:0:0:
76,128,108130,6,0,B|100:168|76:208|76:208|52:272|88:328,1,175,4|8,0:0|0:0,0:0:0:0:
160,372,108750,1,0,0:0:0:0:
188,260,108957,2,0,P|232:248|296:272,1,87.5
324,328,109371,1,8,0:0:0:0:
288,176,109578,1,0,0:0:0:0:
416,268,109785,6,0,P|458:276|500:264,2,87.5,0|0|8,0:0|0:0|0:0,0:0:0:0:
384,188,110406,2,0,L|408:104,1,87.5
352,36,110819,2,0,P|324:69|284:85,1,87.5,0|8,0:0|0:0,0:0:0:0:
184,16,111233,1,0,0:0:0:0:
103,93,111440,6,0,P|98:136|110:177,1,87.5
176,272,111854,1,8,0:0:0:0:
276,212,112061,1,0,0:0:0:0:
276,212,112475,2,0,P|332:188|356:160,1,87.5,0|8,0:0|0:0,0:0:0:0:
336,56,112888,1,0,0:0:0:0:
232,104,113095,6,0,P|176:128|152:156,1,87.5,0|0,0:0|0:0,0:0:0:0:
120,224,113508,1,8,0:0:0:0:
168,328,113716,1,0,0:0:0:0:
263,261,113923,2,0,P|305:273|340:300,1,87.5
428,296,114337,2,0,L|457:208,1,87.5,8|0,0:0|0:0,0:0:0:0:
400,144,114750,6,0,L|371:227,1,87.5,0|0,0:0|0:0,0:0:0:0:
340,300,115164,1,8,0:0:0:0:
340,300,115578,2,0,P|372:360|404:376,2,87.5,0|0|8,0:0|0:0|0:0,0:0:0:0:
300,224,116199,1,0,0:0:0:0:
240,160,116406,6,0,P|187:126|161:123,1,87.5
87,167,116819,2,0,P|121:194|164:204,1,87.5,8|0,0:0|0:0,0:0:0:0:
320,188,117233,1,0,0:0:0:0:
228,60,117440,1,0,0:0:0:0:
164,204,117647,1,8,0:0:0:0:
292,116,117854,1,0,0:0:0:0:
434,170,118061,6,0,P|430:254|362:326,1,175,0|8,0:0|0:0,0:0:0:0:
286,334,118681,1,0,0:0:0:0:
230,266,118888,2,0,P|235:180|292:116,1,175,0|8,0:0|0:0,0:0:0:0:
378,102,119509,1,0,0:0:0:0:
434,170,119716,5,0,0:0:0:0:
256,192,119819,12,8,120957,0:0:0:0:
180,236,121371,5,0,0:0:0:0:
24,212,121578,1,0,0:0:0:0:
136,324,121785,1,8,0:0:0:0:
108,168,121992,1,0,0:0:0:0:
168,92,122199,2,0,L|276:104,1,87.5
404,156,122612,1,8,0:0:0:0:
356,4,122819,1,0,0:0:0:0:
316,156,123026,6,0,P|280:212|276:252,1,87.5
404,156,123440,2,0,P|373:96|340:73,1,87.5,8|0,0:0|0:0,0:0:0:0:
360,232,123854,2,0,P|426:235|463:218,2,87.5,0|0|8,0:0|0:0|0:0,0:0:0:0:
188,268,124681,5,0,0:0:0:0:
248,124,124888,1,0,0:0:0:0:
360,232,125095,1,8,0:0:0:0:
264,216,125302,1,0,0:0:0:0:
176,180,125509,2,0,P|160:148|168:84,1,87.5
76,80,125923,2,0,P|87:46|138:6,1,87.5,8|0,0:0|0:0,0:0:0:0:
272,72,126337,5,0,0:0:0:0:
420,20,126544,1,0,0:0:0:0:
316,136,126750,1,8,0:0:0:0:
464,80,126957,1,0,0:0:0:0:
360,196,127164,2,0,P|332:228|284:256,2,87.5,0|0|8,0:0|0:0|0:0,0:0:0:0:
384,84,127785,1,0,0:0:0:0:
272,72,127992,6,0,B|232:88|200:120|200:120|164:128|164:128|136:148|120:180,1,175,4|8,0:0|0:0,0:0:0:0:
128,280,128612,2,0,P|168:272|208:248,1,87.5
129,165,129026,1,0,0:0:0:0:
36,292,129233,1,8,0:0:0:0:
176,360,129440,1,0,0:0:0:0:
240,268,129647,5,0,0:0:0:0:
328,340,129854,1,0,0:0:0:0:
388,244,130061,2,0,L|352:164,1,87.5,8|0,0:0|0:0,0:0:0:0:
396,40,130475,2,0,L|432:120,1,87.5
464,200,130888,1,8,0:0:0:0:
388,244,131095,6,0,B|352:216|352:216|320:208|320:208|272:184|228:140,1,175
176,92,131716,2,0,P|149:137|145:189,1,87.5,8|0,0:0|0:0,0:0:0:0:
56,188,132130,2,0,P|81:233|124:263,1,87.5,0|0,0:0|0:0,0:0:0:0:
80,340,132544,2,0,P|132:340|179:318,1,87.5,8|0,0:0|0:0,0:0:0:0:
256,284,132957,5,8,0:0:0:0:
399,223,133164,1,8,0:0:0:0:
270,134,133371,1,8,0:0:0:0:
335,276,133578,1,8,0:0:0:0:
419,301,133785,2,0,P|480:209|442:151,1,175,0|0,0:0|0:0,0:0:0:0:
308,40,134612,6,0,B|276:48|276:48|220:24|160:48,1,140,6|0,0:0|0:0,0:0:0:0:
104,84,135233,1,2,0:0:0:0:
64,148,135440,1,2,0:0:0:0:
92,220,135647,2,2,P|84:253|60:284,1,70,2|0,0:0|0:0,0:0:0:0:
28,352,136061,2,0,B|64:372|96:360|120:340|120:340|176:336,1,140,2|2,0:0|0:0,0:0:0:0:
288,260,136888,5,2,0:0:0:0:
320,188,137095,1,2,0:0:0:0:
244,192,137302,2,2,P|212:232|208:256,1,70,2|0,0:0|0:0,0:0:0:0:
288,260,137716,2,0,P|384:236|400:196,1,140,2|2,0:0|0:0,0:0:0:0:
500,88,138544,5,2,0:0:0:0:
436,44,138750,1,2,0:0:0:0:
368,84,138957,2,0,P|340:64|308:16,1,70,2|0,0:0|0:0,0:0:0:0:
264,92,139371,2,0,P|176:68|116:76,1,140,2|2,0:0|0:0,0:0:0:0:
256,280,140199,2,0,P|344:304|404:296,1,140,2|2,0:0|0:0,0:0:0:0:
391,299,140819,1,2,0:0:0:0:
300,192,141233,5,6,0:0:0:0:
300,192,141647,2,0,P|296:119|320:48,1,140,2|2,0:0|0:0,0:0:0:0:
212,192,142475,2,0,P|215:264|192:336,1,140,2|2,0:0|0:0,0:0:0:0:
136,176,143302,2,0,P|168:128|196:108,1,70,2|0,0:0|0:0,0:0:0:0:
164,44,143716,2,0,P|221:47|252:61,1,70,2|0,0:0|0:0,0:0:0:0:
296,8,144130,2,0,P|321:59|324:93,1,70,2|0,0:0|0:0,0:0:0:0:
272,128,144544,6,0,P|291:195|327:254,1,140,2|2,0:0|0:0,0:0:0:0:
368,320,145164,1,0,0:0:0:0:
312,372,145371,2,0,P|264:352|160:332,1,140,2|2,0:0|0:0,0:0:0:0:
144,264,145992,1,0,0:0:0:0:
220,236,146199,5,2,0:0:0:0:
440,72,146612,1,2,0:0:0:0:
304,280,147026,1,2,0:0:0:0:
356,28,147440,1,2,0:0:0:0:
472,156,147854,6,0,B|392:164|392:164|360:152|328:120,1,140,4|8,0:0|0:0,0:0:0:0:
296,72,148475,1,0,0:0:0:0:
236,24,148682,2,0,P|204:28|164:48,1,70
156,120,149095,1,8,0:0:0:0:
232,132,149302,2,0,P|220:204|172:276,1,140
116,292,149923,5,8,0:0:0:0:
68,352,150130,2,0,P|19:332|0:312,2,70
144,364,150750,1,8,0:0:0:0:
204,316,150957,2,0,P|288:300|356:320,1,140
392,372,151578,5,8,0:0:0:0:
464,344,151785,1,0,0:0:0:0:
468,268,151992,2,0,P|464:232|448:200,1,70
392,152,152406,1,8,0:0:0:0:
316,136,152612,6,0,L|352:68,1,70
276,52,153026,2,0,L|243:113,1,70,0|8,0:0|0:0,0:0:0:0:
208,184,153440,2,0,B|164:200|140:252|76:252,1,140
12,240,154061,1,8,0:0:0:0:
12,240,154475,5,0,0:0:0:0:
244,144,154888,2,0,P|324:140|380:180,1,140,8|0,0:0|0:0,0:0:0:0:
160,236,155716,2,0,P|80:240|24:200,1,140,8|0,0:0|0:0,0:0:0:0:
248,236,156544,2,0,P|252:316|212:372,1,140,8|0,0:0|0:0,0:0:0:0:
156,140,157371,2,0,P|152:76|168:48,1,70,8|0,0:0|0:0,0:0:0:0:
216,40,157785,5,0,0:0:0:0:
288,40,157992,1,0,0:0:0:0:
352,72,158199,1,8,0:0:0:0:
396,128,158406,1,0,0:0:0:0:
456,244,158612,5,0,0:0:0:0:
384,244,158819,1,0,0:0:0:0:
320,216,159026,1,8,0:0:0:0:
280,156,159233,1,0,0:0:0:0:
240,264,159440,5,8,0:0:0:0:
216,284,159544,1,8,0:0:0:0:
188,296,159647,1,8,0:0:0:0:
156,300,159750,1,8,0:0:0:0:
124,296,159854,1,8,0:0:0:0:
96,284,159957,1,8,0:0:0:0:
72,264,160061,1,8,0:0:0:0:
56,236,160164,1,8,0:0:0:0:
44,208,160268,6,0,P|64:152|92:132,1,70,8|0,0:0|0:0,0:0:0:0:
172,80,160681,2,0,P|165:114|146:143,1,70,0|0,0:0|0:0,0:0:0:0:
268,48,161095,6,0,B|328:60|328:60|352:96|352:96|408:140|416:200,1,210.000008010865,4|8,0:0|0:0,0:0:0:0:
408,288,161716,2,0,P|464:276|504:236,2,105.000004005432
308,248,162337,1,8,0:0:0:0:
212,204,162544,2,0,P|204:152|208:99,1,105.000004005432
308,72,162957,1,0,0:0:0:0:
368,160,163164,1,8,0:0:0:0:
308,248,163371,6,0,P|288:296|232:328,1,105.000004005432
212,204,163785,2,0,P|232:156|288:124,1,105.000004005432,0|8,0:0|0:0,0:0:0:0:
308,248,164199,2,0,P|316:312|312:352,1,105.000004005432
220,304,164612,1,0,0:0:0:0:
308,248,164819,1,8,0:0:0:0:
400,200,165026,6,0,B|432:192|432:192|452:176|452:176|508:164,2,105.000004005432
308,248,165647,1,8,0:0:0:0:
232,176,165854,2,0,P|192:124|136:88,1,105.000004005432
80,32,166268,2,0,P|54:92|51:159,1,105.000004005432,0|8,0:0|0:0,0:0:0:0:
32,236,166681,2,0,P|97:227|156:196,1,105.000004005432
232,176,167095,1,0,0:0:0:0:
320,344,167302,1,8,0:0:0:0:
132,328,167509,1,0,0:0:0:0:
232,284,167716,1,0,0:0:0:0:
452,120,168130,5,8,0:0:0:0:
340,152,168337,1,0,0:0:0:0:
236,100,168544,2,0,P|252:36|292:0,2,105.000004005432,0|0|8,0:0|0:0|0:0,0:0:0:0:
280,228,169164,1,0,0:0:0:0:
168,152,169371,6,0,P|134:95|136:41,1,105.000004005432
76,184,169785,2,0,P|109:240|107:294,1,105.000004005432,8|0,0:0|0:0,0:0:0:0:
156,372,170199,2,0,P|188:314|235:289,1,105.000004005432,0|0,0:0|0:0,0:0:0:0:
332,348,170612,1,8,0:0:0:0:
316,172,170819,1,0,0:0:0:0:
436,288,171026,6,0,B|456:336|512:364,2,105.000004005432,0|0|8,0:0|0:0|0:0,0:0:0:0:
452,120,171647,1,0,0:0:0:0:
376,232,171854,2,0,B|332:268|284:256|256:232|256:232|172:280,1,210.000008010865,0|8,0:0|0:0,0:0:0:0:
56,360,172475,5,0,0:0:0:0:
17,169,172681,2,0,P|47:212|92:240,1,105.000004005432
132,108,173095,2,0,P|102:65|58:38,1,105.000004005432,8|0,0:0|0:0,0:0:0:0:
184,180,173509,2,0,P|232:188|300:164,1,105.000004005432,0|8,0:0|0:0,0:0:0:0:
392,164,173923,2,0,P|361:201|347:272,1,105.000004005432,8|0,0:0|0:0,0:0:0:0:
400,348,174337,6,0,B|348:376|296:348|296:348|244:368|184:352,1,210.000008010865,4|8,0:0|0:0,0:0:0:0:
128,236,174957,1,0,0:0:0:0:
4,292,175164,1,0,0:0:0:0:
4,152,175371,2,0,P|64:128|120:132,1,105.000004005432,0|8,0:0|0:0,0:0:0:0:
128,236,175785,2,0,P|180:234|227:212,1,105.000004005432,0|0,0:0|0:0,0:0:0:0:
404,140,176199,1,0,0:0:0:0:
220,92,176406,1,8,0:0:0:0:
324,248,176612,6,0,P|300:293|254:318,1,105.000004005432
128,236,177026,1,0,0:0:0:0:
232,228,177233,1,8,0:0:0:0:
106,147,177441,2,0,P|60:172|36:220,1,105.000004005432
184,324,177854,1,0,0:0:0:0:
220,92,178061,1,8,0:0:0:0:
128,236,178268,5,0,0:0:0:0:
300,160,178475,1,0,0:0:0:0:
388,51,178681,2,0,P|429:20|480:13,1,105.000004005432,0|8,0:0|0:0,0:0:0:0:
468,120,179095,2,0,L|420:216,1,105.000004005432
392,316,179509,2,0,P|476:304|516:272,1,105.000004005432,0|8,0:0|0:0,0:0:0:0:
421,213,179923,2,0,P|337:225|297:257,1,105.000004005432
228,284,180337,1,0,0:0:0:0:
196,80,180544,1,8,0:0:0:0:
144,248,180750,1,0,0:0:0:0:
280,116,180957,1,0,0:0:0:0:
280,116,181371,6,0,P|368:88|464:172,1,210.000008010865,8|0,0:0|0:0,0:0:0:0:
452,256,181992,1,0,0:0:0:0:
436,360,182199,2,0,P|368:316|352:280,1,105.000004005432,8|0,0:0|0:0,0:0:0:0:
300,208,182612,6,0,P|240:136|120:116,1,210.000008010865,0|8,0:0|0:0,0:0:0:0:
36,164,183233,1,0,0:0:0:0:
48,268,183440,2,0,P|108:340|228:360,1,210.000008010865,0|8,0:0|0:0,0:0:0:0:
312,312,184061,1,0,0:0:0:0:
300,208,184268,6,0,B|268:216|268:216|240:236|208:288,2,105.000004005432,0|0|8,0:0|0:0|0:0,0:0:0:0:
396,176,184888,1,0,0:0:0:0:
500,200,185095,2,0,B|509:168|509:168|505:134|476:80,2,105.000004005432,0|0|8,0:0|0:0|0:0,0:0:0:0:
452,292,185716,1,0,0:0:0:0:
364,348,185923,6,0,P|315:328|280:289,1,105.000004005432
176,312,186337,2,0,P|169:260|184:210,1,105.000004005432,8|0,0:0|0:0,0:0:0:0:
104,144,186750,2,0,P|145:112|196:100,1,105.000004005432,0|8,0:0|0:0,0:0:0:0:
256,188,187164,2,0,P|323:166|359:127,1,105.000004005432,8|0,0:0|0:0,0:0:0:0:
400,72,187578,6,0,P|456:144|448:236,1,175,4|8,0:0|0:0,0:0:0:0:
384,280,188199,1,0,0:0:0:0:
300,304,188406,2,0,P|328:348|368:368,2,87.5,0|0|8,0:0|0:0|0:0,0:0:0:0:
265,223,189026,2,0,P|250:182|220:152,1,87.5
132,160,189440,2,0,P|156:212|192:240,1,87.5,0|8,0:0|0:0,0:0:0:0:
220,152,189854,1,0,0:0:0:0:
308,20,190061,5,0,0:0:0:0:
164,80,190268,1,0,0:0:0:0:
300,164,190475,1,8,0:0:0:0:
384,144,190681,2,0,P|372:212|352:236,1,87.5
276,240,191095,1,0,0:0:0:0:
188,224,191302,6,0,L|152:328,1,87.5,8|0,0:0|0:0,0:0:0:0:
232,356,191716,2,0,P|332:360|408:332,1,175,0|8,0:0|0:0,0:0:0:0:
464,272,192337,1,0,0:0:0:0:
428,192,192544,2,0,L|512:160,2,87.5,0|0|8,0:0|0:0|0:0,0:0:0:0:
348,164,193164,1,0,0:0:0:0:
260,164,193371,2,0,P|192:148|160:128,1,87.5
196,56,193785,2,0,P|156:38|112:31,1,87.5,8|0,0:0|0:0,0:0:0:0:
48,92,194199,6,0,P|8:40|0:0,2,87.5,0|0|8,0:0|0:0|0:0,0:0:0:0:
164,204,194819,1,0,0:0:0:0:
244,252,195026,1,0,0:0:0:0:
164,116,195233,1,0,0:0:0:0:
88,256,195440,1,8,0:0:0:0:
228,328,195647,2,0,P|296:308|312:284,1,87.5
328,216,196061,2,0,P|372:192|400:136,1,87.5,0|8,0:0|0:0,0:0:0:0:
312,128,196475,1,0,0:0:0:0:
232,92,196681,6,0,P|258:57|296:37,2,87.5,0|0|8,0:0|0:0|0:0,0:0:0:0:
100,220,197302,1,0,0:0:0:0:
148,68,197509,1,0,0:0:0:0:
232,92,197716,1,0,0:0:0:0:
292,156,197923,6,0,P|254:178|211:179,1,87.5,8|0,0:0|0:0,0:0:0:0:
136,144,198337,2,0,P|112:208|172:288,1,175,0|8,0:0|0:0,0:0:0:0:
308,248,198957,1,0,0:0:0:0:
284,332,199164,2,0,P|344:344|392:332,1,87.5
424,272,199578,2,0,P|428:220|420:180,1,87.5,8|0,0:0|0:0,0:0:0:0:
304,84,199992,6,0,P|300:136|308:176,1,87.5,0|8,0:0|0:0,0:0:0:0:
212,300,200406,2,0,P|216:248|208:208,1,87.5,8|0,0:0|0:0,0:0:0:0:
120,84,200819,6,0,P|116:184|144:280,1,175,4|8,0:0|0:0,0:0:0:0:
212,300,201440,1,0,0:0:0:0:
300,288,201647,2,0,P|292:336|264:372,2,87.5,0|0|8,0:0|0:0|0:0,0:0:0:0:
300,200,202268,2,0,P|300:152|288:104,1,87.5
236,40,202681,1,0,0:0:0:0:
84,84,202888,1,8,0:0:0:0:
196,196,203095,1,0,0:0:0:0:
172,108,203302,6,0,P|132:148|120:184,1,87.5
132,264,203716,1,8,0:0:0:0:
164,344,203923,2,0,P|204:304|216:268,1,87.5
196,196,204337,1,0,0:0:0:0:
248,128,204544,6,0,P|304:232|356:280,1,175,8|0,0:0|0:0,0:0:0:0:
420,316,205164,1,0,0:0:0:0:
504,336,205371,2,0,P|488:264|452:232,1,87.5,8|0,0:0|0:0,0:0:0:0:
420,316,205785,2,0,P|356:356|264:300,1,175,0|8,0:0|0:0,0:0:0:0:
216,252,206406,1,0,0:0:0:0:
128,252,206612,6,0,P|124:308|144:352,1,87.5
216,252,207026,2,0,P|220:196|200:152,1,87.5,8|0,0:0|0:0,0:0:0:0:
128,128,207440,5,0,0:0:0:0:
196,72,207647,1,0,0:0:0:0:
280,52,207854,2,0,P|309:84|328:124,1,87.5,8|0,0:0|0:0,0:0:0:0:
284,248,208268,2,0,P|244:196|232:148,1,87.5
328,124,208681,2,0,P|369:112|413:114,1,87.5,8|0,0:0|0:0,0:0:0:0:
480,228,209095,6,0,L|413:284,1,87.5,0|0,0:0|0:0,0:0:0:0:
284,248,209509,2,0,L|351:192,1,87.5,8|0,0:0|0:0,0:0:0:0:
326,320,209923,2,0,B|278:344|234:316|234:316|199:292|160:296,1,175,0|8,0:0|0:0,0:0:0:0:
116,220,210544,1,0,0:0:0:0:
72,144,210750,6,0,P|32:196|32:240,2,87.5,0|0|8,0:0|0:0|0:0,0:0:0:0:
116,220,211371,1,0,0:0:0:0:
160,296,211578,2,0,P|200:244|200:200,2,87.5,0|0|8,0:0|0:0|0:0,0:0:0:0:
116,220,212199,1,0,0:0:0:0:
152,140,212406,6,0,P|184:100|220:80,1,87.5,8|8,0:0|0:0,0:0:0:0:
240,164,212819,2,0,P|290:158|330:169,1,87.5,8|8,0:0|0:0,0:0:0:0:
380,236,213233,5,8,0:0:0:0:
404,216,213337,1,8,0:0:0:0:
416,188,213440,1,8,0:0:0:0:
416,156,213544,1,8,0:0:0:0:
408,128,213647,1,8,0:0:0:0:
392,104,213750,1,8,0:0:0:0:
368,88,213854,1,8,0:0:0:0:
340,76,213957,1,8,0:0:0:0:
256,192,214061,12,0,216130,0:0:0:0:
