osu file format v12

[General]
AudioFilename: DECO-27 - HEART'S HOMING INSTINCT feat. Aoi Yuki feat. .mp3
AudioLeadIn: 0
PreviewTime: 55164
Countdown: 0
SampleSet: Soft
StackLeniency: 0.7
Mode: 0
LetterboxInBreaks: 0
WidescreenStoryboard: 0

[Editor]
DistanceSpacing: 1.1
BeatDivisor: 4
GridSize: 4
TimelineZoom: 1

[Metadata]
Title:Kisou Honnou feat. Yuuki Aoi
TitleUnicode:帰想本能 feat. 悠木碧
Artist:DECO*27
ArtistUnicode:DECO*27
Creator:Kibbleru
Version:Hard
Source:
Tags:LOVE CALENDER so18140621 Ryosuke Dr.R Sakai pkmnyab HEART'S HOMING INSTINCT Vocaloid Hatsune Miku
BeatmapID:358606
BeatmapSetID:144367

[Difficulty]
HPDrainRate:5
CircleSize:4
OverallDifficulty:6
ApproachRate:7
SliderMultiplier:1.4
SliderTickRate:2

[Events]
//Background and Video events
Video,-93,"That one video.avi"
0,0,"KanoChan.png",0,0
//Break Periods
2,83302,93988
//Storyboard Layer 0 (Background)
//Storyboard Layer 1 (Fail)
//Storyboard Layer 2 (Pass)
//Storyboard Layer 3 (Foreground)
//Storyboard Sound Samples
//Background Colour Transformations
3,100,163,162,255

[TimingPoints]
544,413.793103448276,4,2,1,70,1,0
15440,-100,4,2,1,50,0,0
28681,-100,4,2,1,60,0,0
48544,-100,4,2,1,65,0,0
55164,-80,4,2,1,80,0,1
81647,-100,4,2,1,50,0,0
108130,-100,4,2,1,60,0,0
121371,-100,4,2,1,60,0,0
127992,-100,4,2,1,65,0,0
134612,-133.333333333333,4,2,1,40,0,0
141233,-133.333333333333,4,2,1,50,0,0
147854,-133.333333333333,4,2,1,60,0,0
159440,-133.333333333333,4,2,1,30,0,0
159647,-133.333333333333,4,2,1,40,0,0
159854,-133.333333333333,4,2,1,50,0,0
160061,-133.333333333333,4,2,1,60,0,0
161095,-80,4,2,1,80,0,1
187578,-100,4,2,1,70,0,0
214475,-100,4,2,1,50,0,0
214888,-100,4,2,1,40,0,0
215302,-100,4,2,1,30,0,0
215716,-100,4,2,1,20,0,0
216130,-100,4,2,1,10,0,0

[Colours]
Combo1 : 112,245,115
Combo2 : 242,164,17
Combo3 : 239,101,239
Combo4 : 82,158,235

[HitObjects]
96,320,2199,6,0,P|196:292|252:316,1,140,4|8,0:0|0:0,0:0:0:0:
300,332,2819,2,0,P|356:312|380:288,1,70
444,264,3233,1,0,0:0:0:0:
456,172,3440,1,8,0:0:0:0:
392,108,3647,1,0,0:0:0:0:
300,92,3854,6,0,P|294:57|277:26,1,70
228,84,4268,2,0,P|189:40|161:26,1,70,8|0,0:0|0:0,0:0:0:0:
160,108,4681,2,0,P|106:84|75:84,1,70
108,160,5095,2,0,P|49:160|21:174,1,70,8|0,0:0|0:0,0:0:0:0:
80,232,5509,6,0,P|152:244|224:204,1,140,0|8,0:0|0:0,0:0:0:0:
252,152,6130,2,0,P|292:124|320:120,1,70
384,92,6544,2,0,P|364:48|336:20,2,70,0|8|0,0:0|0:0|0:0,0:0:0:0:
376,168,7164,6,0,P|440:176|472:196,1,70
404,244,7578,2,0,P|429:303|427:341,1,70,8|0,0:0|0:0,0:0:0:0:
352,304,7992,2,0,P|313:355|279:373,1,70
280,284,8406,2,0,P|216:276|183:256,1,70,8|0,0:0|0:0,0:0:0:0:
140,304,8819,6,0,P|180:220|164:156,1,140,0|8,0:0|0:0,0:0:0:0:
132,108,9440,2,0,P|84:84|52:80,1,70
8,132,9854,2,0,P|52:156|88:160,1,70,0|8,0:0|0:0,0:0:0:0:
132,108,10268,1,0,0:0:0:0:
208,104,10475,6,0,B|248:104|276:76|276:76|320:84|352:108,1,140,0|8,0:0|0:0,0:0:0:0:
404,136,11095,1,0,0:0:0:0:
456,196,11302,2,0,B|424:236|376:224|376:224|352:200|320:184,1,140,0|8,0:0|0:0,0:0:0:0:
183,193,12130,6,0,B|168:200|144:224|144:224|96:236|64:196,1,140,0|8,0:0|0:0,0:0:0:0:
104,128,12750,2,0,P|76:80|52:64,1,70
8,124,13164,1,0,0:0:0:0:
64,196,13371,1,8,0:0:0:0:
36,284,13578,1,0,0:0:0:0:
104,344,13785,6,0,B|132:356|160:360|180:360,1,70
188,284,14199,2,0,P|236:264|264:232,1,70,8|0,0:0|0:0,0:0:0:0:
296,192,14612,2,0,P|352:172|372:172,1,70
376,248,15026,2,0,P|424:268|452:300,1,70,8|0,0:0|0:0,0:0:0:0:
484,220,15440,5,4,0:0:0:0:
396,92,15854,1,8,0:0:0:0:
396,92,16061,1,0,0:0:0:0:
396,92,16268,2,0,P|336:44|276:44,1,140,0|8,0:0|0:0,0:0:0:0:
172,160,17095,6,0,P|268:156|308:136,2,140,0|8|0,0:0|0:0|0:0,0:0:0:0:
144,88,18130,2,0,P|108:116|92:152,1,70,0|8,0:0|0:0,0:0:0:0:
108,212,18543,1,0,0:0:0:0:
96,288,18750,6,0,P|60:299|20:297,2,70,0|0|8,0:0|0:0|0:0,0:0:0:0:
168,264,19371,2,0,P|228:276|244:284,1,70
396,292,19992,2,0,P|400:328|427:361,1,70,8|0,0:0|0:0,0:0:0:0:
476,300,20406,6,0,P|464:236|412:184,1,140,0|8,0:0|0:0,0:0:0:0:
336,192,21026,1,0,0:0:0:0:
280,244,21233,2,0,P|204:252|136:228,1,140,0|8,0:0|0:0,0:0:0:0:
92,176,21854,1,0,0:0:0:0:
148,124,22061,6,0,P|224:116|292:140,1,140,0|8,0:0|0:0,0:0:0:0:
420,208,22888,1,0,0:0:0:0:
440,60,23302,2,0,P|413:37|379:27,1,70,8|0,0:0|0:0,0:0:0:0:
304,29,23716,6,0,B|285:77|337:117|324:165,1,140,0|8,0:0|0:0,0:0:0:0:
312,316,24544,2,0,P|384:312|440:272,1,140,0|8,0:0|0:0,0:0:0:0:
324,164,25371,6,0,P|252:168|196:208,1,140,0|8,0:0|0:0,0:0:0:0:
132,248,25992,1,0,0:0:0:0:
60,276,26199,2,0,P|140:324|184:304,1,140,0|8,0:0|0:0,0:0:0:0:
252,300,26819,1,0,0:0:0:0:
328,304,27026,6,0,B|352:248|352:248|376:232|376:232|400:172,1,140,0|8,0:0|0:0,0:0:0:0:
508,80,27854,2,0,P|452:44|372:36,1,140,0|0,0:0|0:0,0:0:0:0:
276,148,28681,6,0,P|232:124|212:84,2,70,0|0|8,0:0|0:0|0:0,0:0:0:0:
336,100,29302,1,0,0:0:0:0:
380,36,29509,2,0,P|424:60|444:104,2,70,0|0|8,0:0|0:0|0:0,0:0:0:0:
224,32,30337,6,0,P|140:59|94:114,1,140,0|8,0:0|0:0,0:0:0:0:
145,164,30957,2,0,P|92:209|26:227,1,140,0|0,0:0|0:0,0:0:0:0:
26,227,31578,1,8,0:0:0:0:
152,324,31992,6,0,P|192:340|240:332,1,70
272,284,32406,1,8,0:0:0:0:
348,256,32612,2,0,P|382:256|414:271,1,70
468,324,33026,1,0,0:0:0:0:
396,348,33233,2,0,P|362:348|328:332,1,70,8|0,0:0|0:0,0:0:0:0:
348,256,33647,6,0,P|352:188|308:128,1,140,0|8,0:0|0:0,0:0:0:0:
248,88,34268,1,0,0:0:0:0:
169,77,34475,2,0,P|196:32|225:11,1,70
288,32,34888,2,0,P|261:77|232:98,1,70,8|0,0:0|0:0,0:0:0:0:
200,152,35302,6,0,P|118:174|76:213,1,140,0|8,0:0|0:0,0:0:0:0:
140,260,35923,1,0,0:0:0:0:
192,316,36130,2,0,P|152:356|132:364,2,70,0|0|8,0:0|0:0|0:0,0:0:0:0:
296,204,36957,6,0,P|384:208|444:244,1,140,0|8,0:0|0:0,0:0:0:0:
492,272,37578,1,0,0:0:0:0:
416,140,37992,2,0,P|412:112|428:68,2,70,0|8|0,0:0|0:0|0:0,0:0:0:0:
340,144,38612,6,0,P|248:136|196:160,1,140,0|8,0:0|0:0,0:0:0:0:
136,184,39233,1,0,0:0:0:0:
68,224,39440,2,0,P|40:188|32:152,2,70,0|0|8,0:0|0:0|0:0,0:0:0:0:
136,260,40061,1,0,0:0:0:0:
212,260,40268,6,0,B|296:272|296:272|364:252,1,140,0|8,0:0|0:0,0:0:0:0:
420,224,40888,1,0,0:0:0:0:
420,224,41302,2,0,P|432:280|428:304,2,70,0|8|0,0:0|0:0|0:0,0:0:0:0:
400,148,41923,5,4,0:0:0:0:
340,80,42130,1,0,0:0:0:0:
324,168,42337,2,0,B|268:196|216:144|176:156,1,140,8|0,0:0|0:0,0:0:0:0:
116,112,42957,1,0,0:0:0:0:
112,208,43164,1,8,0:0:0:0:
88,40,43578,6,0,P|40:32|3:45,1,70
48,108,43992,2,0,P|82:117|117:112,1,70,8|0,0:0|0:0,0:0:0:0:
172,56,44406,2,0,B|216:84|216:84|232:112|232:112|308:156,1,140,0|8,0:0|0:0,0:0:0:0:
368,276,45233,6,0,P|392:323|417:343,1,70
443,270,45647,2,0,P|418:222|393:202,1,70,8|0,0:0|0:0,0:0:0:0:
328,212,46061,2,0,P|305:238|291:270,2,70,0|0|8,0:0|0:0|0:0,0:0:0:0:
452,120,46888,5,0,0:0:0:0:
424,208,47095,1,0,0:0:0:0:
492,268,47302,2,0,P|480:308|448:336,1,70,8|0,0:0|0:0,0:0:0:0:
388,356,47716,1,0,0:0:0:0:
320,316,47923,2,0,L|272:264,1,70,0|8,0:0|0:0,0:0:0:0:
228,328,48337,1,0,0:0:0:0:
160,292,48544,5,4,0:0:0:0:
64,168,48957,2,0,P|48:128|16:96,1,70,8|0,0:0|0:0,0:0:0:0:
128,128,49371,2,0,P|216:152|276:144,1,140,0|8,0:0|0:0,0:0:0:0:
344,16,50199,2,0,B|392:36|392:36|400:100|440:136,1,140,0|8,0:0|0:0,0:0:0:0:
448,200,50819,1,0,0:0:0:0:
448,200,51026,2,0,B|436:256|376:252|360:312,1,140,0|8,0:0|0:0,0:0:0:0:
300,356,51647,1,0,0:0:0:0:
300,356,51854,6,0,P|252:284|204:256,1,140,0|8,0:0|0:0,0:0:0:0:
136,224,52475,1,0,0:0:0:0:
60,236,52681,2,0,P|64:200|96:156,1,70
120,100,53095,2,0,P|80:64|72:32,1,70,8|0,0:0|0:0,0:0:0:0:
148,28,53509,5,8,0:0:0:0:
216,108,53716,1,8,0:0:0:0:
300,44,53923,1,8,0:0:0:0:
396,84,54130,2,0,P|436:128|448:160,1,70,8|0,0:0|0:0,0:0:0:0:
360,272,54750,5,0,0:0:0:0:
360,272,55164,6,0,P|319:210|197:189,1,175,4|8,0:0|0:0,0:0:0:0:
164,256,55785,1,0,0:0:0:0:
72,284,55992,2,0,P|54:238|60:184,1,87.5
100,116,56406,1,8,0:0:0:0:
196,100,56612,2,0,P|196:56|179:16,2,87.5
172,192,57233,1,8,0:0:0:0:
264,168,57440,2,0,P|285:130|291:87,2,87.5
172,192,58061,1,8,0:0:0:0:
80,220,58268,2,0,P|58:257|52:300,2,87.5
100,124,58889,1,8,0:0:0:0:
172,192,59095,5,0,0:0:0:0:
232,268,59302,2,0,P|188:288|128:280,1,87.5
80,220,59716,1,8,0:0:0:0:
100,124,59923,2,0,B|156:92|168:44|168:44|248:28,1,175
300,100,60544,1,8,0:0:0:0:
368,168,60750,2,0,P|396:112|396:84,1,87.5
336,12,61164,1,0,0:0:0:0:
300,100,61371,2,0,P|276:196|340:256,1,175,8|0,0:0|0:0,0:0:0:0:
484,352,62199,6,0,P|480:304|448:256,1,87.5,8|0,0:0|0:0,0:0:0:0:
388,332,62612,2,0,B|353:322|353:322|316:336|280:316|280:316|216:268,1,175,0|8,0:0|0:0,0:0:0:0:
84,148,63440,2,0,P|156:148|264:107,1,175,0|8,0:0|0:0,0:0:0:0:
420,19,64268,2,0,P|382:79|364:195,1,175,0|8,0:0|0:0,0:0:0:0:
364,374,65095,6,0,P|328:311|238:236,1,175,0|8,0:0|0:0,0:0:0:0:
148,188,65716,1,0,0:0:0:0:
28,192,65923,2,0,P|20:239|38:301,2,87.5,0|0|8,0:0|0:0|0:0,0:0:0:0:
72,104,66544,1,0,0:0:0:0:
148,48,66750,6,0,P|195:40|257:58,1,87.5,0|0,0:0|0:0,0:0:0:0:
285,128,67164,2,0,P|267:172|221:217,1,87.5,8|0,0:0|0:0,0:0:0:0:
148,188,67578,2,0,P|120:221|105:262,1,87.5,0|8,0:0|0:0,0:0:0:0:
158,347,67992,2,0,P|200:354|243:346,1,87.5,8|0,0:0|0:0,0:0:0:0:
244,347,68406,5,4,0:0:0:0:
436,284,68819,1,8,0:0:0:0:
436,284,69026,2,0,P|488:308|516:344,1,87.5
416,360,69440,2,0,P|364:336|336:300,1,87.5,0|8,0:0|0:0,0:0:0:0:
260,272,69854,2,0,B|276:176|196:184|208:112,1,175
228,20,70475,5,8,0:0:0:0:
136,52,70681,2,0,P|100:104|96:136,1,87.5
160,200,71095,1,0,0:0:0:0:
252,176,71302,1,8,0:0:0:0:
344,144,71509,2,0,P|336:224|256:272,1,175
168,256,72130,1,8,0:0:0:0:
84,212,72337,6,0,P|76:264|96:320,2,87.5
140,136,72957,1,8,0:0:0:0:
140,136,73164,2,0,P|203:116|315:145,1,175,0|0,0:0|0:0,0:0:0:0:
392,240,73785,1,8,0:0:0:0:
392,240,73992,2,0,P|328:259|216:230,1,175,0|0,0:0|0:0,0:0:0:0:
308,140,74612,1,8,0:0:0:0:
308,140,75026,5,0,0:0:0:0:
468,228,75440,2,0,P|478:185|466:137,1,87.5,8|0,0:0|0:0,0:0:0:0:
464,48,75854,2,0,P|421:60|386:95,1,87.5,0|0,0:0|0:0,0:0:0:0:
308,140,76268,2,0,P|340:170|387:183,1,87.5,8|0,0:0|0:0,0:0:0:0:
348,272,76681,6,0,L|248:252,1,87.5
168,268,77095,2,0,P|155:309|108:352,1,87.5,8|0,0:0|0:0,0:0:0:0:
68,264,77509,2,0,P|81:223|128:180,1,87.5
208,184,77923,2,0,P|228:136|224:100,1,87.5,8|0,0:0|0:0,0:0:0:0:
132,92,78337,6,0,B|87:72|87:72|64:56|52:28,2,87.5,0|0|8,0:0|0:0|0:0,0:0:0:0:
208,32,78957,1,0,0:0:0:0:
304,52,79164,2,0,B|349:72|349:72|372:88|384:116,2,87.5,0|0|8,0:0|0:0|0:0,0:0:0:0:
208,32,79785,1,0,0:0:0:0:
132,92,79992,6,0,L|55:152,1,87.5
160,180,80406,2,0,L|229:126,1,87.5,8|0,0:0|0:0,0:0:0:0:
336,164,80819,2,0,L|259:224,1,87.5,0|8,0:0|0:0,0:0:0:0:
364,252,81233,2,0,L|433:198,1,87.5,8|0,0:0|0:0,0:0:0:0:
433,198,81647,5,4,0:0:0:0:
256,192,81750,12,8,82888,0:0:0:0:
488,148,94888,6,0,P|412:168|344:148,1,140,4|8,0:0|0:0,0:0:0:0:
276,140,95509,1,0,0:0:0:0:
204,116,95716,2,0,P|132:156|96:208,1,140,0|8,0:0|0:0,0:0:0:0:
40,344,96544,6,0,B|92:340|132:296|132:296|164:276,1,140,0|8,0:0|0:0,0:0:0:0:
216,224,97164,2,0,P|256:196|292:184,1,70
324,248,97578,2,0,P|356:232|384:211,1,70,0|8,0:0|0:0,0:0:0:0:
432,152,97992,1,0,0:0:0:0:
404,80,98199,6,0,P|456:56|484:56,2,70,0|0|8,0:0|0:0|0:0,0:0:0:0:
352,136,98819,1,0,0:0:0:0:
280,156,99026,1,0,0:0:0:0:
280,156,99440,1,8,0:0:0:0:
236,60,99647,1,0,0:0:0:0:
132,80,99854,6,0,P|108:132|124:216,1,140,0|8,0:0|0:0,0:0:0:0:
184,256,100475,1,0,0:0:0:0:
260,276,100681,2,0,B|312:232|368:288|408:236,1,140,0|8,0:0|0:0,0:0:0:0:
448,192,101302,1,0,0:0:0:0:
460,116,101509,6,0,P|432:116|392:140,1,70
336,188,101923,1,8,0:0:0:0:
312,36,102337,1,0,0:0:0:0:
180,108,102750,2,0,P|124:96|96:104,1,70,8|0,0:0|0:0,0:0:0:0:
136,172,103164,6,0,P|84:232|28:256,1,140,0|8,0:0|0:0,0:0:0:0:
144,356,103992,1,0,0:0:0:0:
224,224,104406,1,8,0:0:0:0:
324,340,104819,6,0,P|376:340|404:324,1,70
304,204,105440,1,0,0:0:0:0:
304,204,105647,2,0,P|329:227|360:243,1,70,0|0,0:0|0:0,0:0:0:0:
284,116,106268,1,0,0:0:0:0:
284,116,106475,6,0,P|258:92|227:76,1,70,0|0,0:0|0:0,0:0:0:0:
156,108,106888,2,0,P|120:88|76:84,1,70,8|0,0:0|0:0,0:0:0:0:
17,61,107302,2,0,P|17:102|36:142,1,70,0|0,0:0|0:0,0:0:0:0:
45,204,107716,2,0,P|80:182|105:146,1,70,8|0,0:0|0:0,0:0:0:0:
156,108,108130,6,0,P|184:144|196:184,1,70,4|0,0:0|0:0,0:0:0:0:
204,244,108544,1,8,0:0:0:0:
156,304,108750,1,0,0:0:0:0:
80,308,108957,2,0,P|48:300|12:276,2,70,0|0|8,0:0|0:0|0:0,0:0:0:0:
236,316,109785,6,0,P|276:312|308:320,1,70
380,340,110199,1,8,0:0:0:0:
360,268,110406,2,0,P|328:240|304:208,1,70
256,164,110819,2,0,P|296:136|324:124,1,70,0|8,0:0|0:0,0:0:0:0:
392,108,111233,1,0,0:0:0:0:
468,92,111440,6,0,P|456:164|412:220,1,140,0|8,0:0|0:0,0:0:0:0:
360,268,112061,2,0,B|344:276|316:296|316:296|280:264|234:256,1,140
144,272,112681,1,8,0:0:0:0:
68,212,112888,1,0,0:0:0:0:
68,212,113095,6,0,P|28:208|-8:184,1,70
56,140,113509,2,0,P|28:88|28:60,1,70,8|0,0:0|0:0,0:0:0:0:
104,84,113923,2,0,P|128:44|148:28,1,70
184,96,114337,2,0,P|219:102|252:91,1,70,8|0,0:0|0:0,0:0:0:0:
328,96,114750,6,0,P|296:32|224:20,1,140,0|8,0:0|0:0,0:0:0:0:
360,168,115578,2,0,P|392:144|404:108,2,70,0|0|8,0:0|0:0|0:0,0:0:0:0:
220,104,116406,6,0,P|164:168|188:232,1,140,0|8,0:0|0:0,0:0:0:0:
276,328,117233,1,0,0:0:0:0:
416,268,117647,2,0,P|360:256|336:248,1,70,8|0,0:0|0:0,0:0:0:0:
276,228,118061,6,0,B|232:212|220:160|220:160|188:160|160:176,1,140,0|8,0:0|0:0,0:0:0:0:
100,144,118681,1,0,0:0:0:0:
160,96,118888,2,0,B|176:88|208:84|228:84|228:84|280:92|288:144,1,140,0|8,0:0|0:0,0:0:0:0:
320,200,119509,1,0,0:0:0:0:
356,272,119716,6,0,P|392:236|364:132,1,140,0|8,0:0|0:0,0:0:0:0:
324,120,120337,2,0,P|248:164|244:224,1,140
280,268,120957,1,8,0:0:0:0:
324,120,121371,6,0,P|376:116|424:124,1,70,4|0,0:0|0:0,0:0:0:0:
364,188,121785,2,0,P|312:192|264:184,1,70,8|0,0:0|0:0,0:0:0:0:
216,196,122199,2,0,P|152:148|140:80,1,140,0|8,0:0|0:0,0:0:0:0:
280,36,123026,6,0,P|248:48|216:72,1,70
284,112,123440,2,0,P|316:100|348:76,1,70,8|0,0:0|0:0,0:0:0:0:
424,84,123854,2,0,P|416:48|392:16,2,70,0|0|8,0:0|0:0|0:0,0:0:0:0:
415,235,124681,6,0,P|385:251|360:276,1,70
376,352,125095,2,0,P|424:320|444:292,1,70,8|0,0:0|0:0,0:0:0:0:
360,276,125509,2,0,P|324:248|292:240,1,70
260,308,125923,2,0,P|214:313|186:330,1,70,8|0,0:0|0:0,0:0:0:0:
120,344,126337,5,0,0:0:0:0:
64,272,126544,1,0,0:0:0:0:
136,220,126750,1,8,0:0:0:0:
112,132,126957,1,0,0:0:0:0:
36,84,127164,2,0,P|16:56|4:20,2,70,0|0|8,0:0|0:0|0:0,0:0:0:0:
112,132,127785,1,0,0:0:0:0:
168,80,127992,6,0,B|224:72|264:124|316:104,1,140,4|8,0:0|0:0,0:0:0:0:
380,124,128612,1,0,0:0:0:0:
452,156,128819,2,0,P|432:252|400:288,1,140,0|8,0:0|0:0,0:0:0:0:
328,284,129440,1,0,0:0:0:0:
304,212,129647,6,0,P|268:212|235:227,1,70
212,300,130061,2,0,P|116:304|44:284,2,140,8|0|8,0:0|0:0|0:0,0:0:0:0:
284,320,131095,2,0,P|344:344|376:344,1,70
468,248,131716,6,0,P|500:208|500:160,1,70,8|0,0:0|0:0,0:0:0:0:
424,180,132130,2,0,P|384:176|352:156,1,70
412,104,132544,1,8,0:0:0:0:
384,32,132750,1,0,0:0:0:0:
308,108,132957,5,8,0:0:0:0:
308,108,133164,1,8,0:0:0:0:
244,24,133371,1,8,0:0:0:0:
244,24,133578,1,8,0:0:0:0:
180,68,133785,2,0,B|136:60|136:60|128:40|128:40|84:56|48:48,1,140,0|0,0:0|0:0,0:0:0:0:
64,164,134612,6,0,B|92:176|92:176|104:192|104:192|120:204|176:200,1,105.000004005432,6|0,0:0|0:0,0:0:0:0:
204,168,135233,1,2,0:0:0:0:
260,152,135440,1,2,0:0:0:0:
296,108,135647,1,2,0:0:0:0:
372,24,136061,2,0,P|396:72|388:180,1,157.500006008148,2|0,0:0|0:0,0:0:0:0:
368,228,136888,5,2,0:0:0:0:
320,260,137095,1,2,0:0:0:0:
264,272,137302,1,2,0:0:0:0:
176,348,137716,2,0,P|152:300|160:192,1,157.500006008148,2|0,0:0|0:0,0:0:0:0:
180,144,138543,5,2,0:0:0:0:
228,112,138750,1,2,0:0:0:0:
284,100,138957,1,2,0:0:0:0:
352,196,139371,2,0,P|352:247|324:291,1,105.000004005432,2|2,0:0|0:0,0:0:0:0:
257,195,140199,2,0,P|256:143|284:100,1,105.000004005432,2|2,0:0|0:0,0:0:0:0:
324,60,140819,1,2,0:0:0:0:
324,60,141233,5,4,0:0:0:0:
392,152,141647,2,0,P|408:228|396:264,1,105.000004005432,2|0,0:0|0:0,0:0:0:0:
292,212,142475,2,0,P|249:277|215:294,1,105.000004005432,2|0,0:0|0:0,0:0:0:0:
184,184,143302,2,0,P|108:200|72:188,1,105.000004005432,2|0,0:0|0:0,0:0:0:0:
128,88,144130,2,0,P|62:45|45:11,1,105.000004005432,2|0,0:0|0:0,0:0:0:0:
84,193,144957,5,2,0:0:0:0:
84,193,145164,1,0,0:0:0:0:
84,193,145371,2,0,P|92:254|131:294,1,105.000004005432,0|2,0:0|0:0,0:0:0:0:
120,344,145992,5,0,0:0:0:0:
120,344,146199,2,0,P|181:336|221:297,1,105.000004005432,0|2,0:0|0:0,0:0:0:0:
316,256,147026,1,0,0:0:0:0:
412,316,147440,1,2,0:0:0:0:
372,208,147854,6,0,P|344:144|340:100,1,105.000004005432,4|8,0:0|0:0,0:0:0:0:
352,52,148475,1,0,0:0:0:0:
300,76,148681,2,0,P|256:72|240:64,1,52.5000020027161
208,108,149095,1,8,0:0:0:0:
152,116,149302,2,0,P|100:156|64:248,1,157.500006008148,0|8,0:0|0:0,0:0:0:0:
60,296,150130,6,0,P|24:296|8:292,2,52.5000020027161
116,288,150750,1,8,0:0:0:0:
172,296,150957,2,0,P|244:320|332:300,1,157.500006008148,0|8,0:0|0:0,0:0:0:0:
376,280,151785,6,0,P|404:316|412:336,2,52.5000020027161
380,224,152406,1,8,0:0:0:0:
368,168,152612,2,0,P|364:124|356:96,1,52.5000020027161
308,140,153026,2,0,P|274:111|248:97,1,52.5000020027161,0|8,0:0|0:0,0:0:0:0:
240,160,153440,2,0,P|196:164|168:172,1,52.5000020027161
136,192,153854,1,0,0:0:0:0:
88,224,154061,1,8,0:0:0:0:
88,224,154475,5,0,0:0:0:0:
168,308,154888,2,0,P|228:298|269:283,1,105.000004005432,8|0,0:0|0:0,0:0:0:0:
368,340,155716,2,0,P|390:282|397:239,1,105.000004005432,8|0,0:0|0:0,0:0:0:0:
304,168,156544,5,8,0:0:0:0:
376,80,156957,1,0,0:0:0:0:
264,52,157371,1,8,0:0:0:0:
184,136,157785,6,0,P|128:140|72:116,1,105.000004005432,0|8,0:0|0:0,0:0:0:0:
24,124,158406,2,0,P|32:168|32:184,1,52.5000020027161
40,292,159026,2,0,P|80:292|108:280,1,52.5000020027161,8|0,0:0|0:0,0:0:0:0:
148,292,159440,6,0,L|172:272,3,26.2500010013581,8|8|8|8,0:0|0:0|0:0|0:0,0:0:0:0:
196,280,159854,2,8,L|220:260,3,26.2500010013581,8|8|8|8,0:0|0:0|0:0|0:0,0:0:0:0:
244,268,160268,5,8,0:0:0:0:
344,324,160681,1,0,0:0:0:0:
440,276,161095,6,0,P|356:220|341:143,1,175,4|8,0:0|0:0,0:0:0:0:
356,56,161716,1,0,0:0:0:0:
268,92,161923,2,0,P|227:107|184:103,1,87.5
100,60,162337,1,8,0:0:0:0:
52,144,162544,2,0,P|12:100|4:60,2,87.5
140,188,163164,1,8,0:0:0:0:
180,276,163371,5,0,0:0:0:0:
116,348,163578,2,0,P|84:276|88:248,1,87.5
140,188,163992,1,8,0:0:0:0:
236,184,164199,2,0,P|328:208|384:276,1,175
352,376,164819,1,8,0:0:0:0:
452,320,165026,5,0,0:0:0:0:
444,212,165233,2,0,P|404:172|372:124,1,87.5
304,96,165647,1,8,0:0:0:0:
208,104,165854,2,0,L|160:20,1,87.5
120,116,166268,2,0,L|164:192,1,87.5,0|8,0:0|0:0,0:0:0:0:
212,276,166681,2,0,P|144:284|104:264,1,87.5
68,200,167095,2,0,P|39:232|27:274,2,87.5,0|8|0,0:0|0:0|0:0,0:0:0:0:
164,192,167716,1,0,0:0:0:0:
356,292,168130,6,0,P|336:336|303:362,1,87.5,8|0,0:0|0:0,0:0:0:0:
260,276,168544,2,0,P|244:188|320:112,1,175,0|8,0:0|0:0,0:0:0:0:
336,212,169164,1,0,0:0:0:0:
336,212,169371,6,0,P|248:204|160:152,1,175,0|8,0:0|0:0,0:0:0:0:
40,24,170199,2,0,P|128:32|216:84,1,175,0|8,0:0|0:0,0:0:0:0:
172,164,170819,1,0,0:0:0:0:
116,240,171026,6,0,P|72:268|28:276,2,87.5,0|0|8,0:0|0:0|0:0,0:0:0:0:
172,164,171647,1,0,0:0:0:0:
264,132,171854,2,0,P|266:184|248:224,2,87.5,0|0|8,0:0|0:0|0:0,0:0:0:0:
216,48,172475,5,0,0:0:0:0:
312,36,172681,2,0,P|386:25|419:39,1,87.5
356,116,173095,2,0,P|416:161|429:194,1,87.5,8|0,0:0|0:0,0:0:0:0:
332,208,173509,2,0,P|342:282|328:315,1,87.5,0|8,0:0|0:0,0:0:0:0:
248,256,173923,2,0,P|202:316|169:329,1,87.5,8|0,0:0|0:0,0:0:0:0:
108,372,174337,6,0,B|88:340|88:296|112:264|112:264|128:232|128:192,1,175,4|8,0:0|0:0,0:0:0:0:
92,116,174957,1,0,0:0:0:0:
64,23,175164,2,0,P|26:46|2:81,2,87.5,0|0|8,0:0|0:0|0:0,0:0:0:0:
160,48,175785,2,0,B|188:80|192:116|184:144|184:144|212:172|264:168,1,175,0|0,0:0|0:0,0:0:0:0:
328,248,176406,1,8,0:0:0:0:
440,272,176612,5,0,0:0:0:0:
424,156,176819,2,0,P|412:112|416:64,1,87.5
332,36,177233,1,8,0:0:0:0:
244,36,177440,2,0,B|190:52|190:52|120:56|84:120,1,175
120,192,178061,1,8,0:0:0:0:
88,272,178268,6,0,P|16:260|-16:236,2,87.5
176,256,178888,1,8,0:0:0:0:
264,268,179095,2,0,P|312:328|348:344,1,87.5
336,236,179509,2,0,P|411:224|443:201,1,87.5,0|8,0:0|0:0,0:0:0:0:
344,160,179923,2,0,P|371:88|367:49,1,87.5
288,104,180337,2,0,P|239:44|203:28,1,87.5,0|8,0:0|0:0,0:0:0:0:
72,112,180957,5,0,0:0:0:0:
288,104,181371,1,8,0:0:0:0:
171,264,181785,1,0,0:0:0:0:
360,203,182199,1,8,0:0:0:0:
171,141,182612,1,0,0:0:0:0:
287,302,183026,1,8,0:0:0:0:
456,348,183440,2,0,P|412:328|376:296,1,87.5
287,302,183854,2,0,P|223:286|191:286,1,87.5,8|0,0:0|0:0,0:0:0:0:
108,316,184268,6,0,B|100:280|110:250|124:229|124:229|104:148,1,175,0|8,0:0|0:0,0:0:0:0:
32,96,184888,1,0,0:0:0:0:
104,48,185095,2,0,P|160:64|196:104,2,87.5,0|0|8,0:0|0:0|0:0,0:0:0:0:
32,96,185716,5,0,0:0:0:0:
104,148,185923,2,0,P|188:188|272:152,1,175,0|8,0:0|0:0,0:0:0:0:
424,100,186750,2,0,P|340:60|256:96,1,175,0|8,0:0|0:0,0:0:0:0:
116,104,187578,6,0,P|118:178|159:244,1,140,4|8,0:0|0:0,0:0:0:0:
217,271,188199,1,0,0:0:0:0:
289,290,188406,2,0,P|288:221|256:160,1,140,0|8,0:0|0:0,0:0:0:0:
188,124,189026,2,0,P|232:84|268:84,1,70
256,160,189440,2,0,P|216:196|180:196,2,70,0|8|0,0:0|0:0|0:0,0:0:0:0:
316,112,190061,6,0,P|344:196|340:256,1,140,0|8,0:0|0:0,0:0:0:0:
320,320,190681,2,0,P|280:296|268:264,1,70
240,204,191095,1,0,0:0:0:0:
220,128,191302,6,0,P|164:108|128:120,1,70,8|0,0:0|0:0,0:0:0:0:
164,184,191716,2,0,P|192:264|248:280,1,140,0|8,0:0|0:0,0:0:0:0:
308,244,192337,1,0,0:0:0:0:
384,228,192544,6,0,L|452:288,2,70,0|0|8,0:0|0:0|0:0,0:0:0:0:
388,152,193164,1,0,0:0:0:0:
336,96,193371,2,0,L|364:24,1,70
284,20,193785,2,0,L|258:85,1,70,8|0,0:0|0:0,0:0:0:0:
208,144,194199,6,0,P|116:136|60:160,1,140,0|8,0:0|0:0,0:0:0:0:
212,220,195026,2,0,P|264:196|280:160,2,70,0|0|8,0:0|0:0|0:0,0:0:0:0:
136,244,195647,2,0,L|176:312,1,70
248,316,196061,1,0,0:0:0:0:
324,300,196268,1,8,0:0:0:0:
468,252,196681,6,0,P|504:292|520:324,2,70,0|0|8,0:0|0:0|0:0,0:0:0:0:
404,208,197302,2,0,P|384:140|384:64,1,140
304,76,197923,6,0,P|244:64|216:48,1,70,8|0,0:0|0:0,0:0:0:0:
168,24,198337,2,0,L|136:108,1,70
124,164,198750,2,0,P|135:196|160:220,1,70,8|0,0:0|0:0,0:0:0:0:
232,252,199164,1,0,0:0:0:0:
308,256,199371,1,0,0:0:0:0:
380,224,199578,1,8,0:0:0:0:
260,124,199992,6,0,L|224:52,1,70,0|8,0:0|0:0,0:0:0:0:
308,48,200406,2,0,L|339:110,1,70,8|0,0:0|0:0,0:0:0:0:
316,184,200819,5,4,0:0:0:0:
388,320,201233,1,8,0:0:0:0:
312,320,201440,1,0,0:0:0:0:
236,308,201647,2,0,P|172:284|104:224,1,140,0|8,0:0|0:0,0:0:0:0:
84,168,202268,2,0,P|56:188|36:224,2,70
160,176,202888,6,0,P|188:156|208:120,1,70,8|0,0:0|0:0,0:0:0:0:
208,48,203302,2,0,P|272:72|340:132,1,140,0|8,0:0|0:0,0:0:0:0:
368,180,203923,1,0,0:0:0:0:
360,256,204130,1,0,0:0:0:0:
292,296,204337,5,0,0:0:0:0:
215,297,204544,2,0,P|171:244|160:176,1,140,8|0,0:0|0:0,0:0:0:0:
192,104,205164,1,0,0:0:0:0:
224,32,205371,2,0,P|168:28|136:48,1,70,8|0,0:0|0:0,0:0:0:0:
112,96,205785,6,0,P|76:88|44:64,2,70,0|0|8,0:0|0:0|0:0,0:0:0:0:
192,104,206406,1,0,0:0:0:0:
268,112,206612,2,0,P|304:80|408:56,1,140,0|8,0:0|0:0,0:0:0:0:
492,172,207440,1,0,0:0:0:0:
340,184,207854,6,0,P|248:204|192:172,1,140,8|0,0:0|0:0,0:0:0:0:
88,92,208681,2,0,P|180:72|236:104,1,140,8|0,0:0|0:0,0:0:0:0:
340,184,209509,2,0,P|384:212|420:220,1,70,8|0,0:0|0:0,0:0:0:0:
400,140,209923,2,0,P|356:112|320:104,1,70
268,140,210337,2,0,P|260:176|232:228,1,70,8|0,0:0|0:0,0:0:0:0:
224,276,210750,6,0,P|296:300|352:336,1,140,0|8,0:0|0:0,0:0:0:0:
428,340,211371,1,0,0:0:0:0:
428,340,211578,2,0,L|444:188,1,140,0|8,0:0|0:0,0:0:0:0:
448,124,212199,1,0,0:0:0:0:
476,52,212406,6,0,P|420:52|392:72,1,70,8|8,0:0|0:0,0:0:0:0:
352,108,212819,2,0,P|312:116|276:108,1,70,8|8,0:0|0:0,0:0:0:0:
208,100,213233,6,8,L|176:84,3,35
128,104,213647,2,8,L|96:88,3,35
256,192,214061,12,0,216130,0:0:0:0:
