osu file format v13

[General]
AudioFilename: Haruichi.mp3
AudioLeadIn: 0
PreviewTime: 54914
Countdown: 0
SampleSet: Normal
StackLeniency: 0.7
Mode: 1
LetterboxInBreaks: 0
WidescreenStoryboard: 0

[Editor]
DistanceSpacing: 0.7
BeatDivisor: 4
GridSize: 8
TimelineZoom: 1

[Metadata]
Title:Haruichi. feat. Hatsune Miku
TitleUnicode:ハルイチ。 feat. 初音ミク
Artist:DECO*27
ArtistUnicode:DECO*27
Creator:mintong89
Version:Taiko Muzukashii
Source:
Tags:haL1. vocaloid COLLECTION 2008~2012
BeatmapID:466962
BeatmapSetID:196049

[Difficulty]
HPDrainRate:4
CircleSize:5
OverallDifficulty:5
ApproachRate:5
SliderMultiplier:1.4
SliderTickRate:1

[Events]
//Background and Video events
0,0,"3817965.jpg",0,120
//Break Periods
2,126605,135907
//Storyboard Layer 0 (Background)
//Storyboard Layer 1 (Fail)
//Storyboard Layer 2 (Pass)
//Storyboard Layer 3 (Foreground)
//Storyboard Sound Samples
//Background Colour Transformations
3,100,163,162,255

[TimingPoints]
265.294117647059,350.877192982456,4,1,0,70,1,0
45177,-100,4,1,0,50,0,0
49738,-100,4,1,0,70,0,0
56405,-100,4,1,0,75,0,1
78861,-100,4,1,0,70,0,0
126581,-100,4,1,0,50,0,0
137107,-100,4,1,0,60,0,0
149037,-100,4,1,0,75,0,1
171493,-100,4,1,0,70,0,0

[HitObjects]
264,232,10089,5,0,0:0:0:0:
264,232,10440,1,0,0:0:0:0:
52,207,10616,1,0,0:0:0:0:
424,288,10791,1,0,0:0:0:0:
424,288,10967,1,0,0:0:0:0:
424,288,11142,1,0,0:0:0:0:
336,280,11493,1,4,0:0:0:0:
336,280,11844,1,8,0:0:0:0:
336,280,12019,1,0,0:0:0:0:
152,208,12370,1,0,0:0:0:0:
152,208,12545,1,8,0:0:0:0:
200,240,12896,1,0,0:0:0:0:
200,240,13072,1,0,0:0:0:0:
208,304,13247,1,8,0:0:0:0:
160,280,13598,1,0,0:0:0:0:
160,280,13774,1,0,0:0:0:0:
160,280,13949,1,8,0:0:0:0:
160,280,14124,1,8,0:0:0:0:
160,280,14300,1,0,0:0:0:0:
240,168,14651,1,8,0:0:0:0:
240,168,14826,1,0,0:0:0:0:
264,208,15177,1,0,0:0:0:0:
264,208,15353,1,8,0:0:0:0:
264,104,15703,1,0,0:0:0:0:
264,104,15879,1,8,0:0:0:0:
264,104,16054,1,8,0:0:0:0:
176,176,16405,1,8,0:0:0:0:
176,176,16581,1,0,0:0:0:0:
176,176,16756,1,8,0:0:0:0:
176,176,16931,1,8,0:0:0:0:
248,152,17107,1,0,0:0:0:0:
280,176,17458,1,8,0:0:0:0:
280,176,17633,1,0,0:0:0:0:
280,176,17984,1,0,0:0:0:0:
280,176,18160,1,8,0:0:0:0:
360,216,18510,1,0,0:0:0:0:
360,216,18686,1,0,0:0:0:0:
360,216,18861,1,8,0:0:0:0:
192,192,19212,1,0,0:0:0:0:
192,192,19388,1,8,0:0:0:0:
192,192,19563,1,0,0:0:0:0:
192,192,19738,1,8,0:0:0:0:
192,192,19914,1,0,0:0:0:0:
224,136,20265,1,8,0:0:0:0:
224,136,20440,1,0,0:0:0:0:
224,136,20791,1,0,0:0:0:0:
224,136,20967,1,8,0:0:0:0:
288,144,21317,1,0,0:0:0:0:
288,144,21493,1,8,0:0:0:0:
320,176,21668,1,8,0:0:0:0:
256,176,22019,1,0,0:0:0:0:
256,176,22195,1,0,0:0:0:0:
80,176,22282,1,0,0:0:0:0:
80,176,22370,1,0,0:0:0:0:
192,248,22721,1,0,0:0:0:0:
272,248,23072,1,8,0:0:0:0:
336,304,23247,1,0,0:0:0:0:
272,248,23423,1,0,0:0:0:0:
368,272,23774,1,8,0:0:0:0:
368,272,23949,1,0,0:0:0:0:
176,216,24300,1,0,0:0:0:0:
176,216,24475,1,8,0:0:0:0:
176,216,24651,1,0,0:0:0:0:
176,216,24826,1,8,0:0:0:0:
200,240,25177,1,0,0:0:0:0:
200,240,25353,1,8,0:0:0:0:
200,240,25528,1,0,0:0:0:0:
248,120,25879,1,0,0:0:0:0:
248,120,26054,1,8,0:0:0:0:
272,192,26405,1,8,0:0:0:0:
136,168,26756,1,8,0:0:0:0:
136,168,26931,1,0,0:0:0:0:
224,184,27282,1,8,0:0:0:0:
224,184,27458,1,0,0:0:0:0:
224,184,27633,1,0,0:0:0:0:
224,184,27809,1,0,0:0:0:0:
224,184,27984,1,8,0:0:0:0:
328,192,28335,1,0,0:0:0:0:
400,168,28686,1,0,0:0:0:0:
400,168,28861,1,8,0:0:0:0:
240,112,29212,1,0,0:0:0:0:
240,112,29388,1,8,0:0:0:0:
296,112,29563,1,0,0:0:0:0:
296,112,29738,1,0,0:0:0:0:
320,104,30089,1,8,0:0:0:0:
320,104,30265,1,0,0:0:0:0:
216,160,30616,1,8,0:0:0:0:
216,160,30791,1,0,0:0:0:0:
216,160,30967,1,8,0:0:0:0:
216,160,31142,1,0,0:0:0:0:
304,208,31493,1,8,0:0:0:0:
336,192,31844,1,0,0:0:0:0:
336,192,32019,1,8,0:0:0:0:
376,248,32195,1,0,0:0:0:0:
216,216,32370,1,8,0:0:0:0:
216,216,32545,1,0,0:0:0:0:
272,208,32896,1,8,0:0:0:0:
272,208,33072,1,0,0:0:0:0:
272,208,33423,1,0,0:0:0:0:
272,208,33598,1,0,0:0:0:0:
88,224,33949,1,4,0:0:0:0:
208,128,34475,1,8,0:0:0:0:
208,128,35002,1,8,0:0:0:0:
320,152,35353,1,0,0:0:0:0:
320,152,35703,1,8,0:0:0:0:
288,192,36054,1,0,0:0:0:0:
288,192,36230,1,0,0:0:0:0:
320,152,36405,1,8,0:0:0:0:
176,272,36756,1,0,0:0:0:0:
176,272,37282,1,8,0:0:0:0:
304,288,37809,1,8,0:0:0:0:
256,248,38160,1,0,0:0:0:0:
256,248,38510,1,8,0:0:0:0:
136,200,38861,1,8,0:0:0:0:
136,200,39037,1,0,0:0:0:0:
136,200,39212,1,8,0:0:0:0:
136,200,39388,1,0,0:0:0:0:
248,160,39563,1,0,0:0:0:0:
248,160,39914,1,8,0:0:0:0:
248,160,40089,1,0,0:0:0:0:
280,208,40440,1,8,0:0:0:0:
280,208,40616,1,0,0:0:0:0:
280,208,40967,1,8,0:0:0:0:
280,208,41142,1,0,0:0:0:0:
360,176,41317,1,8,0:0:0:0:
392,240,41668,1,0,0:0:0:0:
392,240,41844,1,0,0:0:0:0:
392,240,42019,1,8,0:0:0:0:
208,272,42370,1,0,0:0:0:0:
136,208,42721,1,8,0:0:0:0:
136,208,42896,1,0,0:0:0:0:
136,208,43247,1,8,0:0:0:0:
136,208,43423,1,0,0:0:0:0:
200,192,43598,1,8,0:0:0:0:
280,224,43949,1,0,0:0:0:0:
280,224,44124,1,8,0:0:0:0:
128,216,44300,1,0,0:0:0:0:
128,216,44475,1,0,0:0:0:0:
184,296,44826,1,8,0:0:0:0:
136,248,45177,1,8,0:0:0:0:
256,280,45528,1,0,0:0:0:0:
256,280,45879,1,8,0:0:0:0:
256,280,46230,1,0,0:0:0:0:
296,160,46581,1,8,0:0:0:0:
296,160,46931,1,0,0:0:0:0:
296,160,47282,1,0,0:0:0:0:
160,136,47984,1,8,0:0:0:0:
160,136,48335,1,0,0:0:0:0:
160,136,48686,1,8,0:0:0:0:
160,136,49037,1,0,0:0:0:0:
160,136,49388,1,8,0:0:0:0:
160,136,49738,1,0,0:0:0:0:
112,192,50089,1,8,0:0:0:0:
112,192,50265,1,0,0:0:0:0:
112,192,50616,1,0,0:0:0:0:
112,192,50791,1,4,0:0:0:0:
256,264,51142,1,8,0:0:0:0:
256,200,51493,1,0,0:0:0:0:
256,200,51581,1,0,0:0:0:0:
256,200,51668,1,0,0:0:0:0:
312,208,51844,1,8,0:0:0:0:
312,208,52195,1,0,0:0:0:0:
192,208,52545,1,8,0:0:0:0:
192,208,52896,1,0,0:0:0:0:
192,208,52984,1,0,0:0:0:0:
192,208,53072,1,0,0:0:0:0:
232,264,53247,1,8,0:0:0:0:
288,256,53598,1,0,0:0:0:0:
288,256,53949,1,8,0:0:0:0:
288,256,54124,1,8,0:0:0:0:
288,256,54300,1,0,0:0:0:0:
288,256,54475,1,0,0:0:0:0:
288,256,54651,1,8,0:0:0:0:
232,248,55002,5,4,0:0:0:0:
232,184,55353,1,6,0:0:0:0:
232,224,55703,1,4,0:0:0:0:
232,224,56054,1,6,0:0:0:0:
154,246,56405,1,4,0:0:0:0:
165,302,56756,1,8,0:0:0:0:
197,313,56931,1,0,0:0:0:0:
197,313,57282,1,0,0:0:0:0:
197,313,57458,1,8,0:0:0:0:
239,142,57633,1,0,0:0:0:0:
239,142,57809,1,0,0:0:0:0:
166,167,58160,1,8,0:0:0:0:
166,167,58510,1,0,0:0:0:0:
166,167,58685,1,0,0:0:0:0:
269,251,58861,1,8,0:0:0:0:
268,179,59212,1,0,0:0:0:0:
269,251,59388,1,0,0:0:0:0:
330,144,59563,1,8,0:0:0:0:
330,144,59738,1,0,0:0:0:0:
330,144,60089,1,0,0:0:0:0:
330,144,60265,1,8,0:0:0:0:
144,208,60440,1,0,0:0:0:0:
263,132,60616,1,0,0:0:0:0:
263,132,60967,1,8,0:0:0:0:
263,132,61142,1,0,0:0:0:0:
144,208,61317,1,0,0:0:0:0:
62,135,61493,1,0,0:0:0:0:
263,132,61668,1,8,0:0:0:0:
173,202,62019,1,0,0:0:0:0:
283,208,62370,1,8,0:0:0:0:
283,208,62721,1,0,0:0:0:0:
283,208,62897,1,0,0:0:0:0:
283,208,63072,1,8,0:0:0:0:
168,201,63423,1,0,0:0:0:0:
168,201,63774,1,8,0:0:0:0:
168,201,64124,1,0,0:0:0:0:
168,201,64300,1,0,0:0:0:0:
168,201,64475,1,8,0:0:0:0:
86,225,64826,1,0,0:0:0:0:
86,225,65002,1,0,0:0:0:0:
86,225,65177,1,8,0:0:0:0:
151,264,65528,1,0,0:0:0:0:
151,264,65703,1,0,0:0:0:0:
151,264,65879,1,8,0:0:0:0:
151,264,66054,1,8,0:0:0:0:
151,264,66230,1,0,0:0:0:0:
214,116,66581,1,8,0:0:0:0:
114,208,66931,1,0,0:0:0:0:
114,208,67107,1,0,0:0:0:0:
114,208,67195,1,0,0:0:0:0:
114,208,67282,1,0,0:0:0:0:
184,264,67633,1,4,0:0:0:0:
304,176,67984,1,8,0:0:0:0:
184,264,68160,1,0,0:0:0:0:
320,280,68510,1,0,0:0:0:0:
320,280,68686,1,8,0:0:0:0:
320,280,68861,1,0,0:0:0:0:
320,280,69037,1,0,0:0:0:0:
368,232,69388,1,8,0:0:0:0:
368,232,69738,1,0,0:0:0:0:
368,232,69914,1,0,0:0:0:0:
368,232,70089,1,8,0:0:0:0:
128,192,70440,1,0,0:0:0:0:
128,192,70616,1,0,0:0:0:0:
128,192,70791,1,8,0:0:0:0:
128,192,70967,1,8,0:0:0:0:
208,192,71317,1,8,0:0:0:0:
208,192,71493,1,0,0:0:0:0:
208,192,71668,1,8,0:0:0:0:
208,192,71844,1,0,0:0:0:0:
296,224,72195,1,8,0:0:0:0:
296,224,72545,1,0,0:0:0:0:
296,224,72721,1,0,0:0:0:0:
296,224,72896,1,8,0:0:0:0:
272,136,73247,1,0,0:0:0:0:
272,136,73598,1,8,0:0:0:0:
272,136,73774,1,0,0:0:0:0:
272,136,73949,1,0,0:0:0:0:
144,192,74300,1,8,0:0:0:0:
144,192,74475,1,8,0:0:0:0:
144,192,74651,1,0,0:0:0:0:
224,200,75002,1,8,0:0:0:0:
224,200,75177,1,0,0:0:0:0:
224,200,75528,1,0,0:0:0:0:
224,200,75703,1,8,0:0:0:0:
288,256,76054,1,0,0:0:0:0:
288,256,76405,1,8,0:0:0:0:
288,256,76756,1,0,0:0:0:0:
288,256,76931,1,0,0:0:0:0:
288,256,77107,1,8,0:0:0:0:
200,256,77458,1,0,0:0:0:0:
200,256,77633,1,0,0:0:0:0:
200,256,77809,1,8,0:0:0:0:
200,256,77984,1,8,0:0:0:0:
200,256,78160,1,0,0:0:0:0:
200,256,78335,1,0,0:0:0:0:
200,256,78510,1,8,0:0:0:0:
248,184,78861,1,4,0:0:0:0:
212,314,79388,1,8,0:0:0:0:
212,314,79914,1,8,0:0:0:0:
305,280,80440,1,8,0:0:0:0:
130,204,80967,1,0,0:0:0:0:
130,204,81317,1,8,0:0:0:0:
130,204,81668,1,0,0:0:0:0:
130,204,82195,1,8,0:0:0:0:
181,279,82721,1,8,0:0:0:0:
181,279,83247,1,8,0:0:0:0:
181,279,83774,1,8,0:0:0:0:
181,279,84124,1,8,0:0:0:0:
181,279,84475,1,0,0:0:0:0:
181,279,85002,1,8,0:0:0:0:
181,279,85528,1,8,0:0:0:0:
181,279,86054,1,8,0:0:0:0:
181,279,86580,1,0,0:0:0:0:
181,279,86931,1,8,0:0:0:0:
179,189,87282,1,0,0:0:0:0:
179,189,87809,1,8,0:0:0:0:
179,189,88335,1,8,0:0:0:0:
179,189,88861,1,8,0:0:0:0:
179,189,89388,1,0,0:0:0:0:
179,189,89738,1,8,0:0:0:0:
234,288,90089,1,4,0:0:0:0:
217,209,90440,1,8,0:0:0:0:
285,243,90616,1,0,0:0:0:0:
285,243,90967,1,0,0:0:0:0:
285,243,91142,1,8,0:0:0:0:
177,255,91493,1,0,0:0:0:0:
177,255,91668,1,8,0:0:0:0:
242,224,92019,1,0,0:0:0:0:
242,224,92195,1,0,0:0:0:0:
242,224,92370,1,8,0:0:0:0:
174,282,92545,1,0,0:0:0:0:
174,282,92721,1,8,0:0:0:0:
174,282,92896,1,0,0:0:0:0:
210,260,93247,1,8,0:0:0:0:
210,260,93423,1,0,0:0:0:0:
274,200,93774,1,0,0:0:0:0:
274,200,93949,1,8,0:0:0:0:
278,165,94300,1,0,0:0:0:0:
278,165,94475,1,8,0:0:0:0:
263,265,94826,1,0,0:0:0:0:
263,265,95002,1,8,0:0:0:0:
263,265,95177,1,8,0:0:0:0:
263,265,95353,1,0,0:0:0:0:
263,265,95528,1,8,0:0:0:0:
263,265,95703,1,0,0:0:0:0:
343,297,96054,1,8,0:0:0:0:
343,297,96230,1,0,0:0:0:0:
93,175,96581,1,0,0:0:0:0:
93,175,96756,1,8,0:0:0:0:
149,240,97107,1,0,0:0:0:0:
190,294,97282,1,8,0:0:0:0:
341,234,97633,1,0,0:0:0:0:
358,240,97809,1,0,0:0:0:0:
358,240,97984,1,8,0:0:0:0:
358,240,98160,1,0,0:0:0:0:
358,240,98335,1,8,0:0:0:0:
315,211,98510,1,0,0:0:0:0:
236,189,98861,1,8,0:0:0:0:
236,189,99037,1,0,0:0:0:0:
311,160,99388,1,0,0:0:0:0:
311,160,99563,1,8,0:0:0:0:
231,246,99914,1,8,0:0:0:0:
231,246,100089,1,0,0:0:0:0:
371,128,100440,1,0,0:0:0:0:
399,308,100616,1,8,0:0:0:0:
399,308,100703,1,8,0:0:0:0:
399,308,100791,1,8,0:0:0:0:
399,308,100967,1,8,0:0:0:0:
385,250,101317,1,4,0:0:0:0:
255,326,101668,1,0,0:0:0:0:
255,326,101844,1,8,0:0:0:0:
186,288,102195,1,0,0:0:0:0:
186,288,102370,1,8,0:0:0:0:
243,245,102545,1,0,0:0:0:0:
243,245,102721,1,0,0:0:0:0:
290,277,103072,1,8,0:0:0:0:
290,277,103247,1,0,0:0:0:0:
290,277,103423,1,0,0:0:0:0:
266,217,103774,1,0,0:0:0:0:
266,217,103949,1,8,0:0:0:0:
266,217,104124,1,0,0:0:0:0:
320,216,104475,1,0,0:0:0:0:
168,145,104651,1,8,0:0:0:0:
172,253,105002,1,0,0:0:0:0:
172,253,105177,1,8,0:0:0:0:
206,170,105353,1,8,0:0:0:0:
206,170,105528,1,0,0:0:0:0:
223,230,105879,1,8,0:0:0:0:
223,230,106054,1,0,0:0:0:0:
268,154,106405,1,8,0:0:0:0:
268,154,106581,1,0,0:0:0:0:
268,154,106756,1,8,0:0:0:0:
268,154,106931,1,0,0:0:0:0:
312,217,107282,1,0,0:0:0:0:
312,217,107458,1,8,0:0:0:0:
361,256,107809,1,0,0:0:0:0:
361,256,107984,1,0,0:0:0:0:
361,256,108160,1,8,0:0:0:0:
156,298,108335,1,0,0:0:0:0:
156,298,108686,1,8,0:0:0:0:
221,239,108861,1,0,0:0:0:0:
228,321,109037,1,0,0:0:0:0:
228,321,109212,1,0,0:0:0:0:
228,321,109388,1,8,0:0:0:0:
275,229,109563,1,8,0:0:0:0:
216,195,109738,1,0,0:0:0:0:
295,130,110089,1,0,0:0:0:0:
295,130,110265,1,8,0:0:0:0:
325,191,110440,1,0,0:0:0:0:
325,191,110616,1,0,0:0:0:0:
325,191,110791,1,8,0:0:0:0:
180,127,111142,1,0,0:0:0:0:
180,127,111493,1,8,0:0:0:0:
180,127,111668,1,0,0:0:0:0:
212,159,111844,1,8,0:0:0:0:
191,231,112195,1,8,0:0:0:0:
191,231,112370,1,8,0:0:0:0:
191,231,112545,1,0,0:0:0:0:
271,135,112896,1,0,0:0:0:0:
271,135,113072,1,8,0:0:0:0:
289,110,113423,1,0,0:0:0:0:
289,110,113598,1,8,0:0:0:0:
294,293,113774,1,0,0:0:0:0:
294,293,113949,1,0,0:0:0:0:
234,215,114300,1,8,0:0:0:0:
234,215,114475,1,0,0:0:0:0:
234,215,114651,1,0,0:0:0:0:
283,226,115002,1,8,0:0:0:0:
372,262,115177,1,8,0:0:0:0:
372,262,115353,1,0,0:0:0:0:
293,233,115703,1,0,0:0:0:0:
293,233,115879,1,8,0:0:0:0:
339,202,116230,1,0,0:0:0:0:
339,202,116405,1,0,0:0:0:0:
339,202,116581,1,8,0:0:0:0:
171,157,116931,1,0,0:0:0:0:
171,157,117107,1,8,0:0:0:0:
243,173,117282,1,0,0:0:0:0:
243,173,117458,1,0,0:0:0:0:
368,124,117809,1,8,0:0:0:0:
371,200,117984,1,8,0:0:0:0:
368,124,118160,1,0,0:0:0:0:
232,244,118510,1,0,0:0:0:0:
232,244,118686,1,8,0:0:0:0:
285,197,119037,1,0,0:0:0:0:
285,197,119212,1,8,0:0:0:0:
285,197,119388,1,0,0:0:0:0:
285,197,119563,1,0,0:0:0:0:
176,157,119738,1,0,0:0:0:0:
279,141,119914,1,8,0:0:0:0:
97,244,120265,1,0,0:0:0:0:
172,293,120440,1,0,0:0:0:0:
97,244,120616,1,8,0:0:0:0:
97,244,120791,1,8,0:0:0:0:
220,262,120967,1,0,0:0:0:0:
332,291,121317,1,0,0:0:0:0:
221,282,121493,1,8,0:0:0:0:
147,220,121844,1,8,0:0:0:0:
147,220,122019,1,0,0:0:0:0:
147,220,122195,1,8,0:0:0:0:
147,220,122370,1,0,0:0:0:0:
203,162,122721,1,0,0:0:0:0:
203,162,122896,1,8,0:0:0:0:
238,162,123247,1,0,0:0:0:0:
238,162,123423,1,0,0:0:0:0:
238,162,123598,1,8,0:0:0:0:
238,162,123774,1,0,0:0:0:0:
337,198,124124,1,8,0:0:0:0:
246,229,124300,1,0,0:0:0:0:
124,219,124651,1,8,0:0:0:0:
124,219,125002,1,0,0:0:0:0:
252,288,125177,1,8,0:0:0:0:
188,271,125528,1,8,0:0:0:0:
188,271,125879,1,0,0:0:0:0:
188,271,126230,1,0,0:0:0:0:
188,271,126405,1,8,0:0:0:0:
136,253,137107,5,0,0:0:0:0:
136,253,137282,1,0,0:0:0:0:
136,253,137370,1,0,0:0:0:0:
136,253,137458,1,0,0:0:0:0:
59,194,137809,1,0,0:0:0:0:
59,194,137984,1,8,0:0:0:0:
59,194,138160,1,0,0:0:0:0:
219,273,138510,1,0,0:0:0:0:
219,273,138686,1,8,0:0:0:0:
219,273,138861,1,0,0:0:0:0:
265,347,139212,1,0,0:0:0:0:
265,347,139388,1,8,0:0:0:0:
265,347,139563,1,0,0:0:0:0:
265,347,139738,1,8,0:0:0:0:
265,347,139914,1,0,0:0:0:0:
265,347,140089,1,8,0:0:0:0:
265,347,140265,1,0,0:0:0:0:
166,296,140616,1,0,0:0:0:0:
166,296,140791,1,8,0:0:0:0:
166,296,140967,1,0,0:0:0:0:
266,257,141317,1,0,0:0:0:0:
266,257,141493,1,8,0:0:0:0:
266,257,141668,1,0,0:0:0:0:
266,257,142019,1,0,0:0:0:0:
266,257,142195,1,8,0:0:0:0:
266,257,142370,1,0,0:0:0:0:
134,195,142545,1,8,0:0:0:0:
266,257,142721,1,0,0:0:0:0:
266,257,142896,1,0,0:0:0:0:
266,257,143072,1,8,0:0:0:0:
134,262,143423,1,0,0:0:0:0:
134,262,143774,1,8,0:0:0:0:
134,262,143949,1,0,0:0:0:0:
134,262,144124,1,0,0:0:0:0:
195,305,144475,1,8,0:0:0:0:
195,305,144826,1,0,0:0:0:0:
195,305,145177,1,8,0:0:0:0:
195,305,145353,1,8,0:0:0:0:
195,305,145528,1,0,0:0:0:0:
195,305,145879,1,8,0:0:0:0:
251,241,146230,1,0,0:0:0:0:
251,241,146581,1,8,0:0:0:0:
251,241,146756,1,0,0:0:0:0:
251,241,147107,1,8,0:0:0:0:
251,241,147283,1,0,0:0:0:0:
251,241,147458,1,8,0:0:0:0:
251,241,147633,1,0,0:0:0:0:
256,177,148686,1,8,0:0:0:0:
106,178,149037,1,4,0:0:0:0:
205,226,149388,1,8,0:0:0:0:
205,226,149563,1,0,0:0:0:0:
182,257,149914,1,8,0:0:0:0:
162,100,150089,1,0,0:0:0:0:
162,100,150265,1,8,0:0:0:0:
236,178,150440,1,0,0:0:0:0:
277,228,150791,1,0,0:0:0:0:
277,228,150967,1,8,0:0:0:0:
237,80,151142,1,0,0:0:0:0:
236,163,151317,1,0,0:0:0:0:
190,146,151493,1,8,0:0:0:0:
236,163,151844,1,0,0:0:0:0:
117,166,152019,1,0,0:0:0:0:
117,166,152195,1,8,0:0:0:0:
234,118,152370,1,8,0:0:0:0:
277,184,152721,1,0,0:0:0:0:
277,184,152896,1,8,0:0:0:0:
277,184,153072,1,0,0:0:0:0:
277,184,153247,1,0,0:0:0:0:
272,127,153598,1,8,0:0:0:0:
272,127,153774,1,0,0:0:0:0:
272,127,153949,1,8,0:0:0:0:
272,127,154124,1,0,0:0:0:0:
272,127,154300,1,8,0:0:0:0:
334,146,154651,1,0,0:0:0:0:
168,238,155002,1,0,0:0:0:0:
168,238,155177,1,8,0:0:0:0:
132,177,155528,1,0,0:0:0:0:
132,177,155703,1,0,0:0:0:0:
132,177,155879,1,8,0:0:0:0:
239,202,156230,1,0,0:0:0:0:
239,202,156405,1,0,0:0:0:0:
239,202,156581,1,8,0:0:0:0:
137,275,156756,1,0,0:0:0:0:
116,144,157107,1,0,0:0:0:0:
116,144,157282,1,8,0:0:0:0:
116,144,157458,1,0,0:0:0:0:
193,209,157809,1,8,0:0:0:0:
193,209,158160,1,0,0:0:0:0:
193,209,158335,1,0,0:0:0:0:
193,209,158510,1,8,0:0:0:0:
193,209,158686,1,8,0:0:0:0:
193,209,158861,1,0,0:0:0:0:
294,201,159212,1,8,0:0:0:0:
297,216,159563,1,0,0:0:0:0:
297,216,159651,1,0,0:0:0:0:
297,216,159738,1,0,0:0:0:0:
297,216,159826,1,0,0:0:0:0:
297,216,159914,1,0,0:0:0:0:
165,232,160265,1,4,0:0:0:0:
221,155,160616,1,8,0:0:0:0:
221,155,160791,1,0,0:0:0:0:
206,186,161142,1,8,0:0:0:0:
206,186,161317,1,0,0:0:0:0:
206,186,161493,1,8,0:0:0:0:
206,186,161668,1,0,0:0:0:0:
116,252,162019,1,8,0:0:0:0:
116,252,162370,1,0,0:0:0:0:
116,252,162545,1,0,0:0:0:0:
240,237,162721,1,8,0:0:0:0:
301,200,163072,1,0,0:0:0:0:
301,200,163247,1,0,0:0:0:0:
301,200,163423,1,8,0:0:0:0:
301,200,163598,1,0,0:0:0:0:
243,181,163949,1,0,0:0:0:0:
243,181,164124,1,8,0:0:0:0:
243,181,164300,1,0,0:0:0:0:
243,181,164475,1,0,0:0:0:0:
263,124,164826,1,8,0:0:0:0:
263,124,165002,1,0,0:0:0:0:
263,124,165177,1,8,0:0:0:0:
263,124,165353,1,0,0:0:0:0:
263,124,165528,1,8,0:0:0:0:
148,235,165879,1,0,0:0:0:0:
148,235,166230,1,0,0:0:0:0:
148,235,166405,1,8,0:0:0:0:
148,235,166581,1,0,0:0:0:0:
148,235,166756,1,0,0:0:0:0:
154,193,166931,1,8,0:0:0:0:
154,193,167282,1,0,0:0:0:0:
203,233,167633,1,8,0:0:0:0:
203,233,167809,1,0,0:0:0:0:
203,233,167984,1,0,0:0:0:0:
203,233,168160,1,0,0:0:0:0:
203,233,168335,1,8,0:0:0:0:
263,208,168686,1,6,0:0:0:0:
125,244,169037,1,0,0:0:0:0:
263,208,169212,1,6,0:0:0:0:
125,244,169563,1,0,0:0:0:0:
263,208,169738,1,6,0:0:0:0:
270,282,170265,1,6,0:0:0:0:
294,132,170440,1,0,0:0:0:0:
294,132,170616,1,0,0:0:0:0:
214,114,170791,1,6,0:0:0:0:
214,114,171142,1,0,0:0:0:0:
214,114,171317,1,6,0:0:0:0:
