osu file format v13

[General]
AudioFilename: Haruichi.mp3
AudioLeadIn: 0
PreviewTime: 54914
Countdown: 0
SampleSet: Normal
StackLeniency: 0.7
Mode: 1
LetterboxInBreaks: 0
WidescreenStoryboard: 0

[Editor]
DistanceSpacing: 0.7
BeatDivisor: 4
GridSize: 8
TimelineZoom: 1

[Metadata]
Title:Haruichi. feat. Hatsune Miku
TitleUnicode:ハルイチ。 feat. 初音ミク
Artist:DECO*27
ArtistUnicode:DECO*27
Creator:mintong89
Version:Taiko Kantan
Source:
Tags:haL1. vocaloid COLLECTION 2008~2012
BeatmapID:467277
BeatmapSetID:196049

[Difficulty]
HPDrainRate:3
CircleSize:5
OverallDifficulty:4
ApproachRate:5
SliderMultiplier:1.4
SliderTickRate:1

[Events]
//Background and Video events
0,0,"3817965.jpg",0,120
//Break Periods
2,126781,135907
//Storyboard Layer 0 (Background)
//Storyboard Layer 1 (Fail)
//Storyboard Layer 2 (Pass)
//Storyboard Layer 3 (Foreground)
//Storyboard Sound Samples
//Background Colour Transformations
3,100,163,162,255

[TimingPoints]
265.294117647059,350.877192982456,4,1,0,70,1,0
45177,-100,4,1,0,50,0,0
49738,-100,4,1,0,70,0,0
56405,-100,4,1,0,75,0,1
78861,-100,4,1,0,70,0,0
126581,-100,4,1,0,50,0,0
137107,-100,4,1,0,60,0,0
149037,-100,4,1,0,75,0,1
171493,-100,4,1,0,70,0,0

[HitObjects]
152,200,11493,5,4,0:0:0:0:
208,136,12195,1,8,0:0:0:0:
88,208,12896,1,0,0:0:0:0:
88,208,13598,1,0,0:0:0:0:
88,208,13949,1,0,0:0:0:0:
88,208,14300,1,0,0:0:0:0:
272,192,15002,1,8,0:0:0:0:
272,192,15703,1,0,0:0:0:0:
232,192,16405,1,0,0:0:0:0:
232,192,16756,1,0,0:0:0:0:
232,192,17107,1,0,0:0:0:0:
232,192,17809,1,8,0:0:0:0:
232,192,18510,1,8,0:0:0:0:
232,192,19212,1,0,0:0:0:0:
232,192,19563,1,0,0:0:0:0:
232,192,19914,1,0,0:0:0:0:
232,192,20616,1,8,0:0:0:0:
232,192,21317,1,8,0:0:0:0:
232,192,22019,1,0,0:0:0:0:
232,192,22370,1,0,0:0:0:0:
232,192,22721,1,0,0:0:0:0:
120,288,23423,1,8,0:0:0:0:
120,288,24124,1,0,0:0:0:0:
120,288,24826,1,8,0:0:0:0:
224,288,25528,1,0,0:0:0:0:
200,216,26931,1,0,0:0:0:0:
200,216,27633,1,0,0:0:0:0:
200,216,27984,1,0,0:0:0:0:
200,216,28335,1,0,0:0:0:0:
128,168,29037,1,8,0:0:0:0:
128,168,29738,1,0,0:0:0:0:
224,216,30440,1,8,0:0:0:0:
144,288,31142,1,0,0:0:0:0:
176,272,32545,1,0,0:0:0:0:
176,272,33247,1,0,0:0:0:0:
176,272,33598,1,0,0:0:0:0:
176,272,33949,1,0,0:0:0:0:
240,120,34651,1,0,0:0:0:0:
288,192,35353,1,0,0:0:0:0:
232,240,36756,1,0,0:0:0:0:
209,217,37458,1,0,0:0:0:0:
209,217,38160,1,0,0:0:0:0:
208,152,39563,1,0,0:0:0:0:
176,296,40265,1,8,0:0:0:0:
176,296,40967,1,0,0:0:0:0:
208,208,42370,1,0,0:0:0:0:
48,152,43072,1,8,0:0:0:0:
48,152,43774,1,0,0:0:0:0:
152,168,45177,1,8,0:0:0:0:
152,168,46581,1,8,0:0:0:0:
152,168,47984,1,8,0:0:0:0:
152,168,49388,1,8,0:0:0:0:
168,240,50089,1,0,0:0:0:0:
168,240,50791,1,4,0:0:0:0:
208,96,51493,1,8,0:0:0:0:
248,136,52195,1,0,0:0:0:0:
248,136,52896,1,8,0:0:0:0:
248,136,53598,1,0,0:0:0:0:
248,136,53949,1,0,0:0:0:0:
248,136,54300,1,0,0:0:0:0:
248,136,54651,1,0,0:0:0:0:
288,160,55002,1,4,0:0:0:0:
288,160,55703,1,4,0:0:0:0:
240,304,56405,1,4,0:0:0:0:
200,200,57107,1,8,0:0:0:0:
200,200,57809,1,0,0:0:0:0:
200,200,58160,1,0,0:0:0:0:
200,200,58510,1,0,0:0:0:0:
200,200,58861,1,0,0:0:0:0:
200,200,59212,1,0,0:0:0:0:
200,200,59914,1,8,0:0:0:0:
200,200,60616,1,0,0:0:0:0:
200,200,60967,1,0,0:0:0:0:
200,200,61317,1,0,0:0:0:0:
200,200,61668,1,0,0:0:0:0:
200,200,62019,1,0,0:0:0:0:
200,200,62721,1,8,0:0:0:0:
200,200,63423,1,0,0:0:0:0:
200,200,64124,1,8,0:0:0:0:
48,184,64826,2,0,B|152:192|440:336|440:336|288:304,1,560
184,256,66931,1,8,0:0:0:0:
240,112,67633,1,4,0:0:0:0:
232,216,68335,1,8,0:0:0:0:
232,216,69037,1,0,0:0:0:0:
232,216,69388,1,0,0:0:0:0:
232,216,69738,1,0,0:0:0:0:
232,216,70089,1,0,0:0:0:0:
232,216,70440,1,0,0:0:0:0:
232,216,71142,1,8,0:0:0:0:
112,160,71844,1,0,0:0:0:0:
112,160,72195,1,0,0:0:0:0:
112,160,72545,1,0,0:0:0:0:
112,160,72896,1,0,0:0:0:0:
112,160,73247,1,0,0:0:0:0:
128,320,73949,1,8,0:0:0:0:
216,280,74651,1,0,0:0:0:0:
184,304,75353,1,8,0:0:0:0:
72,232,76054,2,0,P|144:296|96:112,1,560
160,216,78160,1,8,0:0:0:0:
248,256,78861,1,4,0:0:0:0:
168,160,79914,1,8,0:0:0:0:
224,176,80967,1,8,0:0:0:0:
224,176,81668,1,0,0:0:0:0:
256,248,82721,1,8,0:0:0:0:
144,200,83774,1,8,0:0:0:0:
144,200,84475,1,0,0:0:0:0:
96,144,85528,1,8,0:0:0:0:
96,144,86581,1,8,0:0:0:0:
96,144,87282,1,0,0:0:0:0:
176,208,88335,1,8,0:0:0:0:
176,208,89388,1,8,0:0:0:0:
264,160,89738,1,8,0:0:0:0:
264,160,90089,1,4,0:0:0:0:
216,256,90791,1,8,0:0:0:0:
216,256,91493,1,0,0:0:0:0:
272,232,92195,1,0,0:0:0:0:
272,232,92545,1,0,0:0:0:0:
272,232,92896,1,0,0:0:0:0:
272,232,93598,1,8,0:0:0:0:
272,232,94300,1,0,0:0:0:0:
272,232,95002,1,0,0:0:0:0:
272,232,95353,1,0,0:0:0:0:
272,232,95703,1,0,0:0:0:0:
272,232,96405,1,8,0:0:0:0:
272,232,97107,1,8,0:0:0:0:
272,232,97809,1,0,0:0:0:0:
272,232,98160,1,0,0:0:0:0:
272,232,98510,1,0,0:0:0:0:
272,232,99212,1,8,0:0:0:0:
272,232,99914,1,8,0:0:0:0:
128,240,100616,1,0,0:0:0:0:
128,240,100967,1,0,0:0:0:0:
128,240,101317,1,0,0:0:0:0:
192,272,102019,1,8,0:0:0:0:
192,272,102721,1,0,0:0:0:0:
240,280,103423,1,0,0:0:0:0:
240,280,103774,1,0,0:0:0:0:
240,280,104124,1,0,0:0:0:0:
104,200,104826,1,8,0:0:0:0:
104,200,105528,1,0,0:0:0:0:
104,200,106230,1,0,0:0:0:0:
104,200,106581,1,0,0:0:0:0:
104,200,106931,1,0,0:0:0:0:
104,200,107633,1,8,0:0:0:0:
104,200,108335,1,0,0:0:0:0:
200,264,109037,1,0,0:0:0:0:
200,264,109388,1,0,0:0:0:0:
200,264,109738,1,0,0:0:0:0:
104,280,110440,1,8,0:0:0:0:
104,280,110791,1,8,0:0:0:0:
104,280,111142,1,8,0:0:0:0:
104,280,111844,1,0,0:0:0:0:
104,280,112195,1,0,0:0:0:0:
104,280,112545,1,0,0:0:0:0:
96,152,113247,1,8,0:0:0:0:
96,152,113949,1,0,0:0:0:0:
160,208,114651,1,0,0:0:0:0:
160,208,115002,1,0,0:0:0:0:
160,208,115353,1,0,0:0:0:0:
160,208,116054,1,8,0:0:0:0:
160,208,116756,1,8,0:0:0:0:
160,208,117458,1,0,0:0:0:0:
232,256,117809,1,0,0:0:0:0:
160,208,118160,1,0,0:0:0:0:
224,192,118861,1,8,0:0:0:0:
224,192,119563,1,0,0:0:0:0:
224,192,120265,1,8,0:0:0:0:
224,192,120967,1,0,0:0:0:0:
224,192,121668,1,0,0:0:0:0:
224,192,122019,1,0,0:0:0:0:
224,192,122370,1,0,0:0:0:0:
224,192,123072,1,0,0:0:0:0:
224,192,123423,1,0,0:0:0:0:
224,192,123774,1,0,0:0:0:0:
176,240,124475,1,8,0:0:0:0:
176,240,125177,1,0,0:0:0:0:
112,240,126581,1,0,0:0:0:0:
144,136,137107,5,0,0:0:0:0:
144,136,137458,1,0,0:0:0:0:
224,160,137809,1,4,0:0:0:0:
168,264,138510,1,8,0:0:0:0:
168,264,139212,1,0,0:0:0:0:
200,224,139914,1,0,0:0:0:0:
200,224,140265,1,0,0:0:0:0:
200,224,140616,1,0,0:0:0:0:
200,224,141317,1,8,0:0:0:0:
184,192,142019,1,8,0:0:0:0:
184,192,142721,1,0,0:0:0:0:
184,192,143072,1,0,0:0:0:0:
184,192,143423,1,0,0:0:0:0:
184,192,144124,1,8,0:0:0:0:
184,192,144826,1,0,0:0:0:0:
296,224,145528,1,8,0:0:0:0:
200,192,146230,2,0,B|96:192|464:208|464:208|208:192,1,560
192,240,149037,1,4,0:0:0:0:
112,144,149738,1,8,0:0:0:0:
112,144,150440,1,0,0:0:0:0:
112,144,150791,1,0,0:0:0:0:
112,144,151142,1,0,0:0:0:0:
112,144,151493,1,0,0:0:0:0:
112,144,151844,1,0,0:0:0:0:
112,144,152545,1,8,0:0:0:0:
112,144,153247,1,0,0:0:0:0:
112,144,153598,1,0,0:0:0:0:
112,144,153949,1,0,0:0:0:0:
112,144,154300,1,0,0:0:0:0:
112,144,154651,1,0,0:0:0:0:
184,160,155353,1,8,0:0:0:0:
200,208,156054,1,0,0:0:0:0:
208,264,156756,1,8,0:0:0:0:
88,184,157458,2,0,P|96:232|152:88,1,560
128,192,159563,1,0,0:0:0:0:
128,192,159914,1,0,0:0:0:0:
128,192,160265,1,4,0:0:0:0:
304,224,160967,1,8,0:0:0:0:
296,288,161668,1,0,0:0:0:0:
296,288,162019,1,0,0:0:0:0:
296,288,162370,1,0,0:0:0:0:
296,288,162721,1,0,0:0:0:0:
296,288,163072,1,0,0:0:0:0:
96,240,163774,1,8,0:0:0:0:
96,240,164475,1,8,0:0:0:0:
96,240,164826,1,8,0:0:0:0:
96,240,165177,1,8,0:0:0:0:
96,240,165528,1,8,0:0:0:0:
96,240,165879,1,8,0:0:0:0:
96,240,166581,1,0,0:0:0:0:
96,240,167282,1,8,0:0:0:0:
96,240,167984,1,0,0:0:0:0:
248,256,168686,1,6,0:0:0:0:
248,256,169212,1,6,0:0:0:0:
248,256,169738,1,6,0:0:0:0:
144,120,170440,1,6,0:0:0:0:
158,223,170791,1,6,0:0:0:0:
144,120,171142,1,6,0:0:0:0:
