osu file format v13

[General]
AudioFilename: Haruichi.mp3
AudioLeadIn: 0
PreviewTime: 54914
Countdown: 0
SampleSet: Normal
StackLeniency: 0.7
Mode: 1
LetterboxInBreaks: 0
WidescreenStoryboard: 0

[Editor]
DistanceSpacing: 0.7
BeatDivisor: 4
GridSize: 8
TimelineZoom: 1

[Metadata]
Title:Haruichi. feat. Hatsune Miku
TitleUnicode:ハルイチ。 feat. 初音ミク
Artist:DECO*27
ArtistUnicode:DECO*27
Creator:mintong89
Version:Taiko Futsuu
Source:
Tags:haL1. vocaloid COLLECTION 2008~2012
BeatmapID:467033
BeatmapSetID:196049

[Difficulty]
HPDrainRate:4
CircleSize:5
OverallDifficulty:4
ApproachRate:5
SliderMultiplier:1.4
SliderTickRate:1

[Events]
//Background and Video events
0,0,"3817965.jpg",0,120
//Break Periods
2,126605,135907
//Storyboard Layer 0 (Background)
//Storyboard Layer 1 (Fail)
//Storyboard Layer 2 (Pass)
//Storyboard Layer 3 (Foreground)
//Storyboard Sound Samples
//Background Colour Transformations
3,100,163,162,255

[TimingPoints]
265.294117647059,350.877192982456,4,1,0,70,1,0
45177,-100,4,1,0,50,0,0
49738,-100,4,1,0,70,0,0
56405,-100,4,1,0,75,0,1
78861,-100,4,1,0,70,0,0
126581,-100,4,1,0,50,0,0
137107,-100,4,1,0,60,0,0
149037,-100,4,1,0,75,0,1
171493,-100,4,1,0,70,0,0

[HitObjects]
232,208,10089,5,0,0:0:0:0:
232,208,10791,1,0,0:0:0:0:
296,240,11493,1,4,0:0:0:0:
192,176,11844,1,8,0:0:0:0:
192,264,12195,1,0,0:0:0:0:
192,264,12545,1,8,0:0:0:0:
192,264,12896,1,0,0:0:0:0:
192,264,13598,1,0,0:0:0:0:
192,264,13774,1,0,0:0:0:0:
192,264,13949,1,0,0:0:0:0:
176,216,14300,1,0,0:0:0:0:
176,216,14651,1,8,0:0:0:0:
176,216,15002,1,0,0:0:0:0:
176,216,15353,1,8,0:0:0:0:
176,216,15703,1,0,0:0:0:0:
176,216,16405,1,8,0:0:0:0:
176,216,16581,1,8,0:0:0:0:
176,216,16756,1,8,0:0:0:0:
240,256,17107,1,0,0:0:0:0:
352,256,17458,1,8,0:0:0:0:
352,256,17809,1,0,0:0:0:0:
352,256,18160,1,8,0:0:0:0:
352,256,18510,1,0,0:0:0:0:
352,256,19212,1,0,0:0:0:0:
352,256,19388,1,0,0:0:0:0:
352,256,19563,1,0,0:0:0:0:
176,224,19914,1,0,0:0:0:0:
176,224,20265,1,8,0:0:0:0:
176,224,20616,1,0,0:0:0:0:
176,224,20967,1,8,0:0:0:0:
176,224,21317,1,0,0:0:0:0:
216,264,22019,1,8,0:0:0:0:
216,264,22195,1,8,0:0:0:0:
216,264,22370,1,8,0:0:0:0:
304,296,22721,1,0,0:0:0:0:
304,296,23072,1,8,0:0:0:0:
192,160,23423,1,0,0:0:0:0:
280,160,24124,1,0,0:0:0:0:
280,160,24475,1,8,0:0:0:0:
280,160,24826,1,0,0:0:0:0:
280,160,25528,1,0,0:0:0:0:
176,232,25879,1,8,0:0:0:0:
192,208,26230,1,0,0:0:0:0:
240,144,26581,1,8,0:0:0:0:
272,208,26931,1,0,0:0:0:0:
280,296,27633,1,8,0:0:0:0:
272,208,27984,1,8,0:0:0:0:
272,208,28335,1,0,0:0:0:0:
256,248,29037,1,8,0:0:0:0:
272,184,29738,1,0,0:0:0:0:
272,184,30089,1,8,0:0:0:0:
272,184,30440,1,0,0:0:0:0:
288,224,31142,1,0,0:0:0:0:
288,224,31493,1,8,0:0:0:0:
288,224,31844,1,0,0:0:0:0:
192,184,32195,1,8,0:0:0:0:
192,184,32545,1,0,0:0:0:0:
224,160,33247,1,8,0:0:0:0:
224,160,33598,1,8,0:0:0:0:
224,160,33949,1,0,0:0:0:0:
144,232,34475,1,8,0:0:0:0:
192,240,35002,1,0,0:0:0:0:
192,240,35353,1,0,0:0:0:0:
224,232,35703,1,8,0:0:0:0:
224,232,36054,1,0,0:0:0:0:
304,264,36756,1,0,0:0:0:0:
304,264,37107,1,8,0:0:0:0:
304,264,37458,1,0,0:0:0:0:
304,264,38160,1,0,0:0:0:0:
304,264,38510,1,8,0:0:0:0:
304,264,38861,1,0,0:0:0:0:
96,176,39212,1,8,0:0:0:0:
96,176,39563,1,0,0:0:0:0:
96,176,40089,1,8,0:0:0:0:
96,176,40616,1,8,0:0:0:0:
184,216,41317,1,0,0:0:0:0:
184,216,41668,1,8,0:0:0:0:
184,216,42370,1,0,0:0:0:0:
184,216,42896,1,8,0:0:0:0:
184,216,43423,1,8,0:0:0:0:
184,216,44124,1,0,0:0:0:0:
184,216,44475,1,8,0:0:0:0:
312,223,45177,1,8,0:0:0:0:
135,146,45879,1,8,0:0:0:0:
312,223,46581,1,8,0:0:0:0:
312,223,47282,1,0,0:0:0:0:
312,223,47984,1,8,0:0:0:0:
274,174,48686,1,8,0:0:0:0:
217,148,49388,1,8,0:0:0:0:
106,246,49738,1,0,0:0:0:0:
106,246,50089,1,0,0:0:0:0:
173,240,50791,1,4,0:0:0:0:
173,240,51142,1,8,0:0:0:0:
246,282,51493,1,0,0:0:0:0:
246,282,51844,1,8,0:0:0:0:
238,209,52195,1,0,0:0:0:0:
238,209,52896,1,0,0:0:0:0:
238,209,53072,1,0,0:0:0:0:
238,209,53247,1,0,0:0:0:0:
303,187,53598,1,0,0:0:0:0:
303,187,53949,1,8,0:0:0:0:
303,187,54300,1,0,0:0:0:0:
254,179,54651,1,8,0:0:0:0:
213,256,55002,1,4,0:0:0:0:
246,284,55703,1,6,0:0:0:0:
314,243,56405,1,4,0:0:0:0:
314,243,56756,1,8,0:0:0:0:
188,122,57107,1,0,0:0:0:0:
188,122,57458,1,8,0:0:0:0:
188,122,57809,1,0,0:0:0:0:
188,122,58510,1,0,0:0:0:0:
188,122,58686,1,0,0:0:0:0:
188,122,58861,1,0,0:0:0:0:
202,169,59212,1,0,0:0:0:0:
202,169,59563,1,8,0:0:0:0:
202,169,59914,1,0,0:0:0:0:
202,169,60265,1,8,0:0:0:0:
202,169,60616,1,0,0:0:0:0:
202,169,61317,1,8,0:0:0:0:
202,169,61493,1,8,0:0:0:0:
202,169,61668,1,8,0:0:0:0:
121,176,62019,1,0,0:0:0:0:
121,176,62370,1,8,0:0:0:0:
121,176,63072,1,8,0:0:0:0:
121,176,63423,1,0,0:0:0:0:
121,176,63774,1,8,0:0:0:0:
121,176,64124,1,0,0:0:0:0:
106,229,64826,1,0,0:0:0:0:
106,229,65177,1,8,0:0:0:0:
106,229,65528,1,0,0:0:0:0:
106,229,65879,1,8,0:0:0:0:
106,229,66230,1,0,0:0:0:0:
106,229,66931,1,0,0:0:0:0:
106,229,67107,1,0,0:0:0:0:
106,229,67282,1,0,0:0:0:0:
210,184,67633,1,4,0:0:0:0:
193,281,67984,1,8,0:0:0:0:
193,281,68335,1,0,0:0:0:0:
261,264,68686,1,8,0:0:0:0:
261,264,69037,1,0,0:0:0:0:
261,264,69738,1,0,0:0:0:0:
261,264,69914,1,0,0:0:0:0:
261,264,70089,1,0,0:0:0:0:
261,264,70440,1,0,0:0:0:0:
261,264,70791,1,8,0:0:0:0:
261,264,71142,1,0,0:0:0:0:
261,264,71493,1,8,0:0:0:0:
261,264,71844,1,0,0:0:0:0:
261,264,72545,1,8,0:0:0:0:
261,264,72721,1,8,0:0:0:0:
261,264,72896,1,8,0:0:0:0:
261,264,73247,1,0,0:0:0:0:
114,186,73598,1,0,0:0:0:0:
185,222,73949,1,8,0:0:0:0:
185,222,74651,1,0,0:0:0:0:
185,222,75002,1,8,0:0:0:0:
185,222,75353,1,8,0:0:0:0:
314,196,76054,1,0,0:0:0:0:
314,196,76405,1,0,0:0:0:0:
314,196,76756,1,8,0:0:0:0:
314,196,77107,1,8,0:0:0:0:
314,196,77458,1,0,0:0:0:0:
314,196,78160,1,0,0:0:0:0:
198,191,78861,1,4,0:0:0:0:
212,242,79388,1,8,0:0:0:0:
212,242,79914,1,8,0:0:0:0:
212,242,80440,1,8,0:0:0:0:
178,289,80967,1,0,0:0:0:0:
289,331,81668,1,0,0:0:0:0:
289,331,82195,1,8,0:0:0:0:
162,166,82721,1,8,0:0:0:0:
162,166,83247,1,8,0:0:0:0:
162,166,83774,1,0,0:0:0:0:
162,166,84475,1,0,0:0:0:0:
162,166,85002,1,8,0:0:0:0:
162,166,85528,1,8,0:0:0:0:
162,166,86054,1,8,0:0:0:0:
162,166,86581,1,0,0:0:0:0:
162,166,87282,1,0,0:0:0:0:
162,166,87809,1,8,0:0:0:0:
162,166,88335,1,8,0:0:0:0:
162,166,88861,1,8,0:0:0:0:
162,166,89388,1,0,0:0:0:0:
277,196,90089,1,4,0:0:0:0:
277,196,90440,1,8,0:0:0:0:
277,196,90791,1,0,0:0:0:0:
277,196,91142,1,8,0:0:0:0:
277,196,91493,1,0,0:0:0:0:
277,196,92195,1,0,0:0:0:0:
277,196,92370,1,0,0:0:0:0:
277,196,92545,1,0,0:0:0:0:
277,196,92896,1,0,0:0:0:0:
277,196,93247,1,8,0:0:0:0:
277,196,93598,1,0,0:0:0:0:
288,260,93949,1,8,0:0:0:0:
288,260,94300,1,0,0:0:0:0:
288,260,95002,1,8,0:0:0:0:
288,260,95177,1,8,0:0:0:0:
288,260,95353,1,8,0:0:0:0:
288,260,95703,1,0,0:0:0:0:
288,260,96054,1,8,0:0:0:0:
288,260,96405,1,0,0:0:0:0:
288,260,96756,1,8,0:0:0:0:
288,260,97107,1,0,0:0:0:0:
62,198,97809,1,0,0:0:0:0:
62,198,97984,1,0,0:0:0:0:
62,198,98160,1,0,0:0:0:0:
62,198,98510,1,0,0:0:0:0:
62,198,98861,1,8,0:0:0:0:
62,198,99212,1,0,0:0:0:0:
62,198,99563,1,8,0:0:0:0:
62,198,99914,1,0,0:0:0:0:
62,198,100616,1,8,0:0:0:0:
62,198,100791,1,8,0:0:0:0:
62,198,100967,1,8,0:0:0:0:
266,266,101317,1,0,0:0:0:0:
217,200,101844,1,8,0:0:0:0:
159,249,102370,1,0,0:0:0:0:
159,249,103072,1,0,0:0:0:0:
159,249,103423,1,8,0:0:0:0:
223,267,104124,1,0,0:0:0:0:
223,267,104651,1,8,0:0:0:0:
223,267,105177,1,0,0:0:0:0:
223,267,105879,1,8,0:0:0:0:
223,267,106230,1,8,0:0:0:0:
223,267,106931,1,0,0:0:0:0:
223,267,107458,1,8,0:0:0:0:
223,267,107984,1,0,0:0:0:0:
223,267,108686,1,0,0:0:0:0:
223,267,109037,1,8,0:0:0:0:
183,162,109738,1,0,0:0:0:0:
183,162,110089,1,0,0:0:0:0:
183,162,110440,1,0,0:0:0:0:
183,162,111142,1,8,0:0:0:0:
183,162,111493,1,8,0:0:0:0:
183,162,111844,1,8,0:0:0:0:
183,162,112545,1,0,0:0:0:0:
183,162,113072,1,8,0:0:0:0:
183,162,113598,1,0,0:0:0:0:
183,162,114300,1,0,0:0:0:0:
183,162,114651,1,8,0:0:0:0:
157,208,115353,1,0,0:0:0:0:
157,208,115879,1,8,0:0:0:0:
157,208,116405,1,0,0:0:0:0:
157,208,117107,1,8,0:0:0:0:
157,208,117458,1,8,0:0:0:0:
190,248,118160,1,0,0:0:0:0:
190,248,118686,1,8,0:0:0:0:
190,248,119212,1,0,0:0:0:0:
243,208,119914,1,8,0:0:0:0:
243,208,120265,1,0,0:0:0:0:
243,208,120616,1,8,0:0:0:0:
243,208,120967,1,0,0:0:0:0:
243,208,121493,1,8,0:0:0:0:
243,208,122019,1,0,0:0:0:0:
158,188,122721,1,0,0:0:0:0:
158,188,123072,1,8,0:0:0:0:
136,156,123774,1,0,0:0:0:0:
136,156,124475,1,0,0:0:0:0:
136,156,125177,1,0,0:0:0:0:
98,248,125879,1,0,0:0:0:0:
98,248,126230,1,8,0:0:0:0:
208,267,126405,1,8,0:0:0:0:
199,193,137107,5,0,0:0:0:0:
199,193,137458,1,0,0:0:0:0:
255,161,137809,1,4,0:0:0:0:
281,229,138510,1,8,0:0:0:0:
281,229,139212,1,0,0:0:0:0:
281,229,139563,1,0,0:0:0:0:
281,229,139914,1,0,0:0:0:0:
197,251,140616,1,0,0:0:0:0:
197,251,141317,1,8,0:0:0:0:
178,133,142019,1,8,0:0:0:0:
178,133,142370,1,8,0:0:0:0:
178,133,142721,1,8,0:0:0:0:
178,133,143423,1,0,0:0:0:0:
178,133,144124,1,8,0:0:0:0:
178,133,144826,1,0,0:0:0:0:
178,133,145528,1,8,0:0:0:0:
219,194,146230,1,0,0:0:0:0:
219,194,146581,1,0,0:0:0:0:
219,194,146931,1,0,0:0:0:0:
219,194,147282,1,0,0:0:0:0:
219,194,147633,1,0,0:0:0:0:
188,121,148686,1,8,0:0:0:0:
168,182,149037,1,4,0:0:0:0:
168,182,149388,1,8,0:0:0:0:
168,182,149738,1,0,0:0:0:0:
210,204,150089,1,8,0:0:0:0:
210,204,150440,1,0,0:0:0:0:
210,204,151142,1,0,0:0:0:0:
210,204,151317,1,0,0:0:0:0:
210,204,151493,1,0,0:0:0:0:
286,156,151844,1,0,0:0:0:0:
286,156,152195,1,8,0:0:0:0:
286,156,152545,1,0,0:0:0:0:
286,156,152896,1,8,0:0:0:0:
286,156,153247,1,0,0:0:0:0:
286,156,153949,1,8,0:0:0:0:
286,156,154124,1,8,0:0:0:0:
286,156,154300,1,8,0:0:0:0:
286,156,154651,1,0,0:0:0:0:
286,156,155002,1,0,0:0:0:0:
204,120,155703,1,8,0:0:0:0:
119,206,156054,1,0,0:0:0:0:
119,206,156405,1,0,0:0:0:0:
119,206,156756,1,8,0:0:0:0:
119,206,157107,1,8,0:0:0:0:
119,206,157458,1,0,0:0:0:0:
129,241,158160,1,8,0:0:0:0:
129,241,158861,1,8,0:0:0:0:
129,241,159212,1,0,0:0:0:0:
193,220,159563,1,0,0:0:0:0:
129,241,159738,1,0,0:0:0:0:
129,241,159914,1,0,0:0:0:0:
282,191,160265,1,4,0:0:0:0:
282,191,160616,1,8,0:0:0:0:
282,191,160967,1,0,0:0:0:0:
282,191,161317,1,8,0:0:0:0:
282,191,161668,1,0,0:0:0:0:
97,177,162370,1,0,0:0:0:0:
97,177,162545,1,0,0:0:0:0:
97,177,162721,1,0,0:0:0:0:
97,177,163072,1,0,0:0:0:0:
97,177,163423,1,8,0:0:0:0:
97,177,163774,1,0,0:0:0:0:
97,177,164124,1,8,0:0:0:0:
97,177,164475,1,0,0:0:0:0:
265,202,165177,1,8,0:0:0:0:
265,202,165353,1,8,0:0:0:0:
265,202,165528,1,8,0:0:0:0:
265,202,165879,1,0,0:0:0:0:
173,162,166581,1,8,0:0:0:0:
214,113,167282,1,0,0:0:0:0:
214,113,167984,1,8,0:0:0:0:
214,113,168686,1,6,0:0:0:0:
214,113,169212,1,6,0:0:0:0:
214,113,169738,1,6,0:0:0:0:
159,191,170440,1,6,0:0:0:0:
159,191,170791,1,6,0:0:0:0:
159,191,171317,1,6,0:0:0:0:
