osu file format v14

[General]
AudioFilename: Ghost Rule.mp3
AudioLeadIn: 0
PreviewTime: 48076
Countdown: 0
SampleSet: Normal
StackLeniency: 0.7
Mode: 0
LetterboxInBreaks: 0
WidescreenStoryboard: 0

[Editor]
Bookmarks: 111290,111362,111433,111505,111576,123576,151005
DistanceSpacing: 1
BeatDivisor: 4
GridSize: 32
TimelineZoom: 1

[Metadata]
Title:Ghost Rule
TitleUnicode:ゴーストルール
Artist:DECO*27
ArtistUnicode:DECO*27
Creator:Awaken
Version:Regraz's Normal
Source:
Tags:ボーカロイド vocaloid Naoki Itai MUSIC FOR MUSIC Regraz Mafumafu Evil_Twilight HabiHolic Flask Nasya N_a_s_y_a caren_sk val0108 z1085684963 hatsune miku 初音ミク japanese novelty
BeatmapID:900056
BeatmapSetID:413117

[Difficulty]
HPDrainRate:3
CircleSize:3
OverallDifficulty:3
ApproachRate:4
SliderMultiplier:1
SliderTickRate:1

[Events]
//Background and Video events
0,0,"Ghost.jpg",0,0
//Break Periods
2,9490,17113
2,46062,46828
2,75632,83399
2,102918,103970
2,123490,131399
2,151204,158542
//Storyboard Layer 0 (Background)
//Storyboard Layer 1 (Fail)
//Storyboard Layer 2 (Pass)
//Storyboard Layer 3 (Foreground)
//Storyboard Layer 4 (Overlay)
//Storyboard Sound Samples

[TimingPoints]
148,285.714285714286,4,1,1,100,1,0

[Colours]
Combo1 : 255,40,40
Combo2 : 114,231,120
Combo3 : 78,210,214
Combo4 : 29,131,214
Combo5 : 255,0,0

[HitObjects]
256,192,148,12,0,9290,0:0:0:0:
105,64,18433,6,0,B|165:72|165:72|237:63|237:63|322:73,1,200,4|0,0:0|0:0,0:0:0:0:
402,85,19290,1,8,0:0:0:0:
440,177,19576,2,0,P|458:284|390:348,1,200,0|0,0:0|0:0,0:0:0:0:
321,281,20433,1,8,0:0:0:0:
234,330,20719,6,0,P|175:342|130:332,2,100,0|8|0,0:0|0:0|0:0,0:0:0:0:
179,245,21576,1,8,0:0:0:0:
93,192,21862,2,0,B|124:149|110:46|110:46|157:70,1,200,0|0,0:0|0:0,0:0:0:0:
251,44,22719,1,8,0:0:0:0:
350,57,23005,6,0,P|401:66|449:43,2,100,4|8|0,0:0|0:0|0:0,0:0:0:0:
251,44,23862,1,8,0:0:0:0:
285,137,24148,2,0,P|271:219|367:283,1,200,0|0,0:0|0:0,0:0:0:0:
444,235,25005,1,8,0:0:0:0:
355,283,25290,6,0,L|146:261,1,200,0|0,0:0|0:0,0:0:0:0:
73,318,26148,1,8,0:0:0:0:
57,219,26433,2,0,P|42:176|56:111,1,100,0|8,0:0|0:0,0:0:0:0:
120,51,27005,2,0,L|235:58,1,100,0|12,0:0|0:0,0:0:0:0:
319,56,27576,6,0,P|325:142|423:197,1,200,4|0,0:0|0:0,0:0:0:0:
497,139,28433,1,8,0:0:0:0:
493,239,28719,2,0,L|477:353,1,100,0|8,0:0|0:0,0:0:0:0:
380,318,29290,2,0,P|328:308|277:332,1,100,0|8,0:0|0:0,0:0:0:0:
202,267,29862,6,0,P|120:267|72:162,1,200,0|0,0:0|0:0,0:0:0:0:
147,108,30719,1,8,0:0:0:0:
231,53,31005,2,0,B|301:57|301:57|354:78|354:78|435:85,1,200,0|0,0:0|0:0,0:0:0:0:
489,162,31862,1,8,0:0:0:0:
393,191,32148,6,0,P|352:200|286:188,1,100,4|8,0:0|0:0,0:0:0:0:
219,126,32719,2,0,L|106:136,1,100,0|8,0:0|0:0,0:0:0:0:
107,234,33290,2,0,L|206:225,1,100,0|8,0:0|0:0,0:0:0:0:
284,288,33862,2,0,P|357:291|393:314,1,100,0|8,0:0|0:0,0:0:0:0:
478,314,34433,6,0,L|456:105,1,200,0|0,0:0|0:0,0:0:0:0:
381,49,35290,1,8,0:0:0:0:
324,131,35576,2,0,P|306:194|277:214,1,100,0|8,0:0|0:0,0:0:0:0:
190,167,36148,2,0,L|82:154,1,100,0|0,0:0|0:0,0:0:0:0:
59,250,36719,6,0,P|148:266|199:377,1,200,4|0,0:0|0:0,0:0:0:0:
293,319,37576,1,0,0:0:0:0:
385,358,37862,2,0,L|386:148,1,200,0|0,0:0|0:0,0:0:0:0:
367,59,38719,1,8,0:0:0:0:
267,44,39005,6,0,P|230:113|113:90,1,200,0|0,0:0|0:0,0:0:0:0:
26,68,39862,1,0,0:0:0:0:
51,164,40148,2,0,L|42:268,1,100,0|0,0:0|0:0,0:0:0:0:
134,302,40719,2,0,L|125:202,1,100,0|8,0:0|0:0,0:0:0:0:
206,143,41290,6,0,P|279:117|346:220,1,200,4|0,0:0|0:0,0:0:0:0:
312,294,42148,1,0,0:0:0:0:
221,336,42433,2,0,L|112:326,1,100,0|8,0:0|0:0,0:0:0:0:
136,227,43005,2,0,L|235:236,1,100,0|8,0:0|0:0,0:0:0:0:
326,195,43576,6,0,P|370:151|319:39,1,200,0|0,0:0|0:0,0:0:0:0:
226,73,44433,1,0,0:0:0:0:
131,40,44719,2,0,L|23:33,2,100,0|0|8,0:0|0:0|0:0,0:0:0:0:
226,73,45576,1,0,0:0:0:0:
156,145,45862,5,0,0:0:0:0:
106,52,48148,6,0,L|97:160,1,100,4|8,0:0|0:0,0:0:0:0:
186,196,48719,2,0,L|192:255,2,50,0|0|8,0:0|0:0|0:0,0:0:0:0:
230,106,49290,2,0,P|274:99|328:123,1,100,8|8,0:0|0:0,0:0:0:0:
381,202,49862,2,0,L|494:214,1,100,0|8,0:0|0:0,0:0:0:0:
450,308,50433,6,0,B|378:303|378:303|316:325|316:325|250:318,1,200,4|0,0:0|0:0,0:0:0:0:
175,256,51290,1,8,0:0:0:0:
82,217,51576,2,0,P|77:277|97:317,2,100,0|8|0,0:0|0:0|0:0,0:0:0:0:
175,256,52433,1,8,0:0:0:0:
229,171,52719,6,0,L|219:382,1,200,4|0,0:0|0:0,0:0:0:0:
311,331,53576,1,8,0:0:0:0:
386,265,53862,2,0,P|424:268|491:238,1,100,0|8,0:0|0:0,0:0:0:0:
471,146,54433,2,0,P|433:149|366:119,1,100,0|8,0:0|0:0,0:0:0:0:
283,89,55005,6,0,P|237:66|108:126,1,200,4|0,0:0|0:0,0:0:0:0:
84,217,55862,1,8,0:0:0:0:
180,245,56148,2,0,L|166:353,1,100,0|8,0:0|0:0,0:0:0:0:
265,323,56719,2,0,L|277:223,1,100,8|8,0:0|0:0,0:0:0:0:
370,186,57290,6,0,P|430:187|472:217,2,100,4|8|0,0:0|0:0|0:0,0:0:0:0:
396,283,58148,1,8,0:0:0:0:
299,308,58433,2,0,L|195:295,1,100,0|8,0:0|0:0,0:0:0:0:
132,220,59005,2,0,L|10:227,1,100,0|8,0:0|0:0,0:0:0:0:
44,126,59576,6,0,P|29:73|48:17,2,100,4|8|0,0:0|0:0|0:0,0:0:0:0:
129,74,60433,1,8,0:0:0:0:
205,138,60719,2,0,L|322:149,1,100,0|8,0:0|0:0,0:0:0:0:
356,62,61290,2,0,L|455:52,1,100,0|8,0:0|0:0,0:0:0:0:
479,150,61862,6,0,B|491:209|479:274|479:274|497:310|485:355,1,200,4|0,0:0|0:0,0:0:0:0:
390,321,62719,1,8,0:0:0:0:
290,332,63005,2,0,P|235:335|192:308,1,100,0|8,0:0|0:0,0:0:0:0:
118,251,63576,2,0,L|100:360,1,100,0|8,0:0|0:0,0:0:0:0:
33,275,64148,5,4,0:0:0:0:
33,275,64433,1,8,0:0:0:0:
71,182,64719,2,0,P|90:131|85:75,1,100,0|8,0:0|0:0,0:0:0:0:
175,37,65290,2,0,B|264:59|280:16|393:49,1,200,0|0,0:0|0:0,0:0:0:0:
460,94,66148,1,0,0:0:0:0:
386,160,66433,6,0,P|425:233|335:295,1,200,4|0,0:0|0:0,0:0:0:0:
263,244,67290,1,0,0:0:0:0:
183,304,67576,2,0,L|82:319,1,100,0|0,0:0|0:0,0:0:0:0:
56,222,68148,2,0,L|154:207,1,100,0|0,0:0|0:0,0:0:0:0:
224,135,68719,6,0,B|248:91|302:79|302:79|335:111|394:113,1,200,0|0,0:0|0:0,0:0:0:0:
489,83,69576,1,0,0:0:0:0:
471,181,69862,2,0,P|478:235|447:294,2,100,0|0|0,0:0|0:0|0:0,0:0:0:0:
376,215,70719,1,0,0:0:0:0:
285,257,71005,6,0,B|218:238|218:238|166:272|79:255,1,200,0|0,0:0|0:0,0:0:0:0:
42,170,71862,1,0,0:0:0:0:
94,84,72148,2,0,L|202:100,1,100,0|0,0:0|0:0,0:0:0:0:
284,58,72719,2,0,P|348:71|394:53,1,100,0|0,0:0|0:0,0:0:0:0:
478,44,73290,6,0,B|467:107|467:107|479:171|479:171|461:255,1,200,0|0,0:0|0:0,0:0:0:0:
366,218,74148,1,0,0:0:0:0:
286,278,74433,2,0,P|230:268|172:284,1,100,0|0,0:0|0:0,0:0:0:0:
117,347,75005,2,0,L|65:346,1,50,0|0,0:0|0:0,0:0:0:0:
52,297,75290,2,0,L|-8:292,1,50,8|0,0:0|0:0,0:0:0:0:
162,327,84719,6,0,P|111:318|63:341,2,100,4|8|0,0:0|0:0|0:0,0:0:0:0:
261,340,85576,1,8,0:0:0:0:
227,247,85862,2,0,P|241:165|145:101,1,200,0|0,0:0|0:0,0:0:0:0:
68,149,86719,1,8,0:0:0:0:
157,101,87005,6,0,L|366:123,1,200,0|0,0:0|0:0,0:0:0:0:
439,66,87862,1,8,0:0:0:0:
455,165,88148,2,0,P|470:208|456:273,1,100,0|8,0:0|0:0,0:0:0:0:
392,333,88719,2,0,L|277:326,1,100,0|8,0:0|0:0,0:0:0:0:
193,328,89290,6,0,P|187:242|89:187,1,200,0|0,0:0|0:0,0:0:0:0:
15,245,90148,1,8,0:0:0:0:
19,145,90433,2,0,L|35:31,1,100,0|8,0:0|0:0,0:0:0:0:
132,66,91005,2,0,P|184:76|235:52,1,100,0|8,0:0|0:0,0:0:0:0:
310,117,91576,6,0,P|392:117|440:222,1,200,0|0,0:0|0:0,0:0:0:0:
365,276,92433,1,8,0:0:0:0:
281,331,92719,2,0,B|211:327|211:327|158:306|158:306|77:299,1,200,0|0,0:0|0:0,0:0:0:0:
23,222,93576,1,8,0:0:0:0:
119,193,93862,6,0,P|160:184|226:196,1,100,4|0,0:0|0:0,0:0:0:0:
293,258,94433,2,0,L|406:248,1,100,0|0,0:0|0:0,0:0:0:0:
405,150,95005,2,0,L|306:159,1,100,0|8,0:0|0:0,0:0:0:0:
228,96,95576,2,0,P|155:93|119:70,1,100,0|8,0:0|0:0,0:0:0:0:
34,70,96148,6,0,L|56:279,1,200,0|0,0:0|0:0,0:0:0:0:
131,335,97005,1,0,0:0:0:0:
188,253,97290,2,0,P|206:190|235:170,1,100,0|0,0:0|0:0,0:0:0:0:
322,217,97862,2,0,L|430:230,1,100,0|8,0:0|0:0,0:0:0:0:
453,134,98433,6,0,P|364:118|313:7,1,200,4|0,0:0|0:0,0:0:0:0:
219,65,99290,1,0,0:0:0:0:
127,26,99576,2,0,L|126:236,1,200,0|0,0:0|0:0,0:0:0:0:
145,325,100433,1,8,0:0:0:0:
245,340,100719,6,0,P|282:271|399:294,1,200,0|0,0:0|0:0,0:0:0:0:
486,316,101576,1,0,0:0:0:0:
461,220,101862,2,0,L|470:116,1,100,0|0,0:0|0:0,0:0:0:0:
378,82,102433,2,0,L|387:182,1,100,8|8,0:0|0:0,0:0:0:0:
406,332,105290,6,0,L|415:224,1,100,4|8,0:0|0:0,0:0:0:0:
326,188,105862,2,0,L|320:129,2,50,0|0|8,0:0|0:0|0:0,0:0:0:0:
282,278,106433,2,0,P|238:285|184:261,1,100,0|8,0:0|0:0,0:0:0:0:
131,182,107005,2,0,L|18:170,1,100,0|8,0:0|0:0,0:0:0:0:
62,76,107576,6,0,B|134:81|134:81|196:59|196:59|262:66,1,200,0|0,0:0|0:0,0:0:0:0:
337,128,108433,1,8,0:0:0:0:
430,167,108719,2,0,P|435:107|415:67,2,100,0|8|0,0:0|0:0|0:0,0:0:0:0:
337,128,109576,1,8,0:0:0:0:
283,213,109862,6,0,L|293:2,1,200,0|0,0:0|0:0,0:0:0:0:
201,53,110719,1,8,0:0:0:0:
126,119,111005,2,0,P|88:116|21:146,1,100,0|8,0:0|0:0,0:0:0:0:
41,238,111576,2,0,P|79:235|146:265,1,100,0|8,0:0|0:0,0:0:0:0:
229,295,112148,6,0,P|275:318|404:258,1,200,0|0,0:0|0:0,0:0:0:0:
428,167,113005,1,8,0:0:0:0:
332,139,113290,2,0,L|346:31,1,100,0|8,0:0|0:0,0:0:0:0:
247,61,113862,2,0,L|235:161,1,100,8|8,0:0|0:0,0:0:0:0:
142,198,114433,6,0,P|82:197|40:167,2,100,4|8|0,0:0|0:0|0:0,0:0:0:0:
116,101,115290,1,8,0:0:0:0:
213,76,115576,2,0,L|317:89,1,100,0|8,0:0|0:0,0:0:0:0:
380,164,116148,2,0,L|502:157,1,100,0|8,0:0|0:0,0:0:0:0:
468,258,116719,6,0,P|483:311|464:367,2,100,4|8|0,0:0|0:0|0:0,0:0:0:0:
383,310,117576,1,8,0:0:0:0:
307,246,117862,2,0,L|190:235,1,100,0|8,0:0|0:0,0:0:0:0:
156,322,118433,2,0,L|57:332,1,100,0|8,0:0|0:0,0:0:0:0:
33,234,119005,6,0,B|21:175|33:110|33:110|15:74|27:29,1,200,4|0,0:0|0:0,0:0:0:0:
122,63,119862,1,8,0:0:0:0:
222,52,120148,2,0,P|277:49|320:76,1,100,0|8,0:0|0:0,0:0:0:0:
394,133,120719,2,0,L|412:24,1,100,0|8,0:0|0:0,0:0:0:0:
479,109,121290,5,4,0:0:0:0:
479,109,121576,1,8,0:0:0:0:
441,202,121862,2,0,P|422:253|427:309,1,100,0|8,0:0|0:0,0:0:0:0:
337,347,122433,2,0,B|248:325|232:368|119:335,1,200,0|0,0:0|0:0,0:0:0:0:
52,290,123290,1,0,0:0:0:0:
408,68,132719,6,0,P|343:113|228:66,1,200,0|0,0:0|0:0,0:0:0:0:
136,68,133576,1,8,0:0:0:0:
59,132,133862,2,0,B|77:186|64:273|64:273|122:316,1,200,0|0,0:0|0:0,0:0:0:0:
308,277,135005,6,0,L|411:284,1,100,0|8,0:0|0:0,0:0:0:0:
443,190,135576,2,0,L|343:183,1,100,0|8,0:0|0:0,0:0:0:0:
290,98,136148,2,0,P|179:62|119:114,1,200,0|0,0:0|0:0,0:0:0:0:
166,198,137005,1,8,0:0:0:0:
96,269,137290,6,0,P|89:323|98:371,2,100,0|8|0,0:0|0:0|0:0,0:0:0:0:
166,198,138148,1,8,0:0:0:0:
229,275,138433,2,0,B|298:288|298:288|361:270|361:270|441:280,1,200,0|0,0:0|0:0,0:0:0:0:
459,183,139290,1,8,0:0:0:0:
367,142,139576,6,0,L|253:155,1,100,0|8,0:0|0:0,0:0:0:0:
273,53,140148,2,0,L|372:41,1,100,0|8,0:0|0:0,0:0:0:0:
459,91,140719,2,0,P|469:180|377:244,1,200,0|0,0:0|0:0,0:0:0:0:
292,216,141576,1,8,0:0:0:0:
196,247,141862,6,0,L|208:130,2,100,12|8|8,0:0|0:0|0:0,0:0:0:0:
140,330,142719,1,8,0:0:0:0:
91,242,143005,2,0,L|79:125,2,100,0|8|0,0:0|0:0|0:0,0:0:0:0:
140,330,143862,1,8,0:0:0:0:
239,319,144148,6,0,P|296:329|348:317,1,100,0|8,0:0|0:0,0:0:0:0:
412,255,144719,2,0,L|426:145,1,100,0|8,0:0|0:0,0:0:0:0:
333,113,145290,2,0,L|326:60,2,50,0|0|8,0:0|0:0|0:0,0:0:0:0:
247,165,145862,1,0,0:0:0:0:
151,134,146148,1,8,0:0:0:0:
55,163,146433,6,0,B|25:241|89:262|48:366,1,200,0|8,0:0|0:0,0:0:0:0:
147,333,147290,1,8,0:0:0:0:
242,362,147576,2,0,B|203:265|267:244|237:166,1,200,0|0,0:0|0:0,0:0:0:0:
245,66,148433,1,8,0:0:0:0:
148,40,148719,6,0,P|101:39|39:48,2,100,0|0|0,0:0|0:0|0:0,0:0:0:0:
245,66,149576,1,0,0:0:0:0:
305,145,149862,2,0,B|374:152|374:152|424:142|424:142|506:155,2,200,0|0|0,0:0|0:0|0:0,0:0:0:0:
93,73,159862,5,8,0:0:0:0:
93,73,160148,2,0,L|82:193,1,100,4|12,0:0|0:0,0:0:0:0:
179,202,160719,2,0,L|182:257,2,50,0|0|8,0:0|0:0|0:0,0:0:0:0:
276,226,161290,2,0,L|287:106,1,100,0|8,0:0|0:0,0:0:0:0:
377,87,161862,2,0,L|374:32,2,50,0|0|8,0:0|0:0|0:0,0:0:0:0:
463,137,162433,6,0,P|474:189|460:247,1,100,0|8,0:0|0:0,0:0:0:0:
370,267,163005,2,0,L|252:248,1,100,0|8,0:0|0:0,0:0:0:0:
193,314,163576,2,0,L|75:327,1,100,0|8,0:0|0:0,0:0:0:0:
31,245,164148,2,0,L|20:185,1,50,0|0,0:0|0:0,0:0:0:0:
63,167,164433,2,0,L|52:107,1,50,8|0,0:0|0:0,0:0:0:0:
84,77,164719,6,0,P|137:100|189:87,1,100,0|12,0:0|0:0,0:0:0:0:
270,57,165290,2,0,L|271:0,2,50,0|0|8,0:0|0:0|0:0,0:0:0:0:
263,157,165862,2,0,P|316:180|368:167,1,100,4|8,0:0|0:0,0:0:0:0:
449,137,166433,2,0,L|450:80,2,50,0|0|8,0:0|0:0|0:0,0:0:0:0:
478,233,167005,6,0,L|463:353,1,100,4|8,0:0|0:0,0:0:0:0:
378,283,167576,2,0,P|320:270|277:286,1,100,0|8,0:0|0:0,0:0:0:0:
186,252,168148,2,0,P|110:275|32:188,1,200,0|0,0:0|0:0,0:0:0:0:
64,99,169005,1,8,0:0:0:0:
143,39,169290,6,0,L|254:55,1,100,0|12,0:0|0:0,0:0:0:0:
342,52,169862,2,0,L|440:37,1,100,0|8,0:0|0:0,0:0:0:0:
462,135,170433,2,0,B|432:201|468:244|468:244|477:298|454:347,1,200,4|0,0:0|0:0,0:0:0:0:
366,296,171290,1,8,0:0:0:0:
266,308,171576,6,0,P|218:328|163:322,2,100,4|8|0,0:0|0:0|0:0,0:0:0:0:
307,216,172433,1,8,0:0:0:0:
232,148,172719,2,0,L|114:165,1,100,4|8,0:0|0:0,0:0:0:0:
59,230,173290,2,0,L|68:278,1,50,0|0,0:0|0:0,0:0:0:0:
118,290,173576,2,0,L|127:338,1,50,12|0,0:0|0:0,0:0:0:0:
177,345,173862,6,0,P|223:350|280:336,1,100,0|12,0:0|0:0,0:0:0:0:
352,274,174433,2,0,L|457:285,1,100,0|12,0:0|0:0,0:0:0:0:
460,184,175005,2,0,P|486:82|401:31,1,200,0|0,0:0|0:0,0:0:0:0:
334,84,175862,1,12,0:0:0:0:
241,45,176148,6,0,L|137:31,1,100,4|8,0:0|0:0,0:0:0:0:
102,123,176719,2,0,L|201:136,1,100,0|8,0:0|0:0,0:0:0:0:
265,213,177290,2,0,P|261:249|202:300,2,100,4|8|8,0:0|0:0|0:0,0:0:0:0:
294,116,178148,1,8,0:0:0:0:
214,55,178433,6,0,L|99:68,1,100,4|8,0:0|0:0,0:0:0:0:
100,165,179005,2,0,L|199:153,1,100,0|8,0:0|0:0,0:0:0:0:
282,210,179576,1,0,0:0:0:0:
298,308,179862,1,8,0:0:0:0:
396,292,180148,1,0,0:0:0:0:
380,194,180433,1,8,0:0:0:0:
438,112,180719,6,0,L|462:61,2,50,4|0|8,0:0|0:0|0:0,0:0:0:0:
356,54,181290,2,0,P|300:64|242:51,1,100,0|8,0:0|0:0,0:0:0:0:
161,29,181862,1,0,0:0:0:0:
69,69,182148,1,8,0:0:0:0:
40,164,182433,2,0,L|32:227,1,50,0|0,0:0|0:0,0:0:0:0:
65,252,182719,2,0,L|74:318,1,50,8|0,0:0|0:0,0:0:0:0:
114,327,183005,6,0,P|183:350|226:343,1,100,4|8,0:0|0:0,0:0:0:0:
287,286,183576,2,0,L|277:215,2,50,0|0|8,0:0|0:0|0:0,0:0:0:0:
380,323,184148,1,0,0:0:0:0:
476,296,184433,1,8,0:0:0:0:
477,195,184719,1,0,0:0:0:0:
381,222,185005,1,8,0:0:0:0:
292,175,185290,6,0,P|268:125|285:66,1,100,4|8,0:0|0:0,0:0:0:0:
356,23,185862,2,0,L|479:35,1,100,0|8,0:0|0:0,0:0:0:0:
455,132,186433,2,0,L|382:142,2,50,0|0|8,0:0|0:0|0:0,0:0:0:0:
485,227,187005,2,0,P|492:285|475:344,1,100,0|8,0:0|0:0,0:0:0:0:
383,331,187576,6,0,P|323:319|279:333,1,100,4|8,0:0|0:0,0:0:0:0:
191,295,188148,2,0,P|142:305|94:293,1,100,0|8,0:0|0:0,0:0:0:0:
45,206,188719,1,0,0:0:0:0:
59,106,189005,1,8,0:0:0:0:
157,88,189290,1,0,0:0:0:0:
143,188,189576,1,8,0:0:0:0:
238,158,189862,6,0,P|306:155|339:177,1,100,4|8,0:0|0:0,0:0:0:0:
382,256,190433,2,0,L|378:311,2,50,0|0|8,0:0|0:0|0:0,0:0:0:0:
450,182,191005,2,0,L|439:69,1,100,0|8,0:0|0:0,0:0:0:0:
348,42,191576,2,0,L|285:31,1,50,0|0,0:0|0:0,0:0:0:0:
268,73,191862,2,0,L|204:75,1,50,8|0,0:0|0:0,0:0:0:0:
181,39,192148,6,0,P|115:55|64:44,1,100,0|8,0:0|0:0,0:0:0:0:
46,143,192719,2,0,L|37:263,1,100,0|8,0:0|0:0,0:0:0:0:
137,229,193290,2,0,L|146:347,1,100,0|8,0:0|0:0,0:0:0:0:
231,277,193862,2,0,P|292:266|333:286,1,100,0|8,0:0|0:0,0:0:0:0:
423,298,194433,6,0,P|475:253|463:117,1,200,4|0,0:0|0:0,0:0:0:0:
383,85,195290,1,8,0:0:0:0:
283,77,195576,2,0,L|213:65,1,50,0|0,0:0|0:0,0:0:0:0:
205,110,195862,2,0,L|150:126,1,50,8|0,0:0|0:0,0:0:0:0:
113,98,196148,5,6,0:0:0:0:
