osu file format v14

[General]
AudioFilename: Ghost Rule.mp3
AudioLeadIn: 0
PreviewTime: 48076
Countdown: 0
SampleSet: Normal
StackLeniency: 0.7
Mode: 0
LetterboxInBreaks: 0
WidescreenStoryboard: 0

[Editor]
Bookmarks: 105290
DistanceSpacing: 1.3
BeatDivisor: 4
GridSize: 4
TimelineZoom: 2

[Metadata]
Title:Ghost Rule
TitleUnicode:ゴーストルール
Artist:DECO*27
ArtistUnicode:DECO*27
Creator:Awaken
Version:Habi's Insane
Source:
Tags:ボーカロイド vocaloid Naoki Itai MUSIC FOR MUSIC Regraz Mafumafu Evil_Twilight HabiHolic Flask Nasya N_a_s_y_a caren_sk val0108 z1085684963 hatsune miku 初音ミク japanese novelty
BeatmapID:2174443
BeatmapSetID:413117

[Difficulty]
HPDrainRate:7
CircleSize:4
OverallDifficulty:7
ApproachRate:8
SliderMultiplier:1.4
SliderTickRate:1

[Events]
//Background and Video events
0,0,"Ghost.jpg",0,0
//Break Periods
2,123776,131969
2,151205,157112
//Storyboard Layer 0 (Background)
//Storyboard Layer 1 (Fail)
//Storyboard Layer 2 (Pass)
//Storyboard Layer 3 (Foreground)
//Storyboard Layer 4 (Overlay)
//Storyboard Sound Samples

[TimingPoints]
148,285.714285714286,4,1,1,80,1,0
8290,-100,4,1,1,60,0,0
18433,-100,4,1,1,70,0,0
48148,-90.9090909090909,4,1,1,80,0,0
66148,-90.9090909090909,4,1,1,50,0,0
75576,-133.333333333333,4,2,1,60,0,0
83719,-133.333333333333,4,1,1,50,0,0
84719,-100,4,1,1,70,0,0
105290,-90.9090909090909,4,1,1,80,0,0
132719,-133.333333333333,4,1,1,60,0,0
141862,-100,4,1,1,70,0,0
160148,-76.9230769230769,4,1,1,80,0,0
196719,-133.333333333333,4,2,1,50,0,0

[Colours]
Combo1 : 255,40,40
Combo2 : 114,231,120
Combo3 : 78,210,214
Combo4 : 29,131,214
Combo5 : 255,0,0

[HitObjects]
152,124,8290,5,0,0:0:0:0:
92,200,8433,2,0,L|12:192,1,70,8|0,0:0|0:0,0:0:0:0:
216,292,8719,2,0,L|296:284,1,70,8|0,0:0|0:0,0:0:0:0:
372,328,9005,1,8,0:0:0:0:
372,328,9290,6,0,P|392:260|368:192,1,140,4|0,0:0|0:0,0:0:0:0:
300,136,9719,1,0,0:0:0:0:
216,232,9862,2,0,L|292:228,1,70,8|0,0:0|0:0,0:0:0:0:
457,112,10148,2,0,L|388:116,1,70,0|0,0:0|0:0,0:0:0:0:
248,56,10433,6,0,P|181:42|131:87,1,140,0|0,0:0|0:0,0:0:0:0:
200,120,10862,1,0,0:0:0:0:
368,96,11005,2,0,L|372:24,1,70,8|0,0:0|0:0,0:0:0:0:
312,184,11290,2,0,L|315:253,1,70,0|0,0:0|0:0,0:0:0:0:
259,331,11576,6,0,P|325:351|384:317,1,140,0|0,0:0|0:0,0:0:0:0:
384,317,12005,1,0,0:0:0:0:
472,260,12148,2,0,L|484:340,1,70,8|0,0:0|0:0,0:0:0:0:
390,213,12433,2,0,L|380:144,1,70,0|0,0:0|0:0,0:0:0:0:
428,56,12719,5,0,0:0:0:0:
500,112,12862,1,0,0:0:0:0:
276,120,13005,1,0,0:0:0:0:
280,208,13148,1,0,0:0:0:0:
223,280,13290,2,0,P|158:296|105:254,1,140,8|0,0:0|0:0,0:0:0:0:
88,168,13719,1,0,0:0:0:0:
280,208,13862,6,0,P|308:244|292:336,1,140,0|0,0:0|0:0,0:0:0:0:
216,364,14290,1,0,0:0:0:0:
200,167,14433,2,0,P|219:139|250:124,1,70,8|0,0:0|0:0,0:0:0:0:
295,31,14719,2,0,P|324:51|342:81,1,70,0|0,0:0|0:0,0:0:0:0:
340,188,15005,6,0,L|488:176,1,140,0|0,0:0|0:0,0:0:0:0:
479,176,15433,1,0,0:0:0:0:
288,264,15576,2,0,L|216:256,1,70,8|0,0:0|0:0,0:0:0:0:
124,176,15862,2,0,L|196:168,1,70,0|0,0:0|0:0,0:0:0:0:
280,40,16148,6,0,B|260:108|304:112|280:184,1,140,0|0,0:0|0:0,0:0:0:0:
192,140,16576,1,0,0:0:0:0:
367,77,16719,2,0,P|403:73|435:89,1,70,8|0,0:0|0:0,0:0:0:0:
192,140,17005,2,0,P|156:144|124:128,1,70,0|0,0:0|0:0,0:0:0:0:
60,48,17290,5,0,0:0:0:0:
52,200,17433,1,0,0:0:0:0:
52,200,17505,1,0,0:0:0:0:
52,200,17576,1,0,0:0:0:0:
192,140,17719,1,0,0:0:0:0:
163,284,17862,2,0,L|239:280,1,70
328,348,18148,2,0,L|404:344,1,70,8|8,0:0|0:0,0:0:0:0:
472,284,18433,6,0,P|492:216|472:152,1,140,4|8,0:0|0:0,0:0:0:0:
471,151,18862,1,0,0:0:0:0:
332,224,19005,2,0,L|416:216,1,70,0|0,0:0|0:0,0:0:0:0:
396,88,19290,1,8,0:0:0:0:
256,160,19433,6,0,P|188:144|136:184,1,140,0|0,0:0|0:0,0:0:0:0:
104,272,19862,1,8,0:0:0:0:
172,336,20005,2,0,P|240:352|292:312,1,140,0|0,0:0|0:0,0:0:0:0:
352,240,20433,2,0,L|424:248,1,70,8|0,0:0|0:0,0:0:0:0:
300,156,20719,6,0,L|160:164,1,140,0|8,0:0|0:0,0:0:0:0:
88,224,21148,2,0,B|60:188|72:140|72:140|48:120|44:92,1,140,0|0,0:0|0:0,0:0:0:0:
128,68,21576,1,8,0:0:0:0:
172,255,21719,2,0,P|129:309|61:314,1,140,0|0,0:0|0:0,0:0:0:0:
8,248,22148,2,0,L|0:172,1,70,8|0,0:0|0:0,0:0:0:0:
128,76,22433,2,0,L|136:152,1,70,0|0,0:0|0:0,0:0:0:0:
232,252,22719,1,8,0:0:0:0:
232,252,23005,6,0,L|312:244,1,70,4|0,0:0|0:0,0:0:0:0:
464,180,23290,2,0,P|408:144|328:168,1,140,8|0,0:0|0:0,0:0:0:0:
384,304,23719,2,0,L|392:232,1,70,0|8,0:0|0:0,0:0:0:0:
240,96,24005,2,0,L|256:240,1,140,0|0,0:0|0:0,0:0:0:0:
196,316,24433,2,0,L|124:308,1,70,8|0,0:0|0:0,0:0:0:0:
332,188,24719,2,0,L|404:180,1,70,0|0,0:0|0:0,0:0:0:0:
208,76,25005,2,0,L|136:68,1,70,8|0,0:0|0:0,0:0:0:0:
48,208,25290,6,0,P|98:254|167:255,1,140,0|8,0:0|0:0,0:0:0:0:
344,255,25719,2,0,P|413:254|463:208,1,140,0|0,0:0|0:0,0:0:0:0:
372,100,26148,2,0,L|384:172,1,70,8|0,0:0|0:0,0:0:0:0:
256,312,26433,1,0,0:0:0:0:
256,136,26576,1,0,0:0:0:0:
148,204,26719,2,0,L|164:280,1,70,8|0,0:0|0:0,0:0:0:0:
349,272,27005,2,0,L|364:204,1,70,0|0,0:0|0:0,0:0:0:0:
256,136,27290,1,12,0:0:0:0:
256,136,27576,6,0,P|232:148|148:92,1,140,4|8,0:0|0:0,0:0:0:0:
320,76,28005,1,0,0:0:0:0:
344,224,28148,2,0,L|332:296,1,70,0|0,0:0|0:0,0:0:0:0:
412,156,28433,2,0,L|400:86,1,70,8|0,0:0|0:0,0:0:0:0:
264,176,28719,5,0,0:0:0:0:
432,244,28862,1,0,0:0:0:0:
228,260,29005,2,0,L|144:252,1,70,8|0,0:0|0:0,0:0:0:0:
96,176,29290,1,0,0:0:0:0:
96,176,29433,1,0,0:0:0:0:
264,176,29576,2,0,P|296:196|312:228,1,70,8|0,0:0|0:0,0:0:0:0:
328,272,29790,1,0,0:0:0:0:
328,272,29862,6,0,L|320:120,1,140,0|8,0:0|0:0,0:0:0:0:
160,76,30290,2,0,L|168:216,1,140,0|0,0:0|0:0,0:0:0:0:
104,280,30719,1,8,0:0:0:0:
219,355,30862,6,0,P|287:364|340:322,1,140,0|0,0:0|0:0,0:0:0:0:
260,212,31290,2,0,L|268:292,1,70,8|0,0:0|0:0,0:0:0:0:
196,140,31576,2,0,L|202:70,1,70,0|0,0:0|0:0,0:0:0:0:
344,160,31862,2,0,L|352:240,1,70,8|0,0:0|0:0,0:0:0:0:
384,268,32076,1,0,0:0:0:0:
384,268,32148,6,0,P|451:267|487:211,1,140,4|8,0:0|0:0,0:0:0:0:
256,152,32719,2,0,L|112:136,1,140,0|8,0:0|0:0,0:0:0:0:
51,64,33148,2,0,P|20:124|38:190,1,140,0|0,0:0|0:0,0:0:0:0:
104,264,33576,2,0,L|176:256,1,70,8|0,0:0|0:0,0:0:0:0:
280,172,33862,2,0,L|208:164,1,70,0|0,0:0|0:0,0:0:0:0:
212,348,34148,2,0,L|284:340,1,70,8|0,0:0|0:0,0:0:0:0:
316,304,34362,1,0,0:0:0:0:
316,304,34433,6,0,P|352:292|432:360,1,140,0|8,0:0|0:0,0:0:0:0:
212,352,34862,1,0,0:0:0:0:
144,288,35005,2,0,L|136:212,1,70,0|0,0:0|0:0,0:0:0:0:
256,94,35290,2,0,L|264:164,1,70,8|0,0:0|0:0,0:0:0:0:
232,248,35576,5,0,0:0:0:0:
380,207,35719,1,8,0:0:0:0:
380,207,35790,1,8,0:0:0:0:
380,207,35862,1,8,0:0:0:0:
208,254,36005,1,0,0:0:0:0:
392,328,36148,2,0,L|318:313,1,70,8|8,0:0|0:0,0:0:0:0:
192,176,36433,1,0,0:0:0:0:
192,176,36719,6,0,L|184:28,1,140,4|0,0:0|0:0,0:0:0:0:
96,104,37148,1,0,0:0:0:0:
132,248,37290,2,0,P|164:264|200:264,1,70,8|0,0:0|0:0,0:0:0:0:
352,200,37576,2,0,L|272:192,1,70,0|0,0:0|0:0,0:0:0:0:
280,352,37862,2,0,L|360:344,1,70,0|0,0:0|0:0,0:0:0:0:
188,288,38148,2,0,L|44:304,2,140,0|8|0,0:0|0:0|0:0,0:0:0:0:
260,224,38862,1,0,0:0:0:0:
344,352,39005,6,0,B|324:292|324:292|352:264|352:220,1,140,0|0,0:0|0:0,0:0:0:0:
308,144,39433,1,0,0:0:0:0:
416,304,39576,2,0,L|492:296,1,70,8|0,0:0|0:0,0:0:0:0:
448,208,39862,1,0,0:0:0:0:
260,224,40005,6,0,P|194:209|142:252,1,140,0|0,0:0|0:0,0:0:0:0:
80,324,40433,2,0,L|-4:312,1,70,0|0,0:0|0:0,0:0:0:0:
160,368,40719,2,0,L|236:360,1,70,8|0,0:0|0:0,0:0:0:0:
296,276,41005,2,0,L|220:268,1,70,0|0,0:0|0:0,0:0:0:0:
384,368,41290,6,0,B|360:308|408:296|384:228,1,140
316,168,41719,1,0,0:0:0:0:
404,140,41862,2,0,L|476:148,1,70,8|0,0:0|0:0,0:0:0:0:
336,80,42148,1,0,0:0:0:0:
299,256,42290,6,0,P|232:264|184:216,1,140,0|0,0:0|0:0,0:0:0:0:
112,156,42719,2,0,P|78:147|44:156,1,70,0|0,0:0|0:0,0:0:0:0:
264,176,43005,2,0,P|297:184|331:175,1,70,8|0,0:0|0:0,0:0:0:0:
396,104,43290,1,0,0:0:0:0:
396,104,43433,1,0,0:0:0:0:
496,200,43576,6,0,L|484:348,1,140,0|0,0:0|0:0,0:0:0:0:
392,224,44005,1,0,0:0:0:0:
392,224,44148,2,0,L|380:148,2,70,8|0|0,0:0|0:0|0:0,0:0:0:0:
336,300,44576,1,0,0:0:0:0:
188,216,44719,5,0,0:0:0:0:
187,216,44862,2,0,P|244:177|309:197,1,140,0|0,0:0|0:0,0:0:0:0:
156,300,45290,2,0,L|88:288,1,70,8|8,0:0|0:0,0:0:0:0:
228,356,45576,2,0,L|296:344,1,70,8|8,0:0|0:0,0:0:0:0:
384,360,45862,1,2,0:0:0:0:
256,192,45933,12,0,47576,0:0:0:0:
128,124,48148,6,0,L|48:112,1,77.0000023498536,4|0,0:0|0:0,0:0:0:0:
192,184,48433,2,0,L|272:172,1,77.0000023498536,8|0,0:0|0:0,0:0:0:0:
320,96,48719,1,0,0:0:0:0:
328,244,48862,1,0,0:0:0:0:
404,128,49005,1,8,0:0:0:0:
268,172,49148,1,0,0:0:0:0:
416,216,49290,6,0,L|492:208,1,77.0000023498536,0|0,0:0|0:0,0:0:0:0:
328,244,49576,1,8,0:0:0:0:
395,304,49719,2,0,P|328:335|258:307,1,154.000004699707,0|0,0:0|0:0,0:0:0:0:
200,240,50148,2,0,L|124:252,1,77.0000023498536,8|0,0:0|0:0,0:0:0:0:
40,300,50433,6,0,L|28:224,1,77.0000023498536,4|0,0:0|0:0,0:0:0:0:
112,92,50719,2,0,L|100:168,1,77.0000023498536,8|0,0:0|0:0,0:0:0:0:
314,101,51005,2,0,P|264:155|192:144,1,154.000004699707,0|8,0:0|0:0,0:0:0:0:
240,80,51433,1,0,0:0:0:0:
352,28,51576,2,0,L|368:188,1,154.000004699707,0|8,0:0|0:0,0:0:0:0:
432,324,52005,2,0,L|444:244,1,77.0000023498536,0|0,0:0|0:0,0:0:0:0:
300,256,52290,1,0,0:0:0:0:
300,256,52362,1,0,0:0:0:0:
300,256,52433,2,0,L|216:248,1,77.0000023498536,8|0,0:0|0:0,0:0:0:0:
140,176,52719,6,0,P|65:170|17:226,1,154.000004699707,4|8,0:0|0:0,0:0:0:0:
100,248,53148,1,0,0:0:0:0:
224,200,53290,2,0,P|228:160|212:120,1,77.0000023498536,0|0,0:0|0:0,0:0:0:0:
180,284,53576,2,0,P|176:324|192:364,1,77.0000023498536,8|0,0:0|0:0,0:0:0:0:
399,335,53862,6,0,P|338:293|266:310,1,154.000004699707,0|8,0:0|0:0,0:0:0:0:
96,332,54290,2,0,B|72:256|128:256|100:176,1,154.000004699707,0|0,0:0|0:0,0:0:0:0:
20,224,54719,1,8,0:0:0:0:
172,292,54862,1,0,0:0:0:0:
216,208,55005,6,0,L|296:216,1,77.0000023498536,0|0,0:0|0:0,0:0:0:0:
400,120,55290,2,0,L|323:127,1,77.0000023498536,8|0,0:0|0:0,0:0:0:0:
140,88,55576,2,0,P|213:99|263:45,1,154.000004699707,0|8,0:0|0:0,0:0:0:0:
188,24,56005,1,0,0:0:0:0:
31,43,56148,6,0,L|41:126,1,77.0000023498536,0|0,0:0|0:0,0:0:0:0:
49,206,56362,1,8,0:0:0:0:
49,206,56433,1,8,0:0:0:0:
198,170,56576,1,0,0:0:0:0:
146,313,56719,2,0,P|185:312|221:324,1,77.0000023498536,8|8,0:0|0:0,0:0:0:0:
392,272,57005,2,0,L|309:263,1,77.0000023498536,8|8,0:0|0:0,0:0:0:0:
198,170,57290,6,0,B|179:137|170:100|170:100|174:62|194:25,1,154.000004699707,4|8,0:0|0:0,0:0:0:0:
273,100,57719,1,0,0:0:0:0:
223,277,57862,2,0,L|144:267,1,77.0000023498536,0|0,0:0|0:0,0:0:0:0:
311,350,58148,2,0,L|390:337,1,77.0000023498536,8|0,0:0|0:0,0:0:0:0:
504,232,58433,6,0,P|434:256|378:208,1,154.000004699707,4|8,0:0|0:0,0:0:0:0:
350,113,58862,1,0,0:0:0:0:
272,180,59005,2,0,P|279:218|270:256,1,77.0000023498536,0|0,0:0|0:0,0:0:0:0:
189,120,59290,2,0,P|180:82|187:45,1,77.0000023498536,8|0,0:0|0:0,0:0:0:0:
272,81,59576,5,4,0:0:0:0:
272,81,59719,1,0,0:0:0:0:
164,207,59862,2,0,L|86:195,1,77.0000023498536,8|0,0:0|0:0,0:0:0:0:
234,288,60148,2,0,L|393:272,1,154.000004699707,0|8,0:0|0:0,0:0:0:0:
460,194,60576,1,0,0:0:0:0:
322,26,60719,6,0,P|307:100|329:173,1,154.000004699707,0|8,0:0|0:0,0:0:0:0:
415,95,61148,1,0,0:0:0:0:
235,206,61290,2,0,L|154:194,1,77.0000023498536,0|0,0:0|0:0,0:0:0:0:
75,182,61505,1,0,0:0:0:0:
75,182,61576,1,8,0:0:0:0:
206,105,61719,1,0,0:0:0:0:
180,299,61862,6,0,B|243:291|243:291|269:299|269:299|331:290,2,154.000004699707,4|8|0,0:0|0:0|0:0,0:0:0:0:
101,366,62576,1,0,0:0:0:0:
20,238,62719,2,0,P|11:199|15:161,1,77.0000023498536,8|0,0:0|0:0,0:0:0:0:
173,26,63005,6,0,P|193:99|173:173,1,154.000004699707,0|8,0:0|0:0,0:0:0:0:
96,97,63433,1,0,0:0:0:0:
268,169,63576,2,0,L|353:158,1,77.0000023498536,0|0,0:0|0:0,0:0:0:0:
331,246,63862,2,0,L|416:235,1,77.0000023498536,8|0,0:0|0:0,0:0:0:0:
259,314,64148,5,4,0:0:0:0:
259,314,64290,1,0,0:0:0:0:
136,220,64433,2,0,P|129:178|133:140,1,77.0000023498536,8|0,0:0|0:0,0:0:0:0:
275,32,64719,2,0,P|289:107|273:181,1,154.000004699707,0|8,0:0|0:0,0:0:0:0:
114,252,65148,1,0,0:0:0:0:
251,348,65290,6,0,L|335:337,1,77.0000023498536,0|0,0:0|0:0,0:0:0:0:
413,326,65505,1,0,0:0:0:0:
413,326,65576,1,8,0:0:0:0:
471,197,65719,1,0,0:0:0:0:
322,160,65862,2,0,P|313:198|323:235,1,77.0000023498536,0|0,0:0|0:0,0:0:0:0:
406,75,66148,1,2,0:0:0:0:
406,75,66433,6,0,L|252:57,1,154.000004699707,4|0,0:0|0:0,0:0:0:0:
150,117,66862,1,0,0:0:0:0:
262,276,67005,2,0,P|275:224|262:159,1,115.50000352478,0|0,0:0|0:0,0:0:0:0:
264,163,67290,2,0,L|345:179,1,77.0000023498536,0|0,0:0|0:0,0:0:0:0:
503,321,67576,6,0,L|351:284,1,154.000004699707,0|0,0:0|0:0,0:0:0:0:
201,254,68005,1,0,0:0:0:0:
262,87,68148,2,0,P|267:128|262:171,1,77.0000023498536,0|0,0:0|0:0,0:0:0:0:
96,69,68433,2,0,L|184:57,1,77.0000023498536,0|0,0:0|0:0,0:0:0:0:
324,276,68719,6,0,L|169:248,1,154.000004699707,0|0,0:0|0:0,0:0:0:0:
69,228,69148,1,0,0:0:0:0:
139,85,69290,2,0,P|146:126|137:164,1,77.0000023498536,0|0,0:0|0:0,0:0:0:0:
48,241,69576,1,0,0:0:0:0:
232,188,69719,1,0,0:0:0:0:
169,349,69862,2,0,L|255:338,1,77.0000023498536,0|0,0:0|0:0,0:0:0:0:
432,238,70148,2,0,L|351:224,1,77.0000023498536,0|0,0:0|0:0,0:0:0:0:
227,112,70433,1,0,0:0:0:0:
227,112,70576,1,0,0:0:0:0:
369,28,70719,2,0,P|375:67|367:108,1,77.0000023498536,0|0,0:0|0:0,0:0:0:0:
224,208,71005,6,0,B|152:188|144:244|72:216,1,154.000004699707,0|0,0:0|0:0,0:0:0:0:
108,140,71433,1,0,0:0:0:0:
188,296,71576,2,0,P|262:297|313:241,1,154.000004699707,0|0,0:0|0:0,0:0:0:0:
328,156,72005,6,0,L|352:320,1,154.000004699707,0|0,0:0|0:0,0:0:0:0:
408,116,72433,2,0,P|384:84|348:72,1,77.0000023498536,0|0,0:0|0:0,0:0:0:0:
211,124,72719,2,0,P|156:131|112:96,1,115.50000352478,0|0,0:0|0:0,0:0:0:0:
112,96,73005,2,0,L|104:16,1,77.0000023498536,0|0,0:0|0:0,0:0:0:0:
264,56,73290,6,0,L|252:216,1,154.000004699707,0|0,0:0|0:0,0:0:0:0:
184,288,73719,1,0,0:0:0:0:
84,200,73862,2,0,P|118:184|156:190,1,77.0000023498536,0|0,0:0|0:0,0:0:0:0:
312,308,74148,2,0,P|349:313|384:298,1,77.0000023498536,0|0,0:0|0:0,0:0:0:0:
448,168,74433,5,0,0:0:0:0:
348,80,74576,2,0,B|321:125|321:125|343:236,1,154.000004699707,0|0,0:0|0:0,0:0:0:0:
419,151,75005,1,0,0:0:0:0:
248,204,75148,1,0,0:0:0:0:
160,112,75290,2,0,L|240:104,1,77.0000023498536,8|0,0:0|0:0,0:0:0:0:
240,236,75576,5,4,3:0:0:0:
40,356,75862,2,0,L|28:300,1,52.5000020027161,0|0,0:0|0:0,0:0:0:0:
128,248,76148,2,0,L|116:299,1,52.5000020027161,0|0,0:0|0:0,0:0:0:0:
56,188,76433,1,0,0:0:0:0:
216,208,76576,6,0,B|268:200|268:240|328:224,1,105.000004005432,0|0,0:0|0:0,0:0:0:0:
304,148,77005,1,0,0:0:0:0:
159,267,77148,2,0,P|133:224|141:173,1,105.000004005432,0|0,0:0|0:0,0:0:0:0:
204,100,77576,1,0,0:0:0:0:
204,100,77719,1,0,0:0:0:0:
228,324,77862,6,0,L|332:320,1,105.000004005432,0|2,0:0|0:0,0:0:0:0:
420,364,78290,2,0,P|432:308|412:256,1,105.000004005432,0|2,0:0|0:0,0:0:0:0:
324,180,78719,2,0,L|336:240,1,52.5000020027161,0|0,0:0|0:0,0:0:0:0:
420,172,79005,6,0,L|432:56,1,105.000004005432,0|0,0:0|0:0,0:0:0:0:
348,28,79433,1,0,0:0:0:0:
264,128,79576,2,0,L|320:120,1,52.5000020027161,0|0,0:0|0:0,0:0:0:0:
208,204,79862,2,0,L|152:196,1,52.5000020027161,0|0,0:0|0:0,0:0:0:0:
64,140,80148,6,0,L|72:248,1,105.000004005432,0|0,0:0|0:0,0:0:0:0:
24,332,80576,1,0,0:0:0:0:
184,360,80719,2,0,L|196:308,1,52.5000020027161,2|0,0:0|0:0,0:0:0:0:
132,248,81005,1,0,0:0:0:0:
272,212,81148,6,0,L|288:328,1,105.000004005432
286,316,81576,1,0,0:0:0:0:
364,248,81719,2,0,L|378:143,1,105.000004005432,0|0,0:0|0:0,0:0:0:0:
288,80,82148,2,0,L|296:140,1,52.5000020027161,0|0,0:0|0:0,0:0:0:0:
175,208,82433,6,0,P|125:213|85:180,1,105.000004005432,2|2,0:0|0:0,0:0:0:0:
152,136,82862,1,0,0:0:0:0:
228,148,83005,2,0,P|244:168|252:200,1,52.5000020027161,2|0,0:0|0:0,0:0:0:0:
220,260,83290,1,8,0:0:0:0:
220,260,83433,1,0,0:0:0:0:
200,72,83576,5,0,0:0:0:0:
152,136,83719,1,8,0:0:0:0:
276,96,83862,2,0,L|328:104,1,52.5000020027161,0|0,0:0|0:0,0:0:0:0:
408,72,84148,6,0,L|400:16,1,52.5000020027161,0|8,0:0|0:0,0:0:0:0:
396,152,84433,2,0,L|384:216,1,52.5000020027161,0|8,0:0|0:0,0:0:0:0:
312,264,84719,6,0,P|369:301|436:288,1,140,4|8,0:0|0:0,0:0:0:0:
480,204,85148,1,0,0:0:0:0:
256,195,85290,2,0,P|233:222|223:255,1,70,2|0,0:0|0:0,0:0:0:0:
256,340,85576,1,8,0:0:0:0:
340,184,85719,6,0,P|302:127|235:114,1,140,0|0,0:0|0:0,0:0:0:0:
140,156,86148,2,0,L|132:80,1,70,8|2,0:0|0:0,0:0:0:0:
216,224,86433,2,0,L|208:296,1,70,0|2,0:0|0:0,0:0:0:0:
116,244,86719,1,8,0:0:0:0:
304,272,86862,1,0,0:0:0:0:
304,272,86933,1,0,0:0:0:0:
304,272,87005,6,0,P|370:289|426:250,1,140,2|8,0:0|0:0,0:0:0:0:
356,72,87433,2,0,B|337:118|337:118|356:216,1,140,2|0,0:0|0:0,0:0:0:0:
428,140,87862,1,10,0:0:0:0:
262,174,88005,1,0,0:0:0:0:
262,174,88076,1,0,0:0:0:0:
262,174,88148,6,0,B|198:198|190:146|122:170,1,140,2|8,0:0|0:0,0:0:0:0:
155,259,88576,1,0,0:0:0:0:
229,91,88719,2,0,L|217:15,1,70,0|2,0:0|0:0,0:0:0:0:
133,73,89005,1,8,0:0:0:0:
314,50,89148,1,2,0:0:0:0:
314,50,89219,1,0,0:0:0:0:
313,50,89290,6,0,P|380:35|435:75,1,140,4|8,0:0|0:0,0:0:0:0:
362,261,89719,1,0,0:0:0:0:
362,261,89862,2,0,B|338:189|386:197|358:113,1,140,2|8,0:0|0:0,0:0:0:0:
280,168,90290,1,0,0:0:0:0:
440,216,90433,2,0,P|480:216|504:200,1,70,2|0,0:0|0:0,0:0:0:0:
280,168,90719,2,0,P|246:159|214:170,1,70,8|0,0:0|0:0,0:0:0:0:
120,272,91005,2,0,P|88:280|52:264,1,70,2|0,0:0|0:0,0:0:0:0:
88,112,91290,2,0,L|96:184,1,70,8|0,0:0|0:0,0:0:0:0:
213,351,91576,6,0,B|193:282|237:282|214:211,1,140,2|8,0:0|0:0,0:0:0:0:
296,115,92005,2,0,P|363:106|415:150,1,140,0|0,0:0|0:0,0:0:0:0:
352,264,92433,2,0,L|340:184,1,70,8|0,0:0|0:0,0:0:0:0:
212,72,92719,6,0,L|201:141,1,70,2|0,0:0|0:0,0:0:0:0:
216,168,92933,1,0,0:0:0:0:
216,168,93005,1,2,0:0:0:0:
128,228,93148,1,0,0:0:0:0:
224,276,93290,2,0,L|300:268,1,70,10|8,0:0|0:0,0:0:0:0:
408,200,93576,2,0,L|338:192,1,70,2|8,0:0|0:0,0:0:0:0:
472,268,93862,6,0,P|500:208|480:140,1,140,4|0,0:0|0:0,0:0:0:0:
400,104,94290,1,0,0:0:0:0:
389,322,94433,2,0,P|455:309|502:356,1,140,2|2,0:0|0:0,0:0:0:0:
304,344,94862,6,0,B|236:352|248:296|173:307,1,140,0|0,0:0|0:0,0:0:0:0:
88,364,95290,2,0,L|72:288,1,70,2|0,0:0|0:0,0:0:0:0:
144,156,95576,2,0,L|132:240,1,70,2|0,0:0|0:0,0:0:0:0:
51,123,95862,2,0,L|38:48,1,70,8|10,0:0|0:0,0:0:0:0:
240,27,96148,6,0,P|223:95|246:160,1,140,2|0,0:0|0:0,0:0:0:0:
313,223,96576,1,0,0:0:0:0:
408,95,96719,2,0,L|336:87,1,70,2|0,0:0|0:0,0:0:0:0:
295,251,97005,1,0,0:0:0:0:
486,160,97148,6,0,P|508:93|484:29,1,140,0|0,0:0|0:0,0:0:0:0:
384,220,97576,2,0,L|397:295,1,70,2|0,0:0|0:0,0:0:0:0:
280,144,97862,2,0,L|287:74,1,70,2|0,0:0|0:0,0:0:0:0:
216,256,98148,1,0,0:0:0:0:
216,256,98433,6,0,B|152:280|148:220|72:236,1,140,4|0,0:0|0:0,0:0:0:0:
92,324,98862,1,0,0:0:0:0:
276,327,99005,2,0,P|304:265|283:200,1,140,2|0,0:0|0:0,0:0:0:0:
212,152,99433,6,0,L|352:140,1,140,0|0,0:0|0:0,0:0:0:0:
448,180,99862,2,0,P|456:136|452:104,1,70,0|0,0:0|0:0,0:0:0:0:
308,232,100148,2,0,P|312:268|328:304,1,70,2|0,0:0|0:0,0:0:0:0:
400,356,100433,2,0,L|476:344,1,70,0|2,0:0|0:0,0:0:0:0:
248,356,100719,6,0,L|104:340,1,140,4|0,0:0|0:0,0:0:0:0:
24,276,101148,1,0,0:0:0:0:
123,178,101290,2,0,P|126:212|119:246,1,70,0|0,0:0|0:0,0:0:0:0:
24,276,101576,1,0,0:0:0:0:
64,103,101719,6,0,P|129:83|190:113,1,140,0|0,0:0|0:0,0:0:0:0:
272,172,102148,2,0,L|344:152,1,70,0|0,0:0|0:0,0:0:0:0:
208,248,102433,2,0,L|136:232,1,70,8|8,0:0|0:0,0:0:0:0:
284,316,102719,2,0,L|356:296,1,70,8|8,0:0|0:0,0:0:0:0:
440,344,103005,1,2,0:0:0:0:
256,192,103076,12,0,104719,0:0:0:0:
19,203,105290,6,0,B|98:220|71:256|157:267,1,154.000004699707,4|8,0:0|0:0,0:0:0:0:
254,212,105719,1,0,0:0:0:0:
168,81,105862,2,0,P|160:120|173:159,1,77.0000023498536,0|0,0:0|0:0,0:0:0:0:
346,52,106148,2,0,L|265:40,1,77.0000023498536,8|0,0:0|0:0,0:0:0:0:
174,265,106433,6,0,L|332:250,1,154.000004699707,0|8,0:0|0:0,0:0:0:0:
498,182,106862,2,0,P|424:190|364:145,1,154.000004699707,0|0,0:0|0:0,0:0:0:0:
452,87,107290,1,8,0:0:0:0:
452,87,107576,2,0,P|458:39|450:9,1,77.0000023498536,0|0,0:0|0:0,0:0:0:0:
259,138,107862,2,0,L|277:216,1,77.0000023498536,8|0,0:0|0:0,0:0:0:0:
303,303,108148,1,0,0:0:0:0:
385,238,108290,1,0,0:0:0:0:
276,325,108433,2,0,L|200:311,1,77.0000023498536,8|0,0:0|0:0,0:0:0:0:
70,220,108719,6,0,P|59:183|66:146,1,77.0000023498536,0|0,0:0|0:0,0:0:0:0:
207,19,109005,2,0,L|221:97,1,77.0000023498536,8|0,0:0|0:0,0:0:0:0:
245,196,109290,1,0,0:0:0:0:
332,131,109433,2,0,L|339:91,2,38.5000011749268,0|8|8,0:0|0:0|0:0,0:0:0:0:
230,220,109719,1,0,0:0:0:0:
348,267,109862,6,0,B|432:254|416:306|497:289,1,154.000004699707,0|12,0:0|0:0,0:0:0:0:
469,195,110290,1,0,0:0:0:0:
348,266,110433,2,0,L|363:343,1,77.0000023498536,0|0,0:0|0:0,0:0:0:0:
276,189,110719,2,0,L|293:109,1,77.0000023498536,8|0,0:0|0:0,0:0:0:0:
158,9,111005,6,0,L|183:166,1,154.000004699707,0|8,0:0|0:0,0:0:0:0:
254,300,111433,2,0,B|337:282|323:336|411:315,1,154.000004699707,0|0,0:0|0:0,0:0:0:0:
482,235,111862,2,0,P|488:197|481:157,1,77.0000023498536,8|0,0:0|0:0,0:0:0:0:
408,87,112148,5,0,0:0:0:0:
325,149,112290,1,0,0:0:0:0:
236,37,112433,2,0,L|316:28,1,77.0000023498536,12|0,0:0|0:0,0:0:0:0:
162,114,112719,2,0,L|85:103,1,77.0000023498536,0|0,0:0|0:0,0:0:0:0:
243,186,113005,2,0,L|323:177,1,77.0000023498536,8|0,0:0|0:0,0:0:0:0:
419,164,113290,5,0,0:0:0:0:
296,279,113433,1,0,0:0:0:0:
296,279,113504,1,8,0:0:0:0:
296,279,113576,1,8,0:0:0:0:
360,88,113719,1,0,0:0:0:0:
223,209,113862,2,0,L|237:131,1,77.0000023498536,8|8,0:0|0:0,0:0:0:0:
127,18,114148,2,0,L|142:97,1,77.0000023498536,8|8,0:0|0:0,0:0:0:0:
66,165,114433,6,0,P|37:233|64:303,2,154.000004699707,4|8|0,0:0|0:0|0:0,0:0:0:0:
193,232,115148,1,0,0:0:0:0:
193,232,115290,2,0,P|156:223|119:235,1,77.0000023498536,8|0,0:0|0:0,0:0:0:0:
260,295,115576,6,0,P|334:309|389:259,1,154.000004699707,4|8,0:0|0:0,0:0:0:0:
376,100,116005,1,0,0:0:0:0:
308,159,116148,2,0,P|299:196|308:233,1,77.0000023498536,0|0,0:0|0:0,0:0:0:0:
460,219,116433,2,0,P|465:182|453:145,1,77.0000023498536,8|0,0:0|0:0,0:0:0:0:
368,48,116719,6,0,L|292:55,1,77.0000023498536,4|0,0:0|0:0,0:0:0:0:
148,128,117005,2,0,L|224:120,1,77.0000023498536,8|0,0:0|0:0,0:0:0:0:
404,224,117290,2,0,B|368:244|328:224|328:224|308:264|271:267,1,154.000004699707,0|8,0:0|0:0,0:0:0:0:
256,192,117719,1,0,0:0:0:0:
440,147,117862,6,0,P|488:204|466:275,1,154.000004699707,0|8,0:0|0:0,0:0:0:0:
368,295,118290,2,0,P|321:239|342:169,1,154.000004699707,0|0,0:0|0:0,0:0:0:0:
372,84,118719,2,0,L|296:87,1,77.0000023498536,8|0,0:0|0:0,0:0:0:0:
35,168,119005,6,0,P|87:220|160:208,1,154.000004699707,4|8,0:0|0:0,0:0:0:0:
112,140,119433,1,0,0:0:0:0:
233,245,119576,2,0,P|244:209|237:172,1,77.0000023498536,0|0,0:0|0:0,0:0:0:0:
208,23,119862,2,0,P|191:57|188:95,1,77.0000023498536,8|0,0:0|0:0,0:0:0:0:
424,72,120148,6,0,L|271:79,1,154.000004699707,0|8,0:0|0:0,0:0:0:0:
271,80,120576,1,0,0:0:0:0:
301,167,120719,2,0,L|312:244,1,77.0000023498536,0|0,0:0|0:0,0:0:0:0:
209,333,121005,2,0,L|220:256,1,77.0000023498536,8|0,0:0|0:0,0:0:0:0:
288,364,121290,5,4,0:0:0:0:
124,280,121433,1,0,0:0:0:0:
312,271,121576,2,0,P|350:263|384:279,1,77.0000023498536,8|0,0:0|0:0,0:0:0:0:
464,336,121862,2,0,B|492:296|472:244|472:244|482:187,1,154.000004699707,0|8,0:0|0:0,0:0:0:0:
416,96,122290,1,0,0:0:0:0:
268,200,122433,6,0,L|345:207,1,77.0000023498536,0|0,0:0|0:0,0:0:0:0:
345,208,122648,1,0,0:0:0:0:
345,208,122719,1,8,0:0:0:0:
400,64,122862,1,0,0:0:0:0:
248,100,123005,2,0,L|172:107,1,77.0000023498536,0|0,0:0|0:0,0:0:0:0:
68,28,123290,1,0,0:0:0:0:
104,264,123576,5,4,0:0:0:0:
60,96,132719,6,0,L|68:152,1,52.5000020027161,0|0,0:0|0:0,0:0:0:0:
156,212,133005,2,0,L|168:156,1,52.5000020027161,0|0,0:0|0:0,0:0:0:0:
72,240,133290,1,0,0:0:0:0:
136,296,133433,1,0,0:0:0:0:
216,276,133576,1,0,0:0:0:0:
240,192,133719,1,0,0:0:0:0:
276,344,133862,6,0,L|336:336,1,52.5000020027161,0|0,0:0|0:0,0:0:0:0:
380,264,134148,1,0,0:0:0:0:
492,328,134290,2,0,P|504:272|488:224,1,105.000004005432,0|0,0:0|0:0,0:0:0:0:
432,160,134719,2,0,L|372:168,1,52.5000020027161,0|0,0:0|0:0,0:0:0:0:
320,232,135005,5,0,0:0:0:0:
236,192,135148,1,0,0:0:0:0:
224,100,135290,1,0,0:0:0:0:
176,264,135433,1,0,0:0:0:0:
96,184,135576,2,0,L|156:180,1,52.5000020027161,0|0,0:0|0:0,0:0:0:0:
316,268,135862,2,0,L|264:272,1,52.5000020027161,0|0,0:0|0:0,0:0:0:0:
56,256,136148,6,0,P|24:228|24:156,1,105.000004005432,0|0,0:0|0:0,0:0:0:0:
106,79,136576,2,0,L|95:183,1,105.000004005432,0|0,0:0|0:0,0:0:0:0:
104,332,137005,2,0,L|160:324,1,52.5000020027161,0|0,0:0|0:0,0:0:0:0:
224,260,137290,6,0,L|216:200,2,52.5000020027161,0|0|0,0:0|0:0|0:0,0:0:0:0:
272,344,137719,1,0,0:0:0:0:
320,256,137862,2,0,L|380:248,1,52.5000020027161,0|0,0:0|0:0,0:0:0:0:
468,336,138148,2,0,L|416:328,1,52.5000020027161,0|0,0:0|0:0,0:0:0:0:
460,240,138433,6,0,P|476:192|468:136,1,105.000004005432,0|0,0:0|0:0,0:0:0:0:
408,80,138862,2,0,L|304:88,1,105.000004005432,0|0,0:0|0:0,0:0:0:0:
216,132,139290,2,0,L|208:76,1,52.5000020027161,0|0,0:0|0:0,0:0:0:0:
304,180,139576,6,0,L|288:284,1,105.000004005432,0|0,0:0|0:0,0:0:0:0:
196,356,140005,2,0,L|172:244,1,105.000004005432,0|0,0:0|0:0,0:0:0:0:
88,196,140433,2,0,L|80:248,1,52.5000020027161,0|0,0:0|0:0,0:0:0:0:
175,168,140719,6,0,P|194:119|184:69,1,105.000004005432,0|0,0:0|0:0,0:0:0:0:
116,112,141148,1,0,0:0:0:0:
256,176,141290,2,0,L|312:168,1,52.5000020027161,0|0,0:0|0:0,0:0:0:0:
376,224,141576,1,0,0:0:0:0:
376,224,141719,1,0,0:0:0:0:
488,96,141862,6,0,P|448:44|376:48,1,140,12|0,0:0|0:0,0:0:0:0:
312,108,142290,1,0,0:0:0:0:
400,200,142433,2,0,L|412:128,1,70,8|0,0:0|0:0,0:0:0:0:
352,280,142719,2,0,L|363:349,1,70,0|0,0:0|0:0,0:0:0:0:
236,220,143005,6,0,B|168:196|168:252|92:228,1,140,0|0,0:0|0:0,0:0:0:0:
16,176,143433,2,0,L|28:320,1,140,0|0,0:0|0:0,0:0:0:0:
100,140,143862,2,0,P|84:108|55:89,1,70,0|0,0:0|0:0,0:0:0:0:
160,44,144148,6,0,B|196:72|196:72|296:60,1,140,0|0,0:0|0:0,0:0:0:0:
364,120,144576,1,0,0:0:0:0:
452,52,144719,2,0,P|416:40|384:24,1,70,8|0,0:0|0:0,0:0:0:0:
224,184,145005,2,0,P|264:176|304:172,1,70,0|0,0:0|0:0,0:0:0:0:
396,200,145290,5,0,0:0:0:0:
460,272,145433,1,0,0:0:0:0:
484,188,145576,1,0,0:0:0:0:
372,292,145719,2,0,L|232:280,1,140,0|0,0:0|0:0,0:0:0:0:
136,256,146148,2,0,L|144:332,1,70,0|0,0:0|0:0,0:0:0:0:
212,196,146433,6,0,L|224:128,1,70,0|0,0:0|0:0,0:0:0:0:
128,44,146719,2,0,L|136:116,1,70,0|0,0:0|0:0,0:0:0:0:
304,172,147005,2,0,B|372:148|372:200|440:176,1,140,8|0,0:0|0:0,0:0:0:0:
408,100,147433,1,0,0:0:0:0:
331,256,147576,6,0,P|264:256|220:205,1,140,0|0,0:0|0:0,0:0:0:0:
184,128,148005,2,0,L|172:272,1,140,0|0,0:0|0:0,0:0:0:0:
108,340,148433,2,0,L|36:332,1,70,0|0,0:0|0:0,0:0:0:0:
256,192,148719,12,4,151005,0:0:0:0:
256,192,157862,12,8,159862,0:0:0:0:
204,220,160148,6,0,B|118:247|118:167|32:192,1,181.999991668702,4|12,0:0|0:0,0:0:0:0:
60,276,160576,1,0,0:0:0:0:
172,140,160719,2,0,L|160:48,1,90.9999958343508,0|0,0:0|0:0,0:0:0:0:
236,216,161005,2,0,L|224:306,1,90.9999958343508,8|0,0:0|0:0,0:0:0:0:
328,107,161290,6,0,P|392:93|446:132,1,136.499993751526,0|0,0:0|0:0,0:0:0:0:
460,168,161576,1,8,0:0:0:0:
288,196,161719,2,0,P|235:126|261:42,1,181.999991668702,0|0,0:0|0:0,0:0:0:0:
376,188,162148,2,0,L|364:284,1,90.9999958343508,8|0,0:0|0:0,0:0:0:0:
292,352,162433,6,0,L|200:340,1,90.9999958343508,0|0,0:0|0:0,0:0:0:0:
96,236,162719,2,0,L|188:224,1,90.9999958343508,8|0,0:0|0:0,0:0:0:0:
260,168,163005,2,0,P|276:212|272:260,1,90.9999958343508,0|0,0:0|0:0,0:0:0:0:
28,292,163290,2,0,P|12:248|16:200,1,90.9999958343508,8|0,0:0|0:0,0:0:0:0:
64,104,163576,6,0,B|104:84|152:108|152:108|172:64|228:60,1,181.999991668702,0|8,0:0|0:0,0:0:0:0:
376,219,164005,2,0,P|289:220|244:146,1,181.999991668702,0|0,0:0|0:0,0:0:0:0:
244,146,164362,1,0,0:0:0:0:
244,146,164433,1,8,0:0:0:0:
336,52,164576,1,0,0:0:0:0:
336,52,164719,6,0,L|332:144,1,90.9999958343508,0|0,0:0|0:0,0:0:0:0:
424,288,165005,2,0,L|420:197,1,90.9999958343508,12|0,0:0|0:0,0:0:0:0:
248,288,165290,2,0,P|208:308|156:296,1,90.9999958343508,0|0,0:0|0:0,0:0:0:0:
24,200,165576,2,0,L|120:184,1,90.9999958343508,8|0,0:0|0:0,0:0:0:0:
272,32,165862,6,0,B|240:64|240:64|260:200,1,181.999991668702,4|8,0:0|0:0,0:0:0:0:
355,347,166290,2,0,P|442:355|491:284,1,181.999991668702,0|0,0:0|0:0,0:0:0:0:
388,188,166719,2,0,L|408:292,1,90.9999958343508,8|0,0:0|0:0,0:0:0:0:
455,135,167005,6,0,P|422:106|378:104,1,90.9999958343508,4|0,0:0|0:0,0:0:0:0:
196,216,167290,2,0,P|229:245|273:247,1,90.9999958343508,8|0,0:0|0:0,0:0:0:0:
176,132,167576,2,0,P|136:152|112:196,1,90.9999958343508,0|0,0:0|0:0,0:0:0:0:
260,156,167862,2,0,P|264:108|240:68,1,90.9999958343508,8|0,0:0|0:0,0:0:0:0:
20,128,168148,6,0,L|36:224,1,90.9999958343508,0|0,0:0|0:0,0:0:0:0:
24,244,168362,1,0,0:0:0:0:
24,244,168433,1,8,0:0:0:0:
88,336,168576,1,0,0:0:0:0:
260,228,168719,2,0,B|216:216|216:216|172:228,1,90.9999958343508,0|0,0:0|0:0,0:0:0:0:
144,256,168933,1,0,0:0:0:0:
144,256,169005,2,0,L|132:160,1,90.9999958343508,8|0,0:0|0:0,0:0:0:0:
208,72,169290,6,0,B|292:44|296:112|388:80,2,181.999991668702,0|12|0,0:0|0:0|0:0,0:0:0:0:
136,24,170005,1,0,0:0:0:0:
200,160,170148,1,8,0:0:0:0:
68,84,170290,1,0,0:0:0:0:
108,172,170433,2,0,L|128:264,1,90.9999958343508,4|0,0:0|0:0,0:0:0:0:
64,344,170719,1,8,0:0:0:0:
232,348,170862,2,0,L|248:160,1,181.999991668702,0|0,0:0|0:0,0:0:0:0:
184,104,171290,1,8,0:0:0:0:
332,232,171433,1,0,0:0:0:0:
436,128,171576,6,0,L|336:120,1,90.9999958343508,4|0,0:0|0:0,0:0:0:0:
56,188,171862,2,0,L|146:195,1,90.9999958343508,8|0,0:0|0:0,0:0:0:0:
200,72,172148,1,0,0:0:0:0:
200,72,172290,1,0,0:0:0:0:
188,296,172433,2,0,L|284:284,1,90.9999958343508,8|0,0:0|0:0,0:0:0:0:
352,360,172719,6,0,P|392:279|375:191,1,181.999991668702,4|8,0:0|0:0,0:0:0:0:
136,191,173148,2,0,P|119:279|160:360,1,181.999991668702,0|0,0:0|0:0,0:0:0:0:
159,359,173505,1,0,0:0:0:0:
159,359,173576,1,12,0:0:0:0:
256,156,173719,1,0,0:0:0:0:
176,96,173862,6,0,L|76:104,1,90.9999958343508,0|0,0:0|0:0,0:0:0:0:
356,212,174148,2,0,L|446:204,1,90.9999958343508,12|4,0:0|0:0,0:0:0:0:
396,116,174433,1,0,0:0:0:0:
416,304,174576,1,0,0:0:0:0:
264,240,174719,2,0,L|256:144,1,90.9999958343508,12|0,0:0|0:0,0:0:0:0:
200,56,175005,6,0,L|60:76,1,136.499993751526,0|0,0:0|0:0,0:0:0:0:
36,48,175290,1,12,0:0:0:0:
55,320,175433,2,0,P|125:265|127:177,1,181.999991668702,0|0,0:0|0:0,0:0:0:0:
48,224,175862,1,12,0:0:0:0:
200,312,176005,1,0,0:0:0:0:
320,192,176148,6,0,L|220:184,1,90.9999958343508,4|0,0:0|0:0,0:0:0:0:
396,264,176433,2,0,L|496:256,1,90.9999958343508,8|0,0:0|0:0,0:0:0:0:
396,80,176719,2,0,L|408:180,1,90.9999958343508,0|0,0:0|0:0,0:0:0:0:
296,368,177005,2,0,L|306:277,1,90.9999958343508,8|0,0:0|0:0,0:0:0:0:
212,144,177290,6,0,P|168:136|128:156,1,90.9999958343508,8|0,0:0|0:0,0:0:0:0:
108,184,177505,1,0,0:0:0:0:
100,216,177576,1,8,0:0:0:0:
136,312,177719,1,0,0:0:0:0:
296,175,177862,2,0,P|304:131|286:90,1,90.9999958343508,8|8,0:0|0:0,0:0:0:0:
232,252,178148,2,0,P|223:296|241:337,1,90.9999958343508,8|8,0:0|0:0,0:0:0:0:
472,328,178433,6,0,P|412:268|312:284,1,181.999991668702,12|8,0:0|0:0,0:0:0:0:
321,277,178862,1,0,0:0:0:0:
144,336,179005,2,0,L|48:328,1,90.9999958343508,8|0,0:0|0:0,0:0:0:0:
0,192,179290,2,0,L|90:184,1,90.9999958343508,8|0,0:0|0:0,0:0:0:0:
248,248,179576,6,0,P|272:156|248:72,1,181.999991668702,0|8,0:0|0:0,0:0:0:0:
152,20,180005,1,0,0:0:0:0:
96,164,180148,2,0,L|192:156,1,90.9999958343508,0|0,0:0|0:0,0:0:0:0:
434,216,180433,2,0,L|344:224,1,90.9999958343508,8|0,0:0|0:0,0:0:0:0:
288,300,180719,5,4,0:0:0:0:
288,300,180862,1,0,0:0:0:0:
280,160,181005,2,0,L|264:68,1,90.9999958343508,8|0,0:0|0:0,0:0:0:0:
360,96,181290,1,0,0:0:0:0:
360,96,181433,1,0,0:0:0:0:
192,132,181576,2,0,P|152:140|104:128,1,90.9999958343508,8|0,0:0|0:0,0:0:0:0:
4,56,181862,2,0,L|24:196,1,136.499993751526,0|0,0:0|0:0,0:0:0:0:
8,228,182148,1,8,0:0:0:0:
68,336,182290,1,0,0:0:0:0:
183,296,182433,6,0,P|227:287|267:307,1,90.9999958343508,0|0,0:0|0:0,0:0:0:0:
304,348,182648,1,0,0:0:0:0:
304,348,182719,2,0,L|312:256,1,90.9999958343508,8|0,0:0|0:0,0:0:0:0:
356,160,183005,2,0,B|444:144|444:144|516:204,2,181.999991668702,12|8|8,0:0|0:0|0:0,0:0:0:0:
268,188,183719,1,0,0:0:0:0:
176,216,183862,2,0,L|156:124,1,90.9999958343508,8|0,0:0|0:0,0:0:0:0:
68,44,184148,6,0,L|44:224,1,181.999991668702,0|8,0:0|0:0,0:0:0:0:
100,312,184576,1,0,0:0:0:0:
208,236,184719,2,0,P|252:228|296:248,1,90.9999958343508,0|0,0:0|0:0,0:0:0:0:
462,332,185005,2,0,L|372:344,1,90.9999958343508,8|0,0:0|0:0,0:0:0:0:
396,244,185290,6,0,L|384:140,1,90.9999958343508,4|0,0:0|0:0,0:0:0:0:
288,28,185576,2,0,L|276:120,1,90.9999958343508,8|0,0:0|0:0,0:0:0:0:
200,200,185862,2,0,P|156:204|116:180,1,90.9999958343508,0|0,0:0|0:0,0:0:0:0:
20,132,186148,2,0,L|0:224,1,90.9999958343508,8|0,0:0|0:0,0:0:0:0:
56,356,186433,2,0,P|108:312|176:320,1,136.499993751526,8|0,0:0|0:0,0:0:0:0:
208,344,186719,1,8,0:0:0:0:
316,336,186862,2,0,L|300:144,1,181.999991668702,0|0,0:0|0:0,0:0:0:0:
376,80,187290,2,0,P|420:72|464:96,1,90.9999958343508,8|0,0:0|0:0,0:0:0:0:
212,199,187576,6,0,P|125:207|79:134,1,181.999991668702,4|8,0:0|0:0,0:0:0:0:
164,132,188005,1,0,0:0:0:0:
252,124,188148,2,0,P|284:160|296:208,1,90.9999958343508,0|0,0:0|0:0,0:0:0:0:
388,288,188433,2,0,L|404:192,1,90.9999958343508,8|0,0:0|0:0,0:0:0:0:
232,284,188719,6,0,P|145:274|88:341,1,181.999991668702,0|8,0:0|0:0,0:0:0:0:
176,352,189148,1,0,0:0:0:0:
304,344,189290,2,0,P|320:300|312:256,1,90.9999958343508,0|0,0:0|0:0,0:0:0:0:
204,84,189576,2,0,P|188:126|195:170,1,90.9999958343508,8|0,0:0|0:0,0:0:0:0:
344,171,189862,6,0,P|388:162|431:173,2,90.9999958343508,4|0|8,0:0|0:0|0:0,0:0:0:0:
156,247,190290,1,0,0:0:0:0:
156,247,190433,2,0,P|69:256|20:184,1,181.999991668702,0|8,0:0|0:0,0:0:0:0:
104,176,190862,1,0,0:0:0:0:
216,36,191005,6,0,B|260:16|260:16|240:152,1,181.999991668702,0|8,0:0|0:0,0:0:0:0:
284,248,191433,2,0,L|384:240,1,90.9999958343508,0|0,0:0|0:0,0:0:0:0:
452,304,191719,2,0,L|440:356,2,45.4999979171754,0|0|0,0:0|0:0|0:0,0:0:0:0:
432,156,192005,1,0,0:0:0:0:
264,283,192148,6,0,P|178:297|128:227,2,181.999991668702,0|8|0,0:0|0:0|0:0,0:0:0:0:
340,132,192862,1,0,0:0:0:0:
416,188,193005,2,0,L|408:288,1,90.9999958343508,8|0,0:0|0:0,0:0:0:0:
388,52,193290,2,0,B|340:84|340:84|204:72,1,181.999991668702,0|8,0:0|0:0,0:0:0:0:
136,24,193719,1,0,0:0:0:0:
32,132,193862,2,0,L|40:228,1,90.9999958343508,0|0,0:0|0:0,0:0:0:0:
200,316,194148,2,0,L|212:216,1,90.9999958343508,8|0,0:0|0:0,0:0:0:0:
324,152,194433,6,0,B|392:175|392:175|417:203|417:203|487:227,1,181.999991668702,4|8,0:0|0:0,0:0:0:0:
479,137,194862,1,0,0:0:0:0:
324,256,195005,2,0,P|331:298|322:345,1,90.9999958343508,0|0,0:0|0:0,0:0:0:0:
230,147,195290,2,0,L|244:57,1,90.9999958343508,8|0,0:0|0:0,0:0:0:0:
139,85,195577,1,0,0:0:0:0:
165,229,195719,2,0,L|177:277,2,45.4999979171754,0|0|8,0:0|0:0|0:0,0:0:0:0:
133,58,196005,1,0,0:0:0:0:
26,174,196148,1,6,0:0:0:0:
26,174,196719,6,0,L|142:162,1,105.000004005432,2|0,0:0|0:0,0:0:0:0:
298,159,197290,2,0,P|314:111|296:62,1,105.000004005432,0|2,0:0|0:0,0:0:0:0:
218,192,197719,2,0,P|252:230|303:240,1,105.000004005432,0|0,0:0|0:0,0:0:0:0:
378,204,198148,2,0,L|386:140,1,52.5000020027161,0|0,0:0|0:0,0:0:0:0:
356,340,199005,6,0,L|244:348,1,105.000004005432,2|0,0:0|0:0,0:0:0:0:
176,304,199433,2,0,P|156:256|168:204,1,105.000004005432,2|0,0:0|0:0,0:0:0:0:
228,140,199862,1,0,0:0:0:0:
336,228,200005,2,0,P|296:256|236:248,1,105.000004005432,2|0,0:0|0:0,0:0:0:0:
360,152,200433,2,0,P|383:163|400:183,1,52.5000020027161,0|0,0:0|0:0,0:0:0:0:
488,352,201290,6,0,L|500:232,1,105.000004005432,2|0,0:0|0:0,0:0:0:0:
448,176,201719,1,2,0:0:0:0:
367,296,201862,2,0,P|320:314|274:290,1,105.000004005432,0|2,0:0|0:0,0:0:0:0:
192,252,202290,2,0,L|208:368,1,105.000004005432,0|0,0:0|0:0,0:0:0:0:
268,212,202719,2,0,L|272:156,1,52.5000020027161,0|0,0:0|0:0,0:0:0:0:
40,68,203433,5,0,0:0:0:0:
112,119,203576,2,0,P|128:70|114:20,1,105.000004005432,2|0,0:0|0:0,0:0:0:0:
32,152,204005,2,0,P|63:192|113:204,1,105.000004005432,2|2,0:0|0:0,0:0:0:0:
240,172,204433,2,0,L|180:168,1,52.5000020027161,0|0,0:0|0:0,0:0:0:0:
172,312,204719,5,0,0:0:0:0:
256,268,204862,1,2,0:0:0:0:
340,322,205005,1,2,0:0:0:0:
419,272,205148,1,2,0:0:0:0:
