osu file format v14

[General]
AudioFilename: Ghost Rule.mp3
AudioLeadIn: 0
PreviewTime: 48076
Countdown: 0
SampleSet: Normal
StackLeniency: 0.7
Mode: 0
LetterboxInBreaks: 0
WidescreenStoryboard: 0

[Editor]
Bookmarks: 48148,66433,84719,93862,105290,114433,123576,151005,178290
DistanceSpacing: 1.3
BeatDivisor: 4
GridSize: 32
TimelineZoom: 2

[Metadata]
Title:Ghost Rule
TitleUnicode:ゴーストルール
Artist:DECO*27
ArtistUnicode:DECO*27
Creator:Awaken
Version:Flask's Extra
Source:
Tags:ボーカロイド vocaloid Naoki Itai MUSIC FOR MUSIC Regraz Mafumafu Evil_Twilight HabiHolic Flask Nasya N_a_s_y_a caren_sk val0108 z1085684963 hatsune miku 初音ミク japanese novelty
BeatmapID:2174442
BeatmapSetID:413117

[Difficulty]
HPDrainRate:7
CircleSize:4
OverallDifficulty:8
ApproachRate:9
SliderMultiplier:1.6
SliderTickRate:1

[Events]
//Background and Video events
0,0,"Ghost.jpg",0,0
//Break Periods
2,66633,74976
2,123775,132119
2,151204,156976
//Storyboard Layer 0 (Background)
//Storyboard Layer 1 (Fail)
//Storyboard Layer 2 (Pass)
//Storyboard Layer 3 (Foreground)
//Storyboard Layer 4 (Overlay)
//Storyboard Sound Samples

[TimingPoints]
148,285.714285714286,4,1,1,50,1,0
9290,-83.3333333333333,4,1,1,50,0,0
9576,-100,4,1,1,50,0,0
10148,-66.6666666666667,4,1,1,50,0,0
10433,-100,4,1,1,50,0,0
11290,-66.6666666666667,4,1,1,50,0,0
11576,-100,4,1,1,50,0,0
12433,-66.6666666666667,4,1,1,50,0,0
12719,-100,4,1,1,50,0,0
13576,-66.6666666666667,4,1,1,50,0,0
13862,-83.3333333333333,4,1,1,50,0,0
14433,-100,4,1,1,50,0,0
15576,-83.3333333333333,4,1,1,50,0,0
15790,-66.6666666666667,4,1,1,50,0,0
16719,-83.3333333333333,4,1,1,50,0,0
17005,-66.6666666666667,4,1,1,50,0,0
18433,-66.6666666666667,4,1,1,50,0,0
18719,-100,4,1,1,50,0,0
22719,-83.3333333333333,4,1,1,50,0,0
23005,-66.6666666666667,4,1,1,50,0,0
23290,-100,4,1,1,50,0,0
27005,-83.3333333333333,4,1,1,50,0,0
27576,-66.6666666666667,4,1,1,50,0,0
27862,-100,4,1,1,50,0,0
32148,-66.6666666666667,4,1,1,50,0,0
32433,-100,4,1,1,50,0,0
36719,-200,4,1,1,50,0,0
37576,-66.6666666666667,4,1,1,50,0,0
38719,-100,4,1,1,50,0,0
39862,-66.6666666666667,4,1,1,50,0,0
40148,-100,4,1,1,50,0,0
41290,-83.3333333333333,4,1,1,50,0,0
42148,-66.6666666666667,4,1,1,50,0,0
42433,-100,4,1,1,50,0,0
43576,-83.3333333333333,4,1,1,50,0,0
44433,-66.6666666666667,4,1,1,50,0,0
45862,-200,4,1,1,50,0,0
47576,-111.111111111111,4,1,1,50,0,0
48148,-83.3333333333333,4,1,1,80,0,0
48576,-83.3333333333333,4,1,1,80,0,0
49290,-66.6666666666667,4,1,1,80,0,0
50148,-83.3333333333333,4,1,1,80,0,0
52719,-83.3333333333333,4,1,1,80,0,0
53148,-83.3333333333333,4,1,1,80,0,0
53862,-66.6666666666667,4,1,1,80,0,0
54719,-83.3333333333333,4,1,1,80,0,0
57005,-83.3333333333333,4,1,1,80,0,0
58862,-83.3333333333333,4,1,1,80,0,0
66148,-83.3333333333333,4,1,1,50,0,0
75576,-200,4,1,1,40,0,0
84005,-133.333333333333,4,1,1,40,0,0
84719,-66.6666666666667,4,1,1,50,0,0
85005,-100,4,1,1,50,0,0
89290,-66.6666666666667,4,1,1,50,0,0
89576,-100,4,1,1,50,0,0
93862,-100,4,1,1,50,0,0
94719,-66.6666666666667,4,1,1,50,0,0
95005,-100,4,1,1,50,0,0
96148,-83.3333333333333,4,1,1,50,0,0
97005,-66.6666666666667,4,1,1,50,0,0
98290,-100,4,1,1,50,0,0
99290,-66.6666666666667,4,1,1,50,0,0
99576,-100,4,1,1,50,0,0
100148,-83.3333333333333,4,1,1,50,0,0
100576,-100,4,1,1,50,0,0
101576,-66.6666666666667,4,1,1,50,0,0
103005,-200,4,1,1,50,0,0
105005,-111.111111111111,4,1,1,50,0,0
105290,-83.3333333333333,4,1,1,80,0,0
105862,-83.3333333333333,4,1,1,80,0,0
109862,-83.3333333333333,4,1,1,80,0,0
110433,-83.3333333333333,4,1,1,80,0,0
114148,-83.3333333333333,4,1,1,80,0,0
114433,-83.3333333333333,4,1,1,80,0,0
123076,-83.3333333333333,4,1,1,5,0,0
123290,-83.3333333333333,4,1,1,50,0,0
132719,-125,4,1,1,40,0,0
141862,-100,4,1,1,50,0,0
157576,-200,4,1,1,50,0,0
159719,-66.6666666666667,4,1,1,50,0,0
160148,-83.3333333333333,4,1,1,80,0,0
164719,-83.3333333333333,4,1,1,80,0,0
165148,-83.3333333333333,4,1,1,80,0,0
168719,-66.6666666666667,4,1,1,80,0,0
169290,-71.4285714285714,4,1,1,80,0,0
173862,-62.5,4,1,1,80,0,0
178433,-83.3333333333333,4,1,1,80,0,0
191005,-83.3333333333333,4,1,1,80,0,0
196719,-125,4,2,1,30,0,0

[Colours]
Combo1 : 255,40,40
Combo2 : 114,231,120
Combo3 : 78,210,214
Combo4 : 29,131,214
Combo5 : 255,0,0

[HitObjects]
69,63,8290,5,0,0:0:0:0:
165,37,8433,2,0,P|203:85|184:145,1,120,8|0,0:0|0:0,0:0:0:0:
151,239,8719,2,0,L|140:151,1,80,8|0,0:0|0:0,0:0:0:0:
346,60,9005,2,0,L|362:198,1,120,8|0,0:0|0:0,0:0:0:0:
389,204,9290,6,0,P|414:210|453:208,1,47.9999985351563,4|0,0:0|0:0,0:0:0:0:
500,159,9433,1,0,0:0:0:0:
353,311,9576,2,0,P|321:337|277:340,1,80,0|0,0:0|0:0,0:0:0:0:
422,126,9862,1,8,0:0:0:0:
466,304,10005,1,0,0:0:0:0:
276,232,10148,2,0,B|229:218|181:250|181:250|134:277|81:253,1,180.000006866455
94,259,10433,5,0,0:0:0:0:
0,133,10576,1,0,0:0:0:0:
142,29,10719,2,0,L|157:116,1,80,0|0,0:0|0:0,0:0:0:0:
383,341,11005,2,0,B|395:284|395:284|406:268|406:268|419:208,1,120,8|0,0:0|0:0,0:0:0:0:
434,135,11290,2,0,P|377:137|332:184,1,120.000004577637,0|0,0:0|0:0,0:0:0:0:
218,353,11576,37,0,0:0:0:0:
218,353,11648,1,0,0:0:0:0:
218,353,11719,1,0,0:0:0:0:
334,179,11862,1,0,0:0:0:0:
502,345,12005,1,0,0:0:0:0:
260,250,12148,2,0,B|217:242|217:242|168:253,1,80,8|0,0:0|0:0,0:0:0:0:
1,362,12433,2,0,B|13:224|13:224|1:176,1,180.000006866455,0|0,0:0|0:0,0:0:0:0:
0,176,12719,5,0,0:0:0:0:
162,68,12862,1,0,0:0:0:0:
165,258,13005,1,0,0:0:0:0:
166,269,13076,1,0,0:0:0:0:
166,281,13148,2,0,L|115:290,1,40,0|0,0:0|0:0,0:0:0:0:
99,160,13290,1,8,0:0:0:0:
233,362,13433,1,0,0:0:0:0:
331,45,13576,2,0,B|322:67|329:91|329:91|313:112|313:112|325:165|285:220,1,180.000006866455,0|0,0:0|0:0,0:0:0:0:
230,168,13862,6,0,P|246:153|276:143,1,47.9999985351563,0|0,0:0|0:0,0:0:0:0:
348,166,14005,1,0,0:0:0:0:
166,250,14148,1,0,0:0:0:0:
193,55,14290,1,0,0:0:0:0:
418,234,14433,2,0,L|506:242,1,80,8|0,0:0|0:0,0:0:0:0:
264,356,14719,1,0,0:0:0:0:
276,158,14862,1,0,0:0:0:0:
264,356,15005,38,0,P|182:351|128:345,1,120,0|0,0:0|0:0,0:0:0:0:
104,366,15290,2,0,L|98:313,1,40,0|0,0:0|0:0,0:0:0:0:
324,287,15433,2,0,L|334:247,1,40,0|0,0:0|0:0,0:0:0:0:
114,116,15576,2,0,P|70:105|20:140,1,95.9999970703126,8|0,0:0|0:0,0:0:0:0:
16,170,15790,2,0,P|67:124|10:39,1,180.000006866455,0|0,0:0|0:0,0:0:0:0:
211,172,16148,5,0,0:0:0:0:
40,275,16290,1,0,0:0:0:0:
27,281,16362,1,0,0:0:0:0:
15,287,16433,1,0,0:0:0:0:
112,85,16576,1,0,0:0:0:0:
178,303,16719,2,0,L|235:299,1,47.9999985351563,8|0,0:0|0:0,0:0:0:0:
316,345,16862,2,0,L|368:342,1,47.9999985351563,0|0,0:0|0:0,0:0:0:0:
459,382,17005,2,0,P|471:344|438:266,1,120.000004577637,0|0,0:0|0:0,0:0:0:0:
444,271,17219,1,0,0:0:0:0:
444,271,17290,5,8,0:0:0:0:
334,89,17433,1,8,0:0:0:0:
286,244,17576,1,8,0:0:0:0:
492,129,17719,1,8,0:0:0:0:
194,139,17862,1,8,0:0:0:0:
397,193,18005,1,8,0:0:0:0:
251,340,18148,1,8,0:0:0:0:
289,48,18290,1,8,0:0:0:0:
51,168,18433,6,0,P|14:248|64:320,1,180.000006866455,4|0,0:0|0:0,0:0:0:0:
138,344,18719,38,0,L|233:339,1,80,8|0,0:0|0:0,0:0:0:0:
310,102,19005,2,0,L|215:107,1,80,0|0,0:0|0:0,0:0:0:0:
138,344,19290,1,8,0:0:0:0:
237,236,19433,2,0,P|272:223|316:231,1,80,0|0,0:0|0:0,0:0:0:0:
448,335,19719,1,0,0:0:0:0:
280,308,19862,2,0,B|277:236|277:236|271:222|271:222|264:129,1,160,8|0,0:0|0:0,0:0:0:0:
397,45,20290,1,0,0:0:0:0:
378,164,20433,1,8,0:0:0:0:
283,34,20576,1,0,0:0:0:0:
378,164,20719,6,0,L|392:250,1,80,0|0,0:0|0:0,0:0:0:0:
312,12,21005,1,8,0:0:0:0:
199,125,21148,2,0,L|155:207,1,80,0|0,0:0|0:0,0:0:0:0:
427,59,21433,1,0,0:0:0:0:
276,218,21576,2,0,L|288:354,1,120,8|0,0:0|0:0,0:0:0:0:
290,366,21862,37,0,0:0:0:0:
290,366,22005,1,0,0:0:0:0:
170,175,22148,1,8,0:0:0:0:
170,175,22290,1,0,0:0:0:0:
134,316,22433,1,0,0:0:0:0:
304,222,22576,1,0,0:0:0:0:
153,71,22719,2,0,P|94:88|66:174,1,143.999995605469,8|0,0:0|0:0,0:0:0:0:
103,221,23005,38,0,P|135:162|53:88,1,180.000006866455,4|0,0:0|0:0,0:0:0:0:
63,160,23290,38,0,L|164:147,1,80,8|0,0:0|0:0,0:0:0:0:
283,305,23576,2,0,P|289:345|277:395,1,80,0|0,0:0|0:0,0:0:0:0:
125,290,23862,1,8,0:0:0:0:
328,169,24005,2,0,P|365:183|402:219,1,80,0|0,0:0|0:0,0:0:0:0:
160,97,24290,1,0,0:0:0:0:
230,313,24433,1,8,0:0:0:0:
259,98,24576,2,0,L|271:19,1,80,0|0,0:0|0:0,0:0:0:0:
55,232,24862,1,0,0:0:0:0:
215,254,25005,1,8,0:0:0:0:
160,97,25148,1,0,0:0:0:0:
141,182,25290,6,0,P|221:179|315:174,1,160,0|8,0:0|0:0,0:0:0:0:
427,131,25719,2,0,B|435:175|435:175|424:222,1,80,0|0,0:0|0:0,0:0:0:0:
252,351,26005,2,0,B|244:307|244:307|255:260,1,80,0|8,0:0|0:0,0:0:0:0:
289,95,26290,1,0,0:0:0:0:
368,311,26433,1,0,0:0:0:0:
174,207,26576,1,0,0:0:0:0:
295,189,26719,1,8,0:0:0:0:
139,337,26862,1,0,0:0:0:0:
68,137,27005,22,0,L|73:77,1,47.9999985351563,0|0,0:0|0:0,0:0:0:0:
197,36,27148,2,0,L|192:96,1,47.9999985351563,0|0,0:0|0:0,0:0:0:0:
276,179,27290,2,0,B|320:199|320:199|381:192|402:135,1,143.999995605469,12|0,0:0|0:0,0:0:0:0:
361,83,27576,54,0,P|435:167|494:138,1,180.000006866455,4|0,0:0|0:0,0:0:0:0:
412,29,27862,22,0,L|319:17,1,80,8|0,0:0|0:0,0:0:0:0:
186,219,28148,2,0,L|277:233,1,80,0|0,0:0|0:0,0:0:0:0:
361,133,28433,1,8,0:0:0:0:
225,54,28576,1,0,0:0:0:0:
102,148,28719,2,0,P|86:189|91:243,1,80,0|0,0:0|0:0,0:0:0:0:
276,383,29005,2,0,P|292:342|287:288,1,80,8|0,0:0|0:0,0:0:0:0:
147,313,29290,1,0,0:0:0:0:
258,150,29433,1,0,0:0:0:0:
366,241,29576,1,8,0:0:0:0:
135,209,29719,1,0,0:0:0:0:
123,209,29790,1,0,0:0:0:0:
111,211,29862,6,0,P|74:231|52:271,1,80,0|0,0:0|0:0,0:0:0:0:
256,88,30148,1,8,0:0:0:0:
60,40,30290,2,0,P|84:73|124:87,1,80,0|0,0:0|0:0,0:0:0:0:
354,60,30576,2,0,L|341:139,1,80,0|8,0:0|0:0,0:0:0:0:
143,348,30862,1,0,0:0:0:0:
140,340,30933,1,0,0:0:0:0:
137,332,31005,2,0,P|102:312|53:314,1,80,0|0,0:0|0:0,0:0:0:0:
366,266,31290,2,0,P|406:241|451:244,1,80,8|0,0:0|0:0,0:0:0:0:
171,163,31576,2,0,P|145:121|105:99,1,80,0|0,0:0|0:0,0:0:0:0:
316,67,31862,2,0,P|329:28|364:-5,1,80,8|0,0:0|0:0,0:0:0:0:
397,72,32076,1,0,0:0:0:0:
397,72,32148,22,0,B|232:79|232:79|252:96,1,180.000006866455,4|0,0:0|0:0,0:0:0:0:
315,182,32433,54,0,P|324:143|308:99,1,80,8|0,0:0|0:0,0:0:0:0:
99,43,32719,2,0,P|90:82|106:126,1,80,0|0,0:0|0:0,0:0:0:0:
190,280,33005,1,8,0:0:0:0:
217,82,33148,1,0,0:0:0:0:
217,74,33219,1,0,0:0:0:0:
217,66,33290,1,0,0:0:0:0:
241,188,33433,1,0,0:0:0:0:
128,21,33576,1,8,0:0:0:0:
319,123,33719,1,0,0:0:0:0:
144,257,33862,2,0,L|52:251,1,80,0|0,0:0|0:0,0:0:0:0:
201,133,34148,1,8,0:0:0:0:
35,20,34290,37,0,0:0:0:0:
35,20,34362,1,0,0:0:0:0:
35,20,34433,2,0,P|19:59|30:102,1,80,0|0,0:0|0:0,0:0:0:0:
121,240,34719,1,8,0:0:0:0:
175,88,34862,1,0,0:0:0:0:
12,211,35005,1,0,0:0:0:0:
222,195,35148,2,0,L|312:189,1,80,0|8,0:0|0:0,0:0:0:0:
455,286,35433,1,0,0:0:0:0:
312,364,35576,1,0,0:0:0:0:
303,190,35719,53,0,0:0:0:0:
303,190,35790,1,0,0:0:0:0:
303,190,35862,2,0,L|297:141,1,40,8|0,0:0|0:0,0:0:0:0:
378,43,36005,2,0,L|384:92,1,40,0|8,0:0|0:0,0:0:0:0:
217,100,36148,54,0,L|226:48,1,40,8|0,0:0|0:0,0:0:0:0:
395,197,36290,2,0,L|381:248,1,40,8|0,0:0|0:0,0:0:0:0:
287,279,36433,6,0,L|235:276,1,40,0|0,0:0|0:0,0:0:0:0:
453,137,36576,2,0,L|492:139,1,40,0|0,0:0|0:0,0:0:0:0:
435,329,36719,5,4,0:0:0:0:
435,329,36790,1,0,0:0:0:0:
435,329,36862,1,0,0:0:0:0:
265,366,37005,1,0,0:0:0:0:
448,332,37148,1,0,0:0:0:0:
314,173,37290,1,8,0:0:0:0:
457,335,37433,1,0,0:0:0:0:
216,256,37576,38,0,B|157:255|157:255|91:273|91:273|30:270,1,180.000006866455,0|0,0:0|0:0,0:0:0:0:
18,266,37862,37,0,0:0:0:0:
328,292,38005,1,0,0:0:0:0:
125,358,38148,1,0,0:0:0:0:
166,170,38290,1,0,0:0:0:0:
250,343,38433,1,8,0:0:0:0:
75,249,38576,1,0,0:0:0:0:
75,249,38647,1,0,0:0:0:0:
75,249,38719,2,0,L|19:246,1,40,0|0,0:0|0:0,0:0:0:0:
261,232,38862,2,0,L|311:235,1,40,0|0,0:0|0:0,0:0:0:0:
157,66,39005,5,0,0:0:0:0:
157,81,39076,1,0,0:0:0:0:
156,97,39148,1,0,0:0:0:0:
283,82,39290,1,0,0:0:0:0:
168,242,39433,1,0,0:0:0:0:
68,30,39576,1,8,0:0:0:0:
252,182,39719,1,0,0:0:0:0:
65,350,39862,6,0,P|7:303|39:207,1,180.000006866455,0|0,0:0|0:0,0:0:0:0:
43,203,40148,21,0,0:0:0:0:
181,61,40290,1,0,0:0:0:0:
303,263,40433,1,0,0:0:0:0:
441,61,40576,1,0,0:0:0:0:
443,36,40648,1,0,0:0:0:0:
447,12,40719,2,0,L|394:2,1,40,8|0,0:0|0:0,0:0:0:0:
327,70,40862,2,0,L|283:66,1,40,0|0,0:0|0:0,0:0:0:0:
201,133,41005,2,0,L|161:129,2,40,0|0|0,0:0|0:0|0:0,0:0:0:0:
391,360,41290,6,0,P|409:318|397:267,1,95.9999970703126,0|0,0:0|0:0,0:0:0:0:
399,271,41505,1,0,0:0:0:0:
399,271,41576,1,0,0:0:0:0:
245,340,41719,1,0,0:0:0:0:
373,172,41862,1,8,0:0:0:0:
491,295,42005,1,0,0:0:0:0:
279,226,42148,22,0,P|259:143|313:68,1,180.000006866455,0|0,0:0|0:0,0:0:0:0:
331,67,42433,54,0,L|421:61,1,80,0|0,0:0|0:0,0:0:0:0:
497,171,42719,1,0,0:0:0:0:
415,271,42862,1,0,0:0:0:0:
415,271,42933,1,0,0:0:0:0:
415,271,43005,2,0,L|325:277,1,80,8|0,0:0|0:0,0:0:0:0:
161,297,43290,1,0,0:0:0:0:
263,368,43433,1,0,0:0:0:0:
242,190,43576,38,0,P|232:143|194:104,1,95.9999970703126,0|0,0:0|0:0,0:0:0:0:
59,228,43862,1,0,0:0:0:0:
249,280,44005,1,0,0:0:0:0:
115,143,44148,1,8,0:0:0:0:
55,330,44290,1,0,0:0:0:0:
265,185,44433,38,0,B|303:172|303:172|397:190,1,120.000004577637,0|0,0:0|0:0,0:0:0:0:
397,191,44648,37,0,0:0:0:0:
414,195,44719,1,0,0:0:0:0:
374,24,44862,1,0,0:0:0:0:
212,140,45005,1,0,0:0:0:0:
458,110,45148,1,0,0:0:0:0:
333,302,45290,1,8,0:0:0:0:
279,58,45433,1,8,0:0:0:0:
146,241,45576,1,8,0:0:0:0:
394,173,45719,1,8,0:0:0:0:
166,348,45862,54,0,B|112:372|56:330|56:330|31:276|66:244|51:222|19:226|12:247,1,240,2|0,0:0|0:0,0:0:0:0:
5,148,47148,2,0,P|52:144|101:169,1,100,0|0,0:0|0:0,0:0:0:0:
129,188,47576,2,0,P|219:172|135:105,1,251.999992309571,0|0,0:0|0:0,0:0:0:0:
166,148,48148,6,0,L|320:133,1,143.999995605469,4|0,0:0|0:0,0:0:0:0:
367,178,48433,2,0,P|387:226|379:275,1,95.9999970703126,8|0,0:0|0:0,0:0:0:0:
192,358,48719,1,0,0:0:0:0:
305,235,48862,1,0,0:0:0:0:
108,154,49005,2,0,L|129:252,1,95.9999970703126,8|0,0:0|0:0,0:0:0:0:
117,264,49219,1,0,0:0:0:0:
105,279,49290,2,0,B|61:265|61:265|30:120,1,180.000006866455,0|0,0:0|0:0,0:0:0:0:
33,134,49576,1,8,0:0:0:0:
313,32,49719,2,0,B|350:57|350:57|394:129|323:190,1,180.000006866455,0|0,0:0|0:0,0:0:0:0:
334,179,50005,1,0,0:0:0:0:
139,70,50148,1,8,0:0:0:0:
190,256,50290,53,0,0:0:0:0:
190,256,50362,1,0,0:0:0:0:
190,256,50433,2,0,L|181:365,1,95.9999970703126,4|0,0:0|0:0,0:0:0:0:
427,262,50719,2,0,L|441:145,1,95.9999970703126,8|0,0:0|0:0,0:0:0:0:
286,29,51005,2,0,B|221:38|161:35|161:35|137:22,1,143.999995605469,0|0,0:0|0:0,0:0:0:0:
107,22,51290,2,0,B|62:34|62:34|40:80,1,95.9999970703126,8|0,0:0|0:0,0:0:0:0:
203,287,51576,5,0,0:0:0:0:
145,101,51719,1,0,0:0:0:0:
101,334,51862,1,8,0:0:0:0:
235,178,52005,1,0,0:0:0:0:
15,153,52148,1,0,0:0:0:0:
201,369,52290,1,0,0:0:0:0:
215,370,52362,1,0,0:0:0:0:
229,370,52433,1,8,0:0:0:0:
467,215,52576,2,0,L|418:217,1,47.9999985351563,0|0,0:0|0:0,0:0:0:0:
347,243,52719,6,0,P|379:177|349:109,1,143.999995605469,4|0,0:0|0:0,0:0:0:0:
285,65,53005,2,0,L|172:59,1,95.9999970703126,8|0,0:0|0:0,0:0:0:0:
467,119,53290,1,0,0:0:0:0:
275,172,53433,1,0,0:0:0:0:
399,23,53576,1,8,0:0:0:0:
408,244,53719,2,0,L|415:306,1,47.9999985351563,0|0,0:0|0:0,0:0:0:0:
332,351,53862,2,0,P|288:293|332:197,1,180.000006866455,0|0,0:0|0:0,0:0:0:0:
324,201,54148,1,8,0:0:0:0:
452,45,54290,2,0,B|322:36|322:36|268:13,1,180.000006866455,0|0,0:0|0:0,0:0:0:0:
276,16,54576,1,0,0:0:0:0:
66,177,54719,2,0,L|165:165,1,95.9999970703126,8|0,0:0|0:0,0:0:0:0:
161,165,54933,53,0,0:0:0:0:
161,165,55005,1,0,0:0:0:0:
29,31,55148,1,0,0:0:0:0:
217,61,55290,1,8,0:0:0:0:
61,201,55433,1,0,0:0:0:0:
245,320,55576,2,0,B|254:270|254:270|239:217,1,95.9999970703126,0|0,0:0|0:0,0:0:0:0:
22,273,55862,2,0,B|13:323|13:323|28:376,1,95.9999970703126,8|0,0:0|0:0,0:0:0:0:
76,380,56076,2,0,L|125:376,1,47.9999985351563,0|0,0:0|0:0,0:0:0:0:
361,256,56290,5,0,0:0:0:0:
374,260,56362,1,8,0:0:0:0:
387,264,56433,1,8,0:0:0:0:
156,251,56576,1,0,0:0:0:0:
355,150,56719,1,8,0:0:0:0:
173,43,56862,1,8,0:0:0:0:
361,166,57005,1,8,0:0:0:0:
145,264,57148,1,8,0:0:0:0:
359,357,57290,38,0,P|408:373|497:328,1,143.999995605469,4|0,0:0|0:0,0:0:0:0:
503,266,57576,2,0,L|506:151,1,95.9999970703126,8|0,0:0|0:0,0:0:0:0:
334,98,57862,1,0,0:0:0:0:
321,236,58005,1,0,0:0:0:0:
334,98,58148,2,0,L|338:-3,1,95.9999970703126,8|0,0:0|0:0,0:0:0:0:
337,2,58362,1,0,0:0:0:0:
337,2,58433,1,4,0:0:0:0:
225,160,58576,5,0,0:0:0:0:
99,47,58719,2,0,P|55:31|5:44,1,95.9999970703126,8|0,0:0|0:0,0:0:0:0:
196,255,59005,2,0,P|244:263|298:231,1,95.9999970703126,0|0,0:0|0:0,0:0:0:0:
478,65,59290,2,0,B|424:62|424:62|375:35|375:35|326:33,1,143.999995605469,8|0,0:0|0:0,0:0:0:0:
327,33,59576,5,4,0:0:0:0:
440,191,59719,1,0,0:0:0:0:
237,198,59862,1,8,0:0:0:0:
431,82,60005,1,0,0:0:0:0:
352,317,60148,1,0,0:0:0:0:
352,317,60433,1,8,0:0:0:0:
501,133,60576,1,0,0:0:0:0:
188,119,60719,38,0,L|75:103,1,95.9999970703126,0|0,0:0|0:0,0:0:0:0:
371,33,61005,1,8,0:0:0:0:
255,201,61148,1,0,0:0:0:0:
256,35,61290,1,0,0:0:0:0:
378,200,61433,1,0,0:0:0:0:
378,200,61505,1,0,0:0:0:0:
378,200,61576,1,8,0:0:0:0:
191,324,61719,2,0,L|139:320,1,47.9999985351563,0|0,0:0|0:0,0:0:0:0:
92,378,61862,6,0,P|62:315|99:257,1,143.999995605469,4|0,0:0|0:0,0:0:0:0:
176,241,62148,2,0,L|271:248,1,95.9999970703126,8|0,0:0|0:0,0:0:0:0:
449,317,62433,1,0,0:0:0:0:
299,360,62576,1,0,0:0:0:0:
449,317,62719,2,0,P|466:272|459:218,1,95.9999970703126,8|0,0:0|0:0,0:0:0:0:
461,225,62933,1,0,0:0:0:0:
461,225,63005,1,0,0:0:0:0:
339,106,63148,5,0,0:0:0:0:
477,77,63290,1,8,0:0:0:0:
337,253,63433,1,0,0:0:0:0:
223,63,63576,2,0,P|179:43|125:53,1,95.9999970703126,0|0,0:0|0:0,0:0:0:0:
30,225,63862,2,0,P|74:245|126:235,1,95.9999970703126,8|0,0:0|0:0,0:0:0:0:
119,238,64076,1,0,0:0:0:0:
119,238,64148,1,4,0:0:0:0:
359,214,64290,37,0,0:0:0:0:
189,329,64433,1,8,0:0:0:0:
80,156,64576,1,0,0:0:0:0:
277,265,64719,1,0,0:0:0:0:
277,265,65005,1,8,0:0:0:0:
68,341,65148,1,0,0:0:0:0:
97,64,65290,5,0,0:0:0:0:
153,260,65433,1,0,0:0:0:0:
153,260,65505,1,0,0:0:0:0:
153,260,65576,2,0,L|157:204,1,47.9999985351563,8|0,0:0|0:0,0:0:0:0:
257,59,65719,2,0,L|303:90,1,47.9999985351563,0|0,0:0|0:0,0:0:0:0:
371,262,65862,1,0,0:0:0:0:
371,262,66148,38,0,B|420:287|485:258|485:258|452:228|407:235,1,191.999994140625,0|4,0:0|0:0,0:0:0:0:
48,63,75576,5,4,3:0:0:0:
48,63,75862,2,0,L|135:51,1,80,0|0,0:0|0:0,0:0:0:0:
208,112,76433,1,0,0:0:0:0:
208,112,76576,2,0,P|219:162|197:196,1,80,0|0,0:0|0:0,0:0:0:0:
141,244,77005,2,0,L|88:240,1,40,0|0,0:0|0:0,0:0:0:0:
374,346,77719,5,0,0:0:0:0:
442,304,77862,2,0,P|455:268|445:218,1,80,0|2,0:0|0:0,0:0:0:0:
382,182,78290,2,0,P|369:218|379:268,1,80,0|2,0:0|0:0,0:0:0:0:
243,343,78862,2,0,L|152:335,1,80,0|2,0:0|0:0,0:0:0:0:
81,318,79290,1,0,0:0:0:0:
136,248,79433,1,0,0:0:0:0:
352,33,80148,6,0,P|377:62|382:115,1,80,0|0,0:0|0:0,0:0:0:0:
294,213,80719,2,0,L|205:209,1,80,2|0,0:0|0:0,0:0:0:0:
151,165,81148,1,0,0:0:0:0:
67,286,81433,2,0,L|74:335,1,40,0|0,0:0|0:0,0:0:0:0:
144,373,81719,2,0,P|157:324|135:251,1,120,0|0,0:0|0:0,0:0:0:0:
70,213,82290,1,0,0:0:0:0:
12,154,82433,38,0,P|19:114|28:58,1,80,2|2,0:0|0:0,0:0:0:0:
114,73,82862,2,0,P|115:55|112:20,1,40,0|2,0:0|0:0,0:0:0:0:
208,108,83148,2,0,L|213:66,1,40,0|0,0:0|0:0,0:0:0:0:
321,91,83433,2,0,L|312:4,1,80,0|8,0:0|0:0,0:0:0:0:
415,52,83862,1,0,0:0:0:0:
392,164,84005,6,0,B|349:211|283:178|283:178|219:221|171:173,1,240.000009155274,0|8,0:0|0:0,0:0:0:0:
13,351,84719,22,0,L|209:359,1,180.000006866455,4|0,0:0|0:0,0:0:0:0:
273,361,85005,54,0,P|263:321|230:290,1,80,8|0,0:0|0:0,0:0:0:0:
79,233,85290,2,0,P|38:232|-4:255,1,80,2|0,0:0|0:0,0:0:0:0:
134,100,85576,1,8,0:0:0:0:
241,208,85719,2,0,L|262:303,1,80,0|2,0:0|0:0,0:0:0:0:
253,86,86005,1,0,0:0:0:0:
140,244,86148,1,8,0:0:0:0:
71,28,86290,1,2,0:0:0:0:
38,150,86433,2,0,L|124:138,1,80,0|2,0:0|0:0,0:0:0:0:
405,74,86719,2,0,L|394:160,1,80,8|0,0:0|0:0,0:0:0:0:
438,219,86933,37,0,0:0:0:0:
438,219,87005,2,0,P|399:231|356:218,1,80,2|0,0:0|0:0,0:0:0:0:
270,100,87290,1,8,0:0:0:0:
175,219,87433,2,0,L|183:311,1,80,2|0,0:0|0:0,0:0:0:0:
366,120,87719,2,0,P|366:81|347:34,1,80,0|10,0:0|0:0,0:0:0:0:
135,76,88005,1,0,0:0:0:0:
135,76,88076,1,0,0:0:0:0:
135,76,88148,2,0,L|52:68,1,80,2|0,0:0|0:0,0:0:0:0:
228,196,88433,1,8,0:0:0:0:
63,253,88576,1,0,0:0:0:0:
198,374,88719,2,0,P|201:338|181:296,1,80,0|2,0:0|0:0,0:0:0:0:
356,59,89005,2,0,P|353:98|331:137,1,80,8|2,0:0|0:0,0:0:0:0:
268,174,89219,37,0,0:0:0:0:
268,174,89290,2,0,P|367:172|459:166,1,180.000006866455,4|0,0:0|0:0,0:0:0:0:
498,226,89576,38,0,L|508:312,1,80,8|0,0:0|0:0,0:0:0:0:
257,353,89862,2,0,P|266:312|303:283,1,80,2|0,0:0|0:0,0:0:0:0:
200,175,90148,1,8,0:0:0:0:
279,52,90290,2,0,P|320:50|365:76,1,80,0|2,0:0|0:0,0:0:0:0:
130,88,90576,1,0,0:0:0:0:
307,191,90719,1,8,0:0:0:0:
69,198,90862,1,0,0:0:0:0:
254,20,91005,2,0,L|263:110,1,80,2|0,0:0|0:0,0:0:0:0:
157,359,91290,2,0,L|148:269,1,80,8|0,0:0|0:0,0:0:0:0:
105,215,91505,1,0,0:0:0:0:
105,215,91576,6,0,P|69:194|19:194,1,80,2|0,0:0|0:0,0:0:0:0:
215,90,91862,1,8,0:0:0:0:
283,269,92005,2,0,P|323:262|358:239,1,80,0|2,0:0|0:0,0:0:0:0:
376,69,92290,2,0,P|349:37|312:19,1,80,0|8,0:0|0:0,0:0:0:0:
175,280,92576,1,0,0:0:0:0:
290,142,92719,1,2,0:0:0:0:
461,227,92862,21,0,0:0:0:0:
461,227,92933,1,0,0:0:0:0:
461,227,93005,2,0,L|414:222,1,40,2|0,0:0|0:0,0:0:0:0:
319,364,93148,2,0,L|366:369,1,40,0|8,0:0|0:0,0:0:0:0:
378,106,93290,54,0,L|331:113,1,40,10|0,0:0|0:0,0:0:0:0:
276,275,93433,2,0,L|322:267,1,40,8|0,0:0|0:0,0:0:0:0:
256,13,93576,6,0,L|212:32,1,40,2|0,0:0|0:0,0:0:0:0:
201,202,93719,2,0,L|244:182,1,40,8|0,0:0|0:0,0:0:0:0:
113,35,93862,5,4,0:0:0:0:
113,35,93933,1,0,0:0:0:0:
113,35,94005,1,0,0:0:0:0:
40,218,94148,1,0,0:0:0:0:
208,120,94290,1,0,0:0:0:0:
9,104,94433,2,0,L|5:55,1,40,2|0,0:0|0:0,0:0:0:0:
110,161,94576,2,0,L|106:112,1,40,0|0,0:0|0:0,0:0:0:0:
211,218,94719,38,0,B|337:207|337:207|383:249,1,180.000006866455,2|0,0:0|0:0,0:0:0:0:
427,298,95005,37,2,0:0:0:0:
438,119,95148,1,0,0:0:0:0:
290,210,95290,1,2,0:0:0:0:
339,39,95433,1,0,0:0:0:0:
339,39,95505,1,0,0:0:0:0:
339,39,95576,1,2,0:0:0:0:
491,205,95719,1,0,0:0:0:0:
281,336,95862,2,0,L|283:288,1,40,8|0,0:0|0:0,0:0:0:0:
379,186,96005,2,0,L|383:225,1,40,10|0,0:0|0:0,0:0:0:0:
466,349,96148,6,0,P|394:363|310:369,1,143.999995605469,2|0,0:0|0:0,0:0:0:0:
312,368,96433,1,0,0:0:0:0:
255,186,96576,1,0,0:0:0:0:
153,342,96719,1,2,0:0:0:0:
336,271,96862,1,0,0:0:0:0:
117,222,97005,6,0,B|52:209|48:146|48:146|79:108|121:119,1,180.000006866455,0|0,0:0|0:0,0:0:0:0:
106,116,97290,21,2,0:0:0:0:
259,221,97433,1,0,0:0:0:0:
236,62,97576,1,2,0:0:0:0:
132,245,97719,1,0,0:0:0:0:
236,62,97862,2,0,P|294:33|388:84,1,180.000006866455,2|0,0:0|0:0,0:0:0:0:
403,123,98148,1,0,0:0:0:0:
403,123,98219,1,0,0:0:0:0:
403,123,98290,2,0,L|449:117,1,40,0|0,0:0|0:0,0:0:0:0:
330,241,98433,5,4,0:0:0:0:
330,241,98505,1,0,0:0:0:0:
330,241,98576,1,0,0:0:0:0:
443,117,98719,1,0,0:0:0:0:
412,323,98862,1,0,0:0:0:0:
328,108,99005,1,2,0:0:0:0:
494,243,99148,1,0,0:0:0:0:
248,334,99290,22,0,B|194:330|194:330|132:281|147:215,1,180.000006866455,0|0,0:0|0:0,0:0:0:0:
148,207,99576,53,2,0:0:0:0:
326,266,99719,1,0,0:0:0:0:
63,348,99862,1,0,0:0:0:0:
211,302,100005,1,0,0:0:0:0:
39,113,100148,2,0,P|20:152|39:201,1,95.9999970703126,2|0,0:0|0:0,0:0:0:0:
37,199,100362,1,0,0:0:0:0:
37,199,100433,1,0,0:0:0:0:
233,150,100576,2,0,L|289:144,1,40,2|0,0:0|0:0,0:0:0:0:
357,130,100719,37,4,0:0:0:0:
211,240,100862,1,0,0:0:0:0:
291,52,101005,1,0,0:0:0:0:
360,294,101148,1,0,0:0:0:0:
360,294,101219,1,0,0:0:0:0:
360,294,101290,2,0,L|369:241,1,40,0|0,0:0|0:0,0:0:0:0:
472,142,101433,2,0,L|423:166,1,40,0|0,0:0|0:0,0:0:0:0:
250,79,101576,38,0,P|268:134|332:145,1,120.000004577637,0|0,0:0|0:0,0:0:0:0:
323,147,101790,37,0,0:0:0:0:
323,147,101862,1,0,0:0:0:0:
178,203,102005,1,0,0:0:0:0:
383,273,102148,1,0,0:0:0:0:
250,79,102290,1,0,0:0:0:0:
254,310,102433,1,8,0:0:0:0:
445,155,102576,1,8,0:0:0:0:
132,90,102719,1,8,0:0:0:0:
254,310,102862,1,8,0:0:0:0:
316,49,103005,54,0,B|285:-3|225:11|225:11|198:22|198:22|173:12|173:12|126:29|88:11,1,240,2|0,0:0|0:0,0:0:0:0:
35,105,104290,2,0,L|50:233,1,120,0|0,0:0|0:0,0:0:0:0:
103,314,105005,2,0,P|156:327|205:294,1,107.999996704102,0|0,0:0|0:0,0:0:0:0:
246,237,105290,6,0,L|396:228,1,143.999995605469,4|0,0:0|0:0,0:0:0:0:
451,272,105576,2,0,B|472:320|472:320|455:366,1,95.9999970703126,8|0,0:0|0:0,0:0:0:0:
281,142,105862,1,0,0:0:0:0:
357,320,106005,1,0,0:0:0:0:
476,165,106148,1,8,0:0:0:0:
281,142,106290,1,0,0:0:0:0:
165,287,106433,2,0,L|68:281,1,95.9999970703126,0|0,0:0|0:0,0:0:0:0:
172,94,106719,1,8,0:0:0:0:
299,243,106862,2,0,P|314:292|296:344,1,95.9999970703126,0|0,0:0|0:0,0:0:0:0:
94,168,107148,1,0,0:0:0:0:
94,168,107219,1,0,0:0:0:0:
94,168,107290,2,0,P|58:110|88:30,1,143.999995605469,8|0,0:0|0:0,0:0:0:0:
148,15,107576,6,0,B|233:6|233:6|246:13,1,95.9999970703126,0|0,0:0|0:0,0:0:0:0:
426,171,107862,2,0,B|340:179|340:179|328:173,1,95.9999970703126,8|0,0:0|0:0,0:0:0:0:
205,110,108148,1,0,0:0:0:0:
373,246,108290,1,0,0:0:0:0:
348,88,108433,1,8,0:0:0:0:
230,268,108576,2,0,L|225:323,2,47.9999985351563,0|0|0,0:0|0:0|0:0,0:0:0:0:
97,149,108862,1,0,0:0:0:0:
267,58,109005,2,0,P|284:103|271:161,1,95.9999970703126,8|0,0:0|0:0,0:0:0:0:
66,328,109290,37,0,0:0:0:0:
192,183,109433,1,0,0:0:0:0:
192,183,109505,1,8,0:0:0:0:
192,183,109576,1,8,0:0:0:0:
314,355,109719,2,0,L|365:348,1,47.9999985351563,0|0,0:0|0:0,0:0:0:0:
418,295,109862,6,0,P|435:234|401:161,1,143.999995605469,0|0,0:0|0:0,0:0:0:0:
355,110,110148,2,0,L|460:111,1,95.9999970703126,12|0,0:0|0:0,0:0:0:0:
250,24,110433,1,0,0:0:0:0:
200,203,110576,1,0,0:0:0:0:
355,110,110719,1,8,0:0:0:0:
94,104,110862,1,0,0:0:0:0:
94,104,110933,1,0,0:0:0:0:
94,104,111005,2,0,P|46:132|31:183,1,95.9999970703126,0|0,0:0|0:0,0:0:0:0:
149,325,111290,1,8,0:0:0:0:
307,242,111433,2,0,P|316:200|294:148,1,95.9999970703126,0|0,0:0|0:0,0:0:0:0:
169,27,111719,1,0,0:0:0:0:
134,215,111862,2,0,L|249:207,1,95.9999970703126,8|0,0:0|0:0,0:0:0:0:
229,208,112076,5,0,0:0:0:0:
229,208,112148,1,0,0:0:0:0:
72,117,112290,1,0,0:0:0:0:
308,243,112433,1,12,0:0:0:0:
130,351,112576,1,0,0:0:0:0:
229,108,112719,2,0,B|241:68|241:68|233:11,1,95.9999970703126,0|0,0:0|0:0,0:0:0:0:
450,115,113005,2,0,B|438:155|438:155|446:212,1,95.9999970703126,8|0,0:0|0:0,0:0:0:0:
445,208,113219,1,0,0:0:0:0:
445,208,113290,1,0,0:0:0:0:
309,349,113433,37,0,0:0:0:0:
309,349,113505,1,8,0:0:0:0:
309,349,113576,1,8,0:0:0:0:
263,165,113719,1,0,0:0:0:0:
408,307,113862,1,8,0:0:0:0:
263,165,114005,1,8,0:0:0:0:
204,346,114148,1,8,0:0:0:0:
455,307,114290,2,0,L|393:306,1,47.9999985351563,8|0,0:0|0:0,0:0:0:0:
340,264,114433,6,0,L|192:259,1,143.999995605469,4|0,0:0|0:0,0:0:0:0:
129,293,114719,2,0,P|113:338|128:386,1,95.9999970703126,8|0,0:0|0:0,0:0:0:0:
262,174,115005,1,0,0:0:0:0:
277,342,115148,1,0,0:0:0:0:
118,190,115290,2,0,L|4:177,1,95.9999970703126,8|0,0:0|0:0,0:0:0:0:
22,179,115505,1,0,0:0:0:0:
22,179,115577,1,4,0:0:0:0:
206,83,115719,5,0,0:0:0:0:
114,268,115862,1,8,0:0:0:0:
79,64,116005,1,0,0:0:0:0:
227,208,116148,2,0,P|274:216|324:198,1,95.9999970703126,0|0,0:0|0:0,0:0:0:0:
389,44,116433,2,0,P|342:36|292:54,1,95.9999970703126,8|0,0:0|0:0,0:0:0:0:
296,50,116648,1,0,0:0:0:0:
296,50,116719,37,4,0:0:0:0:
136,167,116862,1,0,0:0:0:0:
299,44,117005,1,8,0:0:0:0:
310,238,117148,1,0,0:0:0:0:
181,70,117290,2,0,P|137:49|83:59,1,95.9999970703126,0|0,0:0|0:0,0:0:0:0:
366,148,117576,1,8,0:0:0:0:
195,268,117719,1,0,0:0:0:0:
349,375,117862,6,0,L|343:278,1,95.9999970703126,0|0,0:0|0:0,0:0:0:0:
495,215,118148,1,8,0:0:0:0:
275,214,118290,1,0,0:0:0:0:
411,77,118433,1,0,0:0:0:0:
455,316,118576,1,0,0:0:0:0:
455,316,118648,1,0,0:0:0:0:
455,316,118719,1,8,0:0:0:0:
215,276,118862,2,0,L|157:270,1,47.9999985351563,0|0,0:0|0:0,0:0:0:0:
114,331,119005,6,0,P|89:262|127:200,1,143.999995605469,4|0,0:0|0:0,0:0:0:0:
61,147,119290,2,0,P|58:106|26:62,1,95.9999970703126,8|0,0:0|0:0,0:0:0:0:
207,148,119576,1,0,0:0:0:0:
26,279,119719,1,0,0:0:0:0:
26,62,119862,1,8,0:0:0:0:
114,215,120005,1,0,0:0:0:0:
114,215,120076,1,0,0:0:0:0:
114,215,120148,38,0,L|213:200,1,95.9999970703126,0|0,0:0|0:0,0:0:0:0:
342,293,120433,1,8,0:0:0:0:
270,121,120576,1,0,0:0:0:0:
183,300,120719,2,0,L|84:315,1,95.9999970703126,0|0,0:0|0:0,0:0:0:0:
189,54,121005,2,0,B|289:39|289:39|336:59,1,143.999995605469,8|0,0:0|0:0,0:0:0:0:
385,108,121290,6,0,P|401:156|390:200,1,95.9999970703126,4|0,0:0|0:0,0:0:0:0:
230,289,121576,1,8,0:0:0:0:
317,164,121719,1,0,0:0:0:0:
415,349,121862,1,0,0:0:0:0:
415,349,122148,1,8,0:0:0:0:
317,164,122290,1,0,0:0:0:0:
230,362,122433,5,0,0:0:0:0:
446,249,122576,1,0,0:0:0:0:
446,249,122648,1,0,0:0:0:0:
446,249,122719,1,8,0:0:0:0:
152,203,122862,1,0,0:0:0:0:
354,348,123005,22,0,B|372:366|372:366|390:348,1,47.9999985351563,0|0,0:0|0:0,0:0:0:0:
387,350,123290,2,0,B|402:284|402:284|334:295|334:295|357:354,1,191.999994140625,0|4,0:0|0:0,0:0:0:0:
52,67,132719,6,0,L|123:55,1,64,0|0,0:0|0:0,0:0:0:0:
192,103,133005,2,0,L|263:91,1,64,0|0,0:0|0:0,0:0:0:0:
318,155,133290,1,0,0:0:0:0:
269,230,133433,2,0,B|249:266|249:266|205:289|153:248,1,128,0|0,0:0|0:0,0:0:0:0:
26,282,133862,2,0,P|51:252|86:241,1,64,0|0,0:0|0:0,0:0:0:0:
77,100,134148,1,0,0:0:0:0:
134,169,134290,1,0,0:0:0:0:
134,169,134862,5,0,0:0:0:0:
77,100,135005,2,0,L|83:26,1,64,0|0,0:0|0:0,0:0:0:0:
171,28,135290,2,0,L|165:102,1,64,0|0,0:0|0:0,0:0:0:0:
221,163,135576,2,0,P|255:173|298:167,1,64,0|0,0:0|0:0,0:0:0:0:
327,249,135862,2,0,P|361:239|400:242,1,64,0|0,0:0|0:0,0:0:0:0:
466,287,136148,2,0,P|478:221|466:152,1,128,0|0,0:0|0:0,0:0:0:0:
399,104,136576,1,0,0:0:0:0:
333,168,136719,1,0,0:0:0:0:
337,162,136862,1,0,0:0:0:0:
241,163,137005,1,0,0:0:0:0:
245,157,137148,1,0,0:0:0:0:
155,205,137290,6,0,L|162:286,1,64,0|0,0:0|0:0,0:0:0:0:
224,332,137576,1,0,0:0:0:0:
137,354,137719,1,0,0:0:0:0:
224,332,137862,2,0,L|299:337,1,64,0|0,0:0|0:0,0:0:0:0:
74,290,138148,2,0,L|6:298,1,64,0|0,0:0|0:0,0:0:0:0:
237,251,138433,2,0,B|348:260|348:260|363:297,1,128,0|0,0:0|0:0,0:0:0:0:
406,348,138862,1,0,0:0:0:0:
406,348,139433,37,0,0:0:0:0:
472,288,139576,2,0,P|483:236|455:169,1,128,0|0,0:0|0:0,0:0:0:0:
325,239,140005,2,0,L|393:239,1,64,0|0,0:0|0:0,0:0:0:0:
290,159,140290,1,0,0:0:0:0:
221,101,140433,1,0,0:0:0:0:
136,130,140576,1,0,0:0:0:0:
207,184,140719,2,0,L|351:154,1,128,0|0,0:0|0:0,0:0:0:0:
378,80,141148,1,0,0:0:0:0:
304,30,141290,2,0,P|274:18|238:23,1,64,0|0,0:0|0:0,0:0:0:0:
161,59,141576,2,0,P|131:71|92:71,1,64,0|0,0:0|0:0,0:0:0:0:
11,28,141862,5,12,0:0:0:0:
130,102,142005,1,0,0:0:0:0:
4,135,142148,1,0,0:0:0:0:
130,102,142290,1,0,0:0:0:0:
94,221,142433,2,0,L|93:305,1,80,8|0,0:0|0:0,0:0:0:0:
171,358,142719,1,0,0:0:0:0:
245,297,142862,1,0,0:0:0:0:
201,211,143005,2,0,B|192:117|192:117|253:65,1,160,0|0,0:0|0:0,0:0:0:0:
331,110,143433,1,0,0:0:0:0:
243,149,143576,2,0,L|144:140,1,80,8|0,0:0|0:0,0:0:0:0:
306,219,143862,1,0,0:0:0:0:
393,178,144005,5,0,0:0:0:0:
401,177,144076,1,0,0:0:0:0:
410,174,144148,2,0,P|420:134|419:95,1,80,0|0,0:0|0:0,0:0:0:0:
394,270,144433,2,0,P|434:280|473:279,1,80,0|0,0:0|0:0,0:0:0:0:
306,219,144719,2,0,P|296:259|297:298,1,80,8|0,0:0|0:0,0:0:0:0:
322,123,145005,2,0,P|282:113|243:114,1,80,0|0,0:0|0:0,0:0:0:0:
212,209,145290,1,0,0:0:0:0:
392,182,145433,1,0,0:0:0:0:
283,48,145576,1,0,0:0:0:0:
310,259,145719,2,0,L|395:251,1,80,0|8,0:0|0:0,0:0:0:0:
286,149,146005,1,0,0:0:0:0:
225,308,146148,2,0,L|129:303,1,80,0|0,0:0|0:0,0:0:0:0:
22,363,146433,38,0,P|25:284|28:190,1,160,0|0,0:0|0:0,0:0:0:0:
93,132,146862,1,0,0:0:0:0:
169,73,147005,2,0,B|188:117|188:117|181:163,1,80,8|0,0:0|0:0,0:0:0:0:
1,97,147290,2,0,B|29:58|29:58|72:41,1,80,0|0,0:0|0:0,0:0:0:0:
100,228,147576,2,0,B|52:222|52:222|16:193,2,80,0|0|0,0:0|0:0|0:0,0:0:0:0:
184,274,148005,2,0,B|222:261|263:279|263:279|304:303|361:288,1,160,0|0,0:0|0:0,0:0:0:0:
423,339,148433,2,0,P|432:300|423:256,1,80,0|0,0:0|0:0,0:0:0:0:
442,238,148648,5,0,0:0:0:0:
442,238,148719,2,0,B|455:148|455:148|394:101,1,160,0|0,0:0|0:0,0:0:0:0:
219,16,149148,2,0,B|206:106|206:106|267:153,1,160,0|0,0:0|0:0,0:0:0:0:
150,291,149576,2,0,L|241:280,1,80,0|0,0:0|0:0,0:0:0:0:
315,352,149862,1,8,0:0:0:0:
316,211,150005,1,8,0:0:0:0:
178,359,150148,1,8,0:0:0:0:
179,218,150291,1,8,0:0:0:0:
38,366,150433,38,0,B|75:312|38:263|38:263|71:196|-1:151|-1:151|-4:108|47:88,1,320,8|4,0:0|0:0,0:0:0:0:
43,153,157576,6,0,L|126:158,1,80,8|0,0:0|0:0,0:0:0:0:
142,190,159862,6,0,B|188:174|231:207|231:207|270:239|332:213,1,180.000006866455,8|0,0:0|0:0,0:0:0:0:
373,178,160148,6,0,L|381:27,1,143.999995605469,4|0,0:0|0:0,0:0:0:0:
461,37,160433,2,0,P|478:77|461:138,1,95.9999970703126,12|0,0:0|0:0,0:0:0:0:
374,280,160719,1,0,0:0:0:0:
290,140,160862,1,0,0:0:0:0:
457,222,161005,1,8,0:0:0:0:
261,243,161148,1,0,0:0:0:0:
335,49,161290,2,0,L|345:149,1,95.9999970703126,0|0,0:0|0:0,0:0:0:0:
387,338,161576,1,8,0:0:0:0:
387,338,161719,2,0,P|353:361|291:360,1,95.9999970703126,0|0,0:0|0:0,0:0:0:0:
93,261,162005,1,0,0:0:0:0:
178,205,162148,2,0,P|220:212|257:250,1,95.9999970703126,8|0,0:0|0:0,0:0:0:0:
256,248,162362,37,0,0:0:0:0:
256,248,162433,1,0,0:0:0:0:
92,172,162576,1,0,0:0:0:0:
182,313,162719,1,8,0:0:0:0:
175,113,162862,1,0,0:0:0:0:
94,267,163005,1,0,0:0:0:0:
283,322,163148,1,0,0:0:0:0:
101,360,163290,1,8,0:0:0:0:
92,172,163433,5,0,0:0:0:0:
92,172,163505,1,0,0:0:0:0:
92,172,163576,2,0,B|79:80|79:80|155:8,1,191.999994140625,0|8,0:0|0:0,0:0:0:0:
275,242,164005,1,0,0:0:0:0:
175,120,164148,1,0,0:0:0:0:
114,307,164290,1,0,0:0:0:0:
114,307,164362,1,0,0:0:0:0:
114,307,164433,1,8,0:0:0:0:
357,279,164576,2,0,P|361:255|356:222,1,47.9999985351563,0|0,0:0|0:0,0:0:0:0:
401,173,164719,6,0,B|294:175|294:175|328:142,1,143.999995605469,0|0,0:0|0:0,0:0:0:0:
375,97,165005,2,0,P|327:74|281:84,1,95.9999970703126,12|0,0:0|0:0,0:0:0:0:
106,83,165290,1,0,0:0:0:0:
237,163,165433,1,0,0:0:0:0:
102,55,165576,1,8,0:0:0:0:
57,224,165719,1,0,0:0:0:0:
57,224,165790,1,0,0:0:0:0:
57,224,165862,2,0,P|48:274|43:324,1,95.9999970703126,4|0,0:0|0:0,0:0:0:0:
192,68,166148,1,8,0:0:0:0:
180,224,166290,2,0,P|230:217|281:206,1,95.9999970703126,0|0,0:0|0:0,0:0:0:0:
395,114,166576,1,0,0:0:0:0:
479,290,166719,2,0,P|433:290|382:282,1,95.9999970703126,8|0,0:0|0:0,0:0:0:0:
360,290,166933,37,0,0:0:0:0:
360,290,167005,1,4,0:0:0:0:
197,323,167148,1,0,0:0:0:0:
268,221,167290,1,8,0:0:0:0:
301,384,167433,1,0,0:0:0:0:
352,207,167576,1,0,0:0:0:0:
151,139,167719,1,0,0:0:0:0:
293,72,167861,1,8,0:0:0:0:
226,271,168004,1,0,0:0:0:0:
50,191,168148,6,0,P|36:151|47:87,1,95.9999970703126,0|0,0:0|0:0,0:0:0:0:
48,86,168362,1,0,0:0:0:0:
54,77,168433,1,8,0:0:0:0:
240,166,168576,1,0,0:0:0:0:
159,346,168719,2,0,B|184:357|184:357|200:351|200:351|219:360,1,60.0000022888184,0|0,0:0|0:0,0:0:0:0:
287,353,168862,1,0,0:0:0:0:
322,351,168933,1,0,0:0:0:0:
355,337,169005,1,8,0:0:0:0:
380,311,169076,1,0,0:0:0:0:
393,277,169148,1,0,0:0:0:0:
393,241,169219,1,0,0:0:0:0:
384,206,169290,22,0,P|344:139|254:139,1,167.999994873047,0|0,0:0|0:0,0:0:0:0:
198,176,169576,2,0,L|84:167,1,111.999996582031,12|0,0:0|0:0,0:0:0:0:
177,57,169862,1,0,0:0:0:0:
267,248,170005,1,0,0:0:0:0:
177,57,170148,1,8,0:0:0:0:
119,271,170290,1,0,0:0:0:0:
40,83,170433,6,0,P|26:29|52:-21,1,111.999996582031,4|0,0:0|0:0,0:0:0:0:
174,188,170719,1,8,0:0:0:0:
303,97,170862,2,0,P|312:42|286:-11,1,111.999996582031,0|0,0:0|0:0,0:0:0:0:
169,196,171148,1,0,0:0:0:0:
325,278,171290,2,0,L|445:265,1,111.999996582031,8|0,0:0|0:0,0:0:0:0:
436,265,171505,1,0,0:0:0:0:
436,265,171576,53,4,0:0:0:0:
278,180,171719,1,0,0:0:0:0:
283,359,171862,1,8,0:0:0:0:
436,265,172005,1,0,0:0:0:0:
230,269,172148,1,0,0:0:0:0:
388,354,172291,1,0,0:0:0:0:
383,175,172434,1,8,0:0:0:0:
230,269,172577,5,0,0:0:0:0:
230,269,172648,1,0,0:0:0:0:
230,269,172719,2,0,L|217:136,1,111.999996582031,4|0,0:0|0:0,0:0:0:0:
62,171,173005,1,8,0:0:0:0:
17,48,173148,2,0,L|143:13,1,111.999996582031,0|0,0:0|0:0,0:0:0:0:
300,75,173433,1,0,0:0:0:0:
300,75,173505,1,0,0:0:0:0:
300,75,173576,1,12,0:0:0:0:
240,240,173719,2,0,P|211:252|179:250,1,55.9999982910157,0|0,0:0|0:0,0:0:0:0:
115,221,173862,54,0,P|35:222|3:318,1,192,0|0,0:0|0:0,0:0:0:0:
74,371,174148,2,0,L|214:356,1,128,12|4,0:0|0:0,0:0:0:0:
346,187,174433,1,0,0:0:0:0:
150,270,174576,1,0,0:0:0:0:
385,337,174719,1,12,0:0:0:0:
217,143,174862,5,0,0:0:0:0:
217,143,174933,1,0,0:0:0:0:
217,143,175005,2,0,P|189:83|209:24,1,128,0|0,0:0|0:0,0:0:0:0:
325,239,175290,1,12,0:0:0:0:
418,14,175433,2,0,P|446:74|426:133,1,128,0|0,0:0|0:0,0:0:0:0:
207,257,175719,1,0,0:0:0:0:
364,75,175862,2,0,L|506:60,1,128,12|0,0:0|0:0,0:0:0:0:
491,61,176076,1,0,0:0:0:0:
491,61,176148,53,4,0:0:0:0:
301,199,176290,1,0,0:0:0:0:
323,15,176433,1,8,0:0:0:0:
471,229,176576,1,0,0:0:0:0:
222,99,176719,1,0,0:0:0:0:
402,131,176862,1,0,0:0:0:0:
128,199,177005,1,8,0:0:0:0:
323,15,177148,1,0,0:0:0:0:
346,249,177290,5,8,0:0:0:0:
346,249,177362,1,0,0:0:0:0:
346,249,177433,2,0,P|361:285|357:314,1,64,0|0,0:0|0:0,0:0:0:0:
276,370,177576,2,0,P|237:364|214:347,1,64,8|0,0:0|0:0,0:0:0:0:
203,248,177719,2,0,P|226:217|253:205,1,64,0|0,0:0|0:0,0:0:0:0:
332,73,177862,2,0,B|346:107|346:107|339:143,1,64,8|0,0:0|0:0,0:0:0:0:
277,283,178005,2,0,B|263:249|263:249|270:213,1,64,8|0,0:0|0:0,0:0:0:0:
409,205,178148,2,0,B|375:219|375:219|339:212,1,64,8|0,0:0|0:0,0:0:0:0:
199,150,178291,2,0,B|233:136|233:136|269:143,1,64,8|0,0:0|0:0,0:0:0:0:
483,48,178433,6,0,B|433:53|433:53|357:24|357:24|278:29,1,191.999994140625,12|8,0:0|0:0,0:0:0:0:
131,85,178862,1,0,0:0:0:0:
262,190,179005,2,0,L|374:180,1,95.9999970703126,8|0,0:0|0:0,0:0:0:0:
146,353,179290,2,0,P|127:311|116:234,1,95.9999970703126,8|0,0:0|0:0,0:0:0:0:
239,38,179576,2,0,P|294:89|241:200,1,191.999994140625,0|8,0:0|0:0,0:0:0:0:
53,163,180005,1,0,0:0:0:0:
212,120,180148,1,0,0:0:0:0:
102,38,180290,1,0,0:0:0:0:
24,258,180433,2,0,P|69:262|115:235,1,95.9999970703126,8|0,0:0|0:0,0:0:0:0:
112,237,180648,1,0,0:0:0:0:
112,237,180719,5,4,0:0:0:0:
313,276,180862,1,0,0:0:0:0:
236,130,181005,1,8,0:0:0:0:
186,359,181148,1,0,0:0:0:0:
337,169,181290,1,0,0:0:0:0:
337,169,181576,1,8,0:0:0:0:
115,162,181719,2,0,L|58:166,1,47.9999985351563,0|0,0:0|0:0,0:0:0:0:
30,238,181862,2,0,B|83:273|83:273|225:258,1,191.999994140625,0|8,0:0|0:0,0:0:0:0:
389,218,182290,1,0,0:0:0:0:
258,165,182433,1,0,0:0:0:0:
246,358,182576,1,0,0:0:0:0:
246,358,182648,1,0,0:0:0:0:
246,358,182719,1,8,0:0:0:0:
462,265,182862,2,0,P|471:240|471:212,1,47.9999985351563,0|0,0:0|0:0,0:0:0:0:
452,141,183005,6,0,B|432:44|432:44|330:58,1,191.999994140625,12|8,0:0|0:0,0:0:0:0:
190,188,183433,1,0,0:0:0:0:
339,315,183576,2,0,L|354:206,1,95.9999970703126,8|0,0:0|0:0,0:0:0:0:
127,16,183862,2,0,L|139:122,1,95.9999970703126,8|0,0:0|0:0,0:0:0:0:
74,164,184076,1,0,0:0:0:0:
74,164,184148,2,0,P|23:240|65:331,1,191.999994140625,0|8,0:0|0:0,0:0:0:0:
280,364,184576,1,0,0:0:0:0:
115,247,184719,2,0,L|228:243,1,95.9999970703126,0|0,0:0|0:0,0:0:0:0:
367,281,185005,1,8,0:0:0:0:
177,381,185148,38,0,L|174:322,1,47.9999985351563,0|0,0:0|0:0,0:0:0:0:
163,164,185290,1,4,0:0:0:0:
276,315,185433,1,0,0:0:0:0:
245,69,185576,1,8,0:0:0:0:
199,255,185719,1,0,0:0:0:0:
445,229,185862,1,0,0:0:0:0:
445,229,186148,1,8,0:0:0:0:
244,166,186290,1,0,0:0:0:0:
380,98,186433,5,8,0:0:0:0:
339,319,186576,1,0,0:0:0:0:
339,319,186648,1,0,0:0:0:0:
339,319,186719,1,8,0:0:0:0:
150,191,186862,1,0,0:0:0:0:
445,229,187005,2,0,L|391:222,1,47.9999985351563,8|0,0:0|0:0,0:0:0:0:
252,272,187148,2,0,L|198:265,1,47.9999985351563,0|0,0:0|0:0,0:0:0:0:
54,350,187290,2,0,P|25:293|53:205,1,143.999995605469,8|0,0:0|0:0,0:0:0:0:
91,156,187576,6,0,L|76:60,1,95.9999970703126,4|0,0:0|0:0,0:0:0:0:
256,15,187862,2,0,L|271:111,1,95.9999970703126,8|0,0:0|0:0,0:0:0:0:
432,276,188148,2,0,P|338:302|242:321,1,191.999994140625,0|8,0:0|0:0,0:0:0:0:
28,171,188576,1,0,0:0:0:0:
28,171,188648,1,0,0:0:0:0:
28,171,188719,2,0,P|79:180|134:195,1,95.9999970703126,0|0,0:0|0:0,0:0:0:0:
336,88,189005,2,0,P|302:127|262:167,1,95.9999970703126,8|0,0:0|0:0,0:0:0:0:
104,314,189290,1,0,0:0:0:0:
263,384,189433,2,0,P|245:335|230:280,1,95.9999970703126,0|8,0:0|0:0,0:0:0:0:
180,101,189719,37,0,0:0:0:0:
180,101,189790,1,0,0:0:0:0:
180,101,189862,1,4,0:0:0:0:
370,63,190005,1,0,0:0:0:0:
250,199,190148,1,8,0:0:0:0:
261,6,190290,1,0,0:0:0:0:
368,179,190433,2,0,B|406:216|406:216|411:274,1,95.9999970703126,0|0,0:0|0:0,0:0:0:0:
154,367,190719,2,0,B|139:315|139:315|164:263,1,95.9999970703126,8|0,0:0|0:0,0:0:0:0:
226,239,190933,5,0,0:0:0:0:
226,239,191005,2,0,P|132:235|28:229,1,191.999994140625,0|8,0:0|0:0,0:0:0:0:
68,80,191433,1,0,0:0:0:0:
194,145,191576,1,0,0:0:0:0:
68,333,191719,1,0,0:0:0:0:
68,333,191790,1,0,0:0:0:0:
68,333,191862,1,0,0:0:0:0:
273,364,192005,2,0,L|328:358,1,47.9999985351563,0|0,0:0|0:0,0:0:0:0:
390,324,192148,6,0,P|411:284|407:221,1,95.9999970703126,0|0,0:0|0:0,0:0:0:0:
214,159,192433,2,0,P|193:199|197:262,1,95.9999970703126,8|0,0:0|0:0,0:0:0:0:
465,84,192719,2,0,B|417:101|369:68|369:68|328:34|270:44,1,191.999994140625,0|8,0:0|0:0,0:0:0:0:
301,241,193148,1,0,0:0:0:0:
301,241,193219,1,0,0:0:0:0:
301,241,193290,2,0,L|419:222,1,95.9999970703126,0|0,0:0|0:0,0:0:0:0:
183,74,193576,2,0,L|65:93,1,95.9999970703126,8|0,0:0|0:0,0:0:0:0:
39,248,193862,1,0,0:0:0:0:
195,344,194005,2,0,L|211:230,1,95.9999970703126,0|8,0:0|0:0,0:0:0:0:
23,39,194290,38,0,P|12:70|18:101,1,47.9999985351563,0|0,0:0|0:0,0:0:0:0:
41,164,194433,1,4,0:0:0:0:
211,40,194576,1,0,0:0:0:0:
213,215,194719,1,8,0:0:0:0:
89,45,194862,1,0,0:0:0:0:
297,133,195005,2,0,P|324:173|328:223,1,95.9999970703126,0|0,0:0|0:0,0:0:0:0:
129,308,195290,2,0,P|102:268|98:218,1,95.9999970703126,8|0,0:0|0:0,0:0:0:0:
395,346,195576,5,0,0:0:0:0:
226,226,195719,1,0,0:0:0:0:
226,226,195790,1,0,0:0:0:0:
226,226,195862,1,8,0:0:0:0:
306,35,196005,1,0,0:0:0:0:
210,349,196148,37,6,0:0:0:0:
210,349,196719,6,0,P|154:362|85:339,1,128,2|0,0:0|0:0,0:0:0:0:
42,270,197148,2,0,L|39:136,1,128,2|0,0:0|0:0,0:0:0:0:
68,64,197576,1,2,0:0:0:0:
137,110,197719,1,0,0:0:0:0:
424,110,199005,6,0,L|441:246,1,128,2|0,0:0|0:0,0:0:0:0:
388,302,199433,2,0,P|322:312|261:284,1,128,2|0,0:0|0:0,0:0:0:0:
221,218,199862,1,0,0:0:0:0:
303,208,200005,1,2,0:0:0:0:
55,57,201290,6,0,L|194:46,1,128,2|0,0:0|0:0,0:0:0:0:
239,108,201719,2,0,P|296:125|375:100,1,128,2|0,0:0|0:0,0:0:0:0:
424,53,202148,2,0,L|493:45,1,64,2|0,0:0|0:0,0:0:0:0:
415,327,203576,38,0,L|272:320,1,128,2|0,0:0|0:0,0:0:0:0:
207,346,204005,2,0,P|132:331|73:354,1,128,2|2,0:0|0:0,0:0:0:0:
4,368,204433,2,0,L|-4:290,1,64,0|0,0:0|0:0,0:0:0:0:
43,222,204719,1,0,0:0:0:0:
125,229,204862,1,2,0:0:0:0:
174,162,205005,1,2,0:0:0:0:
256,174,205148,54,0,P|288:169|331:168,1,64,2|0,0:0|0:0,0:0:0:0:
