osu file format v14

[General]
AudioFilename: Ghost Rule.mp3
AudioLeadIn: 0
PreviewTime: 48076
Countdown: 0
SampleSet: Normal
StackLeniency: 0.7
Mode: 0
LetterboxInBreaks: 0
WidescreenStoryboard: 0

[Editor]
Bookmarks: 77933,111290,111362,111433,111505,111576,123576,151005,178290,179005
DistanceSpacing: 0.5
BeatDivisor: 4
GridSize: 4
TimelineZoom: 1

[Metadata]
Title:Ghost Rule
TitleUnicode:ゴーストルール
Artist:DECO*27
ArtistUnicode:DECO*27
Creator:Awaken
Version:Mayday
Source:
Tags:ボーカロイド vocaloid Naoki Itai MUSIC FOR MUSIC Regraz Mafumafu Evil_Twilight HabiHolic Flask Nasya N_a_s_y_a caren_sk val0108 z1085684963 hatsune miku 初音ミク japanese novelty
BeatmapID:960875
BeatmapSetID:413117

[Difficulty]
HPDrainRate:5
CircleSize:4
OverallDifficulty:9.8
ApproachRate:9.4
SliderMultiplier:1.7
SliderTickRate:1

[Events]
//Background and Video events
0,0,"Ghost.jpg",0,0
//Break Periods
2,9490,17179
2,66633,74322
2,123776,132179
2,151204,157036
//Storyboard Layer 0 (Background)
//Storyboard Layer 1 (Fail)
//Storyboard Layer 2 (Pass)
//Storyboard Layer 3 (Foreground)
//Storyboard Layer 4 (Overlay)
//Storyboard Sound Samples

[TimingPoints]
148,285.714285714286,4,1,1,40,1,0
8005,-100,4,1,1,60,0,0
18433,-100,4,1,1,50,0,0
27576,-100,4,1,1,55,0,0
47719,-200,4,1,1,50,0,0
48148,-83.3333333333333,4,1,1,70,0,1
48576,-100,4,1,1,70,0,1
52719,-83.3333333333333,4,1,1,70,0,1
53148,-100,4,1,1,70,0,1
57005,-200,4,1,1,80,0,1
58862,-100,4,1,1,70,0,1
65862,-100,4,1,1,70,0,0
75576,-200,4,2,1,50,0,0
84719,-100,4,1,1,55,0,0
93862,-83.3333333333333,4,1,1,80,0,0
101862,-200,4,1,1,80,0,0
104862,-200,4,1,1,80,0,0
105290,-83.3333333333333,4,1,1,80,0,1
105862,-100,4,1,1,80,0,1
109862,-83.3333333333333,4,1,1,80,0,1
110433,-100,4,1,1,80,0,1
114148,-200,4,1,1,80,0,1
114433,-100,4,1,1,80,0,1
123005,-100,4,1,1,80,0,0
132719,-200,4,1,1,40,0,0
141862,-100,4,1,1,50,0,0
157576,-200,4,1,1,40,0,0
157862,-200,4,2,2,80,0,0
159719,-100,4,1,1,50,0,0
160148,-83.3333333333333,4,1,1,70,0,1
160576,-100,4,1,1,70,0,1
164719,-83.3333333333333,4,1,1,70,0,1
165148,-100,4,1,1,70,0,1
169290,-83.3333333333333,4,1,1,80,0,1
173719,-66.6666666666667,4,1,1,90,0,1
178362,-66.6666666666667,4,1,1,90,0,0
178433,-66.6666666666667,4,1,1,90,0,1
187005,-50,4,1,1,80,0,1
187505,-50,4,1,1,80,0,0
187576,-50,4,1,1,80,0,1
191005,-66.6666666666667,4,1,1,80,0,1
196148,-66.6666666666667,4,1,1,80,0,0
196719,-200,4,2,1,30,0,0

[Colours]
Combo1 : 145,0,0
Combo2 : 114,231,120
Combo3 : 78,210,214
Combo4 : 29,131,214
Combo5 : 255,53,53

[HitObjects]
256,192,148,12,4,8005,0:0:0:0:
153,87,8291,5,0,0:0:0:0:
153,87,8362,1,0,0:0:0:0:
153,87,8433,1,8,0:0:0:0:
240,235,8576,1,0,0:0:0:0:
241,72,8719,5,8,0:0:0:0:
155,233,8862,1,0,0:0:0:0:
185,11,9005,1,8,0:0:0:0:
348,166,9148,1,0,0:0:0:0:
87,286,9290,1,4,0:0:0:0:
60,183,17719,5,0,0:0:0:0:
60,183,17790,1,0,0:0:0:0:
60,183,17862,1,0,0:0:0:0:
181,91,18005,1,0,0:0:0:0:
100,264,18148,1,8,0:0:0:0:
366,207,18290,1,0,0:0:0:0:
187,210,18433,38,0,L|198:307,1,85,4|0,0:0|0:0,0:0:0:0:
290,142,18719,2,0,L|291:50,1,85,8|0,0:0|0:0,0:0:0:0:
456,218,19005,2,0,P|437:268|407:291,1,85
193,347,19290,2,0,P|252:344|284:363,1,85,8|0,0:0|0:0,0:0:0:0:
456,358,19576,1,0,0:0:0:0:
310,273,19719,1,0,0:0:0:0:
310,273,19790,1,0,0:0:0:0:
310,273,19862,1,8,0:0:0:0:
490,203,20005,1,0,0:0:0:0:
385,303,20148,5,0,0:0:0:0:
417,148,20290,1,0,0:0:0:0:
318,353,20433,1,8,0:0:0:0:
498,288,20576,1,0,0:0:0:0:
337,193,20719,6,0,P|325:141|338:96,1,85,0|0,0:0|0:0,0:0:0:0:
220,16,21005,1,8,0:0:0:0:
95,228,21148,2,0,P|115:286|155:310,1,85,0|0,0:0|0:0,0:0:0:0:
338,273,21433,1,0,0:0:0:0:
251,93,21576,1,8,0:0:0:0:
175,235,21719,1,0,0:0:0:0:
337,193,21862,37,0,0:0:0:0:
177,142,22005,1,0,0:0:0:0:
177,142,22076,1,0,0:0:0:0:
177,142,22148,1,8,0:0:0:0:
262,294,22290,1,0,0:0:0:0:
328,113,22433,5,0,0:0:0:0:
175,235,22576,1,0,0:0:0:0:
175,235,22648,1,0,0:0:0:0:
175,235,22719,2,0,L|237:228,1,42.5,8|0,0:0|0:0,0:0:0:0:
380,323,22862,2,0,L|327:318,1,42.5,0|0,0:0|0:0,0:0:0:0:
106,297,23005,6,0,P|84:249|95:207,1,85,4|0,0:0|0:0,0:0:0:0:
328,113,23290,2,0,P|350:161|339:203,1,85,8|0,0:0|0:0,0:0:0:0:
170,92,23576,2,0,P|148:44|159:2,1,85,0|0,0:0|0:0,0:0:0:0:
420,235,23862,2,0,P|369:273|326:276,1,85,8|0,0:0|0:0,0:0:0:0:
62,227,24148,2,0,P|145:193|247:224,1,170,0|8,0:0|0:0,0:0:0:0:
394,357,24576,2,0,P|339:360|297:347,1,85,0|0,0:0|0:0,0:0:0:0:
455,178,24862,37,0,0:0:0:0:
295,196,25005,1,8,0:0:0:0:
455,178,25148,1,0,0:0:0:0:
215,153,25290,2,0,P|204:194|213:236,1,85,0|0,0:0|0:0,0:0:0:0:
404,273,25576,1,8,0:0:0:0:
168,369,25719,2,0,P|124:352|97:297,1,85,0|0,0:0|0:0,0:0:0:0:
378,173,26005,1,0,0:0:0:0:
273,289,26148,1,8,0:0:0:0:
289,104,26290,5,0,0:0:0:0:
289,104,26362,1,0,0:0:0:0:
289,104,26433,1,0,0:0:0:0:
459,208,26576,1,0,0:0:0:0:
286,200,26719,1,8,0:0:0:0:
424,26,26862,1,0,0:0:0:0:
378,173,27005,6,0,L|379:194,6,21.25,0|0|0|0|0|0|0,0:0|0:0|0:0|0:0|0:0|0:0|0:0,0:0:0:0:
425,290,27290,2,0,L|416:343,1,42.5,12|0,0:0|0:0,0:0:0:0:
264,302,27433,2,0,L|236:337,1,42.5,0|0,0:0|0:0,0:0:0:0:
152,228,27576,38,0,P|111:241|51:226,1,85,4|0,0:0|0:0,0:0:0:0:
208,63,27862,2,0,P|249:50|309:65,1,85,8|0,0:0|0:0,0:0:0:0:
426,249,28148,2,0,P|385:262|325:247,1,85
102,350,28433,2,0,P|144:343|204:365,1,85,8|0,0:0|0:0,0:0:0:0:
329,151,28719,5,0,0:0:0:0:
263,258,28862,1,0,0:0:0:0:
247,123,29005,1,8,0:0:0:0:
338,233,29148,1,0,0:0:0:0:
208,200,29290,5,0,0:0:0:0:
419,174,29433,1,0,0:0:0:0:
305,44,29576,1,8,0:0:0:0:
295,311,29719,1,0,0:0:0:0:
295,311,29790,1,0,0:0:0:0:
295,311,29862,38,0,P|336:320|383:307,1,85
512,210,30148,1,8,0:0:0:0:
242,163,30290,2,0,P|189:175|147:162,1,85
324,89,30576,1,0,0:0:0:0:
203,251,30719,1,8,0:0:0:0:
410,238,30862,5,0,0:0:0:0:
255,139,31005,2,0,P|239:93|251:43,1,85
281,282,31290,2,0,P|249:318|199:333,1,85,8|0,0:0|0:0,0:0:0:0:
215,331,31505,1,0,0:0:0:0:
215,331,31576,1,0,0:0:0:0:
333,188,31719,1,0,0:0:0:0:
360,384,31862,1,8,0:0:0:0:
203,251,32005,1,0,0:0:0:0:
426,238,32148,6,0,P|439:193|428:149,1,85,4|0,0:0|0:0,0:0:0:0:
247,141,32433,2,0,P|235:181|245:223,1,85,8|0,0:0|0:0,0:0:0:0:
426,47,32719,2,0,L|328:31,1,85
333,188,33005,1,8,0:0:0:0:
437,315,33148,1,0,0:0:0:0:
437,315,33219,1,0,0:0:0:0:
437,315,33290,2,0,L|343:326,1,85
195,141,33576,1,8,0:0:0:0:
250,380,33719,1,0,0:0:0:0:
245,216,33862,54,0,P|243:263|217:313,1,85
228,297,34076,1,0,0:0:0:0:
228,297,34148,1,8,0:0:0:0:
419,84,34290,1,0,0:0:0:0:
350,242,34433,54,0,P|341:190|344:138,1,85
486,218,34719,1,8,0:0:0:0:
353,340,34862,1,0,0:0:0:0:
353,340,34933,1,0,0:0:0:0:
353,340,35005,1,0,0:0:0:0:
226,185,35148,1,0,0:0:0:0:
266,383,35290,1,8,0:0:0:0:
326,231,35433,21,0,0:0:0:0:
326,231,35505,1,0,0:0:0:0:
326,231,35576,2,0,L|316:287,1,42.5
235,266,35719,2,0,L|225:322,1,42.5
144,292,35862,2,0,L|134:348,1,42.5,8|0,0:0|0:0,0:0:0:0:
57,318,36005,37,0,0:0:0:0:
57,318,36076,1,8,0:0:0:0:
57,318,36148,1,8,0:0:0:0:
235,266,36290,1,8,0:0:0:0:
387,384,36433,1,0,0:0:0:0:
512,231,36576,1,0,0:0:0:0:
356,66,36719,6,0,L|371:253,1,170,4|0,0:0|0:0,0:0:0:0:
186,145,37148,1,0,0:0:0:0:
235,352,37290,2,0,L|252:252,1,85,8|0,0:0|0:0,0:0:0:0:
65,322,37576,2,0,B|82:276|82:276|55:176,1,127.5
36,125,37862,6,0,P|58:175|104:209,1,85
297,240,38148,2,0,P|275:290|229:324,1,85
231,53,38433,2,0,L|331:42,1,85,8|0,0:0|0:0,0:0:0:0:
315,43,38648,1,0,0:0:0:0:
315,43,38719,1,0,0:0:0:0:
429,182,38862,1,0,0:0:0:0:
172,152,39005,38,0,B|135:200|135:200|161:329,1,170
301,346,39433,1,0,0:0:0:0:
357,89,39576,2,0,B|394:137|394:137|368:266,1,170,8|0,0:0|0:0,0:0:0:0:
172,152,40005,1,0,0:0:0:0:
388,272,40148,5,0,0:0:0:0:
149,302,40290,1,0,0:0:0:0:
269,98,40433,1,0,0:0:0:0:
301,346,40576,1,0,0:0:0:0:
172,152,40719,5,8,0:0:0:0:
388,272,40862,1,0,0:0:0:0:
367,268,40933,1,0,0:0:0:0:
345,264,41005,1,0,0:0:0:0:
179,376,41148,1,0,0:0:0:0:
269,98,41290,38,0,L|291:295,1,170
94,221,41719,1,0,0:0:0:0:
185,65,41862,2,0,B|256:72|256:72|284:59|284:59|360:67,1,170,8|0,0:0|0:0,0:0:0:0:
273,297,42290,1,0,0:0:0:0:
431,178,42433,2,0,L|436:280,1,85
435,262,42648,1,0,0:0:0:0:
435,262,42719,1,0,0:0:0:0:
261,174,42862,1,0,0:0:0:0:
158,345,43005,6,0,L|358:332,1,170,8|0,0:0|0:0,0:0:0:0:
261,174,43433,1,0,0:0:0:0:
60,204,43576,2,0,P|102:219|153:217,1,85
300,65,43862,2,0,L|405:79,1,85
317,279,44148,2,0,B|278:233|303:160|303:160|260:173,1,170,8|0,0:0|0:0,0:0:0:0:
224,364,44576,1,0,0:0:0:0:
430,224,44719,5,0,0:0:0:0:
148,208,44862,1,0,0:0:0:0:
148,208,44933,1,0,0:0:0:0:
148,208,45005,1,0,0:0:0:0:
390,323,45148,1,0,0:0:0:0:
322,130,45290,37,8,0:0:0:0:
224,364,45433,1,8,0:0:0:0:
322,130,45576,1,8,0:0:0:0:
224,364,45719,1,8,0:0:0:0:
209,64,45862,5,2,0:0:0:0:
256,192,45933,12,0,47862,0:0:0:0:
131,229,48148,54,0,P|126:182|148:122,1,101.999996887207,4|0,0:0|0:0,0:0:0:0:
455,162,48433,2,0,P|460:209|438:269,1,101.999996887207,8|0,0:0|0:0,0:0:0:0:
131,229,48719,1,0,0:0:0:0:
253,81,48862,1,0,0:0:0:0:
368,205,49005,1,8,0:0:0:0:
253,81,49148,1,0,0:0:0:0:
236,205,49290,2,0,L|241:302,1,85
455,162,49576,1,8,0:0:0:0:
500,356,49719,6,0,L|415:347,1,85
343,60,50005,1,0,0:0:0:0:
245,237,50148,2,0,L|337:226,1,85,8|0,0:0|0:0,0:0:0:0:
330,227,50362,1,0,0:0:0:0:
330,227,50433,1,4,0:0:0:0:
138,327,50576,1,0,0:0:0:0:
227,128,50719,1,8,0:0:0:0:
311,371,50862,1,0,0:0:0:0:
444,239,51005,53,0,0:0:0:0:
245,320,51148,1,0,0:0:0:0:
357,99,51290,1,8,0:0:0:0:
510,307,51433,1,0,0:0:0:0:
315,241,51576,2,0,P|300:196|309:137,1,85,0|0,0:0|0:0,0:0:0:0:
505,171,51862,1,8,0:0:0:0:
401,319,52005,5,0,0:0:0:0:
401,319,52076,1,0,0:0:0:0:
401,319,52148,2,0,L|405:265,1,42.5,0|0,0:0|0:0,0:0:0:0:
261,316,52290,2,0,L|266:366,1,42.5,0|0,0:0|0:0,0:0:0:0:
315,241,52433,2,0,B|266:224|266:224|221:236|221:236|179:225,1,127.5,8|0,0:0|0:0,0:0:0:0:
111,196,52719,54,0,P|88:135|103:81,1,101.999996887207,4|0,0:0|0:0,0:0:0:0:
410,106,53005,2,0,P|414:156|393:202,1,101.999996887207,8|0,0:0|0:0,0:0:0:0:
241,318,53290,5,0,0:0:0:0:
237,76,53433,1,0,0:0:0:0:
382,284,53576,1,8,0:0:0:0:
393,150,53719,1,0,0:0:0:0:
150,204,53862,6,0,B|101:209|101:209|42:190,1,85
258,0,54148,1,8,0:0:0:0:
308,262,54290,2,0,P|320:219|310:157,1,85
109,127,54576,1,0,0:0:0:0:
267,340,54719,2,0,P|316:350|363:332,1,85,8|0,0:0|0:0,0:0:0:0:
348,340,54933,1,0,0:0:0:0:
348,340,55005,1,0,0:0:0:0:
424,171,55148,37,0,0:0:0:0:
181,317,55290,1,8,0:0:0:0:
298,77,55433,1,0,0:0:0:0:
427,332,55576,5,0,0:0:0:0:
287,159,55719,1,0,0:0:0:0:
85,271,55862,1,8,0:0:0:0:
309,0,56005,1,0,0:0:0:0:
310,239,56148,2,0,P|262:237|224:209,1,85,0|0,0:0|0:0,0:0:0:0:
231,217,56362,1,8,0:0:0:0:
231,217,56433,1,8,0:0:0:0:
414,196,56576,1,0,0:0:0:0:
233,345,56719,5,8,0:0:0:0:
218,116,56862,1,8,0:0:0:0:
233,345,57005,2,0,P|265:350|310:340,1,63.75,8|0,0:0|0:0,0:0:0:0:
358,300,57290,37,4,0:0:0:0:
485,357,57433,1,0,0:0:0:0:
327,215,57576,5,8,0:0:0:0:
511,259,57719,1,0,0:0:0:0:
272,142,57862,5,0,0:0:0:0:
508,157,58005,1,0,0:0:0:0:
214,76,58148,37,8,0:0:0:0:
475,54,58290,1,0,0:0:0:0:
135,46,58433,5,4,0:0:0:0:
425,132,58576,1,0,0:0:0:0:
173,351,58719,1,8,0:0:0:0:
315,89,58862,1,0,0:0:0:0:
315,89,58933,1,0,0:0:0:0:
315,89,59005,2,0,L|311:148,1,42.5
202,261,59148,2,0,L|199:196,1,42.5
333,296,59290,2,0,L|329:355,1,42.5,8|0,0:0|0:0,0:0:0:0:
209,121,59433,5,0,0:0:0:0:
209,121,59505,1,0,0:0:0:0:
209,121,59576,1,4,0:0:0:0:
397,217,59719,1,0,0:0:0:0:
123,280,59862,1,8,0:0:0:0:
221,35,60005,1,0,0:0:0:0:
254,337,60148,37,0,0:0:0:0:
254,337,60433,1,8,0:0:0:0:
209,121,60576,1,0,0:0:0:0:
463,178,60719,6,0,P|476:133|461:88,1,85
254,190,61005,1,8,0:0:0:0:
422,301,61148,1,0,0:0:0:0:
422,301,61219,1,0,0:0:0:0:
422,301,61290,2,0,L|464:295,1,42.5
296,184,61433,2,0,L|253:189,1,42.5
191,354,61576,2,0,L|234:349,1,42.5,8|0,0:0|0:0,0:0:0:0:
52,233,61719,5,0,0:0:0:0:
52,233,61790,1,0,0:0:0:0:
52,233,61862,1,4,0:0:0:0:
324,288,62005,1,0,0:0:0:0:
348,15,62148,37,8,0:0:0:0:
392,366,62290,1,0,0:0:0:0:
134,212,62433,5,0,0:0:0:0:
411,257,62576,1,0,0:0:0:0:
432,5,62719,5,8,0:0:0:0:
483,335,62862,1,0,0:0:0:0:
301,85,63005,37,0,0:0:0:0:
506,237,63148,1,0,0:0:0:0:
212,305,63290,1,8,0:0:0:0:
414,214,63433,1,0,0:0:0:0:
414,214,63505,1,0,0:0:0:0:
414,214,63576,2,0,L|411:257,1,42.5
289,372,63719,2,0,L|292:329,1,42.5
166,149,63862,2,0,L|157:200,1,42.5,8|0,0:0|0:0,0:0:0:0:
46,318,64005,5,0,0:0:0:0:
46,318,64076,1,0,0:0:0:0:
46,318,64148,1,4,0:0:0:0:
267,219,64290,1,0,0:0:0:0:
96,89,64433,1,8,0:0:0:0:
126,343,64576,1,0,0:0:0:0:
351,205,64719,1,0,0:0:0:0:
351,205,65005,5,8,0:0:0:0:
130,252,65148,1,0,0:0:0:0:
442,129,65290,37,0,0:0:0:0:
460,172,65361,1,0,0:0:0:0:
459,220,65432,1,0,0:0:0:0:
440,263,65504,1,0,0:0:0:0:
405,295,65575,1,8,0:0:0:0:
360,310,65647,1,0,0:0:0:0:
313,306,65718,1,0,0:0:0:0:
271,284,65789,1,0,0:0:0:0:
242,246,65861,1,0,0:0:0:0:
242,246,66433,5,4,0:0:0:0:
260,15,74862,5,0,0:0:0:0:
260,15,74933,1,0,0:0:0:0:
260,15,75005,1,0,0:0:0:0:
185,102,75148,1,0,0:0:0:0:
315,166,75290,1,8,0:0:0:0:
174,270,75433,1,0,0:0:0:0:
356,351,75576,37,4,3:0:0:0:
502,230,77862,6,0,P|465:207|423:204,1,85,0|2,0:0|0:0,0:0:0:0:
398,101,78290,2,0,P|369:107|313:86,1,85,0|2,0:0|0:0,0:0:0:0:
264,189,78719,1,0,0:0:0:0:
264,189,78862,2,0,L|178:192,1,85,0|2,0:0|0:0,0:0:0:0:
81,273,79290,2,0,L|131:267,2,42.5
252,343,80719,6,0,P|233:292|366:343,1,340,2|0,0:0|0:0,0:0:0:0:
309,292,82433,38,0,L|301:239,1,42.5,2|0,0:0|0:0,0:0:0:0:
462,226,82719,2,0,L|456:268,1,42.5,2|0,0:0|0:0,0:0:0:0:
361,371,83005,1,2,0:0:0:0:
361,371,83576,22,0,P|334:383|305:381,1,42.5,0|8,0:0|0:0,0:0:0:0:
210,324,83862,2,0,P|197:303|193:273,1,42.5
265,169,84148,2,0,P|292:157|321:159,1,42.5,0|8,0:0|0:0,0:0:0:0:
446,263,84433,2,0,P|419:275|390:273,1,42.5,0|8,0:0|0:0,0:0:0:0:
292,60,84719,38,0,L|464:72,1,170,4|8,0:0|0:0,0:0:0:0:
319,242,85148,1,0,0:0:0:0:
435,163,85290,5,2,0:0:0:0:
465,342,85433,1,0,0:0:0:0:
246,292,85576,2,0,P|233:243|247:199,1,85,8|0,0:0|0:0,0:0:0:0:
416,258,85862,5,2,0:0:0:0:
296,362,86005,1,0,0:0:0:0:
343,157,86148,1,8,0:0:0:0:
504,261,86290,1,2,0:0:0:0:
319,242,86433,1,0,0:0:0:0:
496,168,86576,1,2,0:0:0:0:
319,242,86719,1,8,0:0:0:0:
331,53,86862,37,0,0:0:0:0:
331,53,86933,1,0,0:0:0:0:
331,53,87005,2,0,L|431:52,1,85,2|0,0:0|0:0,0:0:0:0:
152,139,87290,1,8,0:0:0:0:
400,200,87433,2,0,P|411:252|399:295,1,85,2|0,0:0|0:0,0:0:0:0:
257,109,87719,1,0,0:0:0:0:
400,200,87862,1,10,0:0:0:0:
180,241,88005,1,0,0:0:0:0:
330,149,88148,6,0,P|338:100|319:57,1,85,2|0,0:0|0:0,0:0:0:0:
326,67,88362,1,0,0:0:0:0:
326,67,88433,1,8,0:0:0:0:
254,189,88576,1,0,0:0:0:0:
404,282,88719,1,0,0:0:0:0:
229,279,88862,1,2,0:0:0:0:
400,200,89005,1,8,0:0:0:0:
255,105,89148,1,2,0:0:0:0:
180,346,89290,6,0,P|219:362|261:356,1,85,4|0,0:0|0:0,0:0:0:0:
400,200,89576,2,0,P|441:194|480:210,1,85,8|0,0:0|0:0,0:0:0:0:
229,279,89862,2,0,P|181:199|233:120,1,170,2|8,0:0|0:0,0:0:0:0:
361,205,90290,1,0,0:0:0:0:
361,205,90433,2,0,L|356:303,1,85,2|0,0:0|0:0,0:0:0:0:
479,188,90719,2,0,L|472:93,1,85,8|0,0:0|0:0,0:0:0:0:
257,193,91005,1,2,0:0:0:0:
352,341,91148,1,0,0:0:0:0:
381,121,91290,1,8,0:0:0:0:
352,341,91433,53,0,0:0:0:0:
352,341,91505,1,0,0:0:0:0:
352,341,91576,2,0,P|310:352|261:343,1,85,2|0,0:0|0:0,0:0:0:0:
57,240,91862,2,0,P|99:229|148:238,1,85,8|0,0:0|0:0,0:0:0:0:
306,264,92148,1,2,0:0:0:0:
158,367,92290,1,0,0:0:0:0:
205,117,92433,1,8,0:0:0:0:
205,284,92576,53,0,0:0:0:0:
205,284,92648,1,0,0:0:0:0:
205,284,92719,2,0,L|192:233,1,42.5,2|0,0:0|0:0,0:0:0:0:
338,312,92862,2,0,L|325:261,1,42.5
475,326,93005,2,0,L|462:275,1,42.5,2|0,0:0|0:0,0:0:0:0:
512,199,93148,5,0,0:0:0:0:
512,199,93219,1,8,0:0:0:0:
512,199,93290,1,10,0:0:0:0:
307,316,93433,1,8,0:0:0:0:
105,202,93576,1,2,0:0:0:0:
295,51,93719,1,8,0:0:0:0:
399,339,93862,6,0,B|283:371|317:312|178:362,2,203.999993774414,4|0|2,0:0|0:0|0:0,0:0:0:0:
363,59,94719,38,0,P|301:40|251:52,1,101.999996887207,2|0,0:0|0:0,0:0:0:0:
165,117,95005,1,2,0:0:0:0:
153,238,95148,1,0,0:0:0:0:
250,310,95290,1,2,0:0:0:0:
370,288,95433,1,0,0:0:0:0:
417,175,95576,1,2,0:0:0:0:
417,175,95862,2,10,L|301:156,1,101.999996887207,8|10,0:0|0:0,0:0:0:0:
194,178,96148,6,2,P|161:274|211:358,1,203.999993774414,2|0,0:0|0:0,0:0:0:0:
332,360,96576,1,0,0:0:0:0:
436,295,96719,1,2,0:0:0:0:
417,175,96862,1,0,0:0:0:0:
304,126,97005,1,0,0:0:0:0:
304,126,97290,6,0,L|180:143,1,101.999996887207,2|0,0:0|0:0,0:0:0:0:
25,33,97576,2,0,L|136:47,1,101.999996887207,2|0,0:0|0:0,0:0:0:0:
80,193,97862,2,0,L|86:306,1,101.999996887207,2|0,0:0|0:0,0:0:0:0:
406,114,98148,1,0,0:0:0:0:
406,114,98433,38,2,B|374:28|290:46|290:46|232:103|276:166|276:166|363:183|370:259,2,407.999987548829,4|2|2,0:0|0:0|0:0,0:0:0:0:
265,255,99719,21,0,0:0:0:0:
479,243,99862,1,0,0:0:0:0:
173,382,100005,1,0,0:0:0:0:
389,375,100148,1,2,0:0:0:0:
173,382,100433,37,0,0:0:0:0:
369,278,100576,1,2,0:0:0:0:
509,374,100719,2,0,L|294:360,2,203.999993774414,4|0|0,0:0|0:0|0:0,0:0:0:0:
305,360,101576,6,0,L|192:370,1,101.999996887207
85,198,101862,1,0,0:0:0:0:
337,243,102005,1,0,0:0:0:0:
337,243,102076,1,0,0:0:0:0:
337,243,102148,1,0,0:0:0:0:
19,257,102290,1,0,0:0:0:0:
253,44,102433,53,8,0:0:0:0:
185,332,102576,1,8,0:0:0:0:
253,44,102719,1,8,0:0:0:0:
185,332,102862,1,8,0:0:0:0:
104,22,103005,5,2,0:0:0:0:
256,192,103076,12,0,105005,0:0:0:0:
175,135,105290,54,0,B|163:77|163:77|176:16,1,101.999996887207,4|0,0:0|0:0,0:0:0:0:
421,247,105576,2,0,B|405:301|405:301|365:344,1,101.999996887207,8|0,0:0|0:0,0:0:0:0:
282,97,105862,1,0,0:0:0:0:
470,158,106005,1,0,0:0:0:0:
264,267,106148,1,8,0:0:0:0:
295,8,106290,1,0,0:0:0:0:
328,172,106433,22,0,P|295:182|237:170,1,85
412,52,106719,1,8,0:0:0:0:
450,314,106862,2,0,P|405:298|360:306,1,85
470,158,107148,1,0,0:0:0:0:
207,330,107290,2,0,P|184:291|192:233,1,85,8|0,0:0|0:0,0:0:0:0:
328,172,107576,53,0,0:0:0:0:
264,267,107719,1,0,0:0:0:0:
342,76,107862,1,8,0:0:0:0:
376,309,108005,1,0,0:0:0:0:
262,119,108148,5,0,0:0:0:0:
420,227,108290,1,0,0:0:0:0:
207,330,108433,1,8,0:0:0:0:
262,119,108576,1,0,0:0:0:0:
376,309,108719,2,0,P|423:318|480:302,1,85,0|0,0:0|0:0,0:0:0:0:
498,157,109005,1,8,0:0:0:0:
220,225,109148,2,0,L|321:211,1,85,0|0,0:0|0:0,0:0:0:0:
442,75,109433,2,0,L|384:69,1,42.5,0|8,0:0|0:0,0:0:0:0:
291,127,109576,2,0,B|345:138|345:138|368:152|368:152|433:158,1,127.5,8|0,0:0|0:0,0:0:0:0:
478,201,109862,54,0,P|490:252|474:297,1,101.999996887207
145,270,110148,2,0,P|133:219|149:174,1,101.999996887207,12|0,0:0|0:0,0:0:0:0:
386,253,110433,1,0,0:0:0:0:
239,344,110576,1,0,0:0:0:0:
291,127,110719,1,8,0:0:0:0:
339,344,110862,1,0,0:0:0:0:
217,179,111005,6,0,P|201:139|209:89,1,85
364,174,111290,1,8,0:0:0:0:
263,295,111433,2,0,P|216:305|168:296,1,85
484,310,111719,1,0,0:0:0:0:
366,257,111862,2,0,L|371:355,1,85,8|0,0:0|0:0,0:0:0:0:
370,341,112076,1,0,0:0:0:0:
370,341,112148,37,0,0:0:0:0:
291,127,112290,1,0,0:0:0:0:
263,295,112433,1,12,0:0:0:0:
450,227,112576,1,0,0:0:0:0:
407,89,112719,5,0,0:0:0:0:
299,223,112862,1,0,0:0:0:0:
379,12,113005,1,8,0:0:0:0:
505,144,113148,1,0,0:0:0:0:
221,186,113290,6,0,P|206:137|223:90,1,85,0|0,0:0|0:0,0:0:0:0:
213,105,113505,1,8,0:0:0:0:
213,105,113576,1,8,0:0:0:0:
380,185,113719,1,0,0:0:0:0:
159,273,113862,1,8,0:0:0:0:
239,27,114005,1,8,0:0:0:0:
356,267,114148,38,0,P|396:268|426:254,1,63.75,8|0,0:0|0:0,0:0:0:0:
466,197,114433,5,4,0:0:0:0:
413,11,114576,1,0,0:0:0:0:
356,267,114719,5,8,0:0:0:0:
290,58,114862,1,0,0:0:0:0:
225,295,115005,37,0,0:0:0:0:
157,81,115148,1,0,0:0:0:0:
70,293,115291,5,8,0:0:0:0:
22,74,115434,1,0,0:0:0:0:
301,193,115576,5,4,0:0:0:0:
11,228,115719,1,0,0:0:0:0:
225,295,115862,1,8,0:0:0:0:
109,176,116005,1,0,0:0:0:0:
109,176,116076,1,0,0:0:0:0:
109,176,116148,2,0,L|116:232,1,42.5
230,337,116290,2,0,L|224:294,1,42.5
271,63,116433,2,0,L|278:119,1,42.5,8|0,0:0|0:0,0:0:0:0:
380,298,116576,37,0,0:0:0:0:
380,298,116648,1,0,0:0:0:0:
380,298,116719,1,4,0:0:0:0:
205,176,116862,1,0,0:0:0:0:
380,69,117005,1,8,0:0:0:0:
282,223,117148,1,0,0:0:0:0:
330,4,117290,5,0,0:0:0:0:
330,4,117576,1,8,0:0:0:0:
282,223,117719,1,0,0:0:0:0:
123,156,117862,2,0,P|100:109|108:70,1,85,0|0,0:0|0:0,0:0:0:0:
282,223,118148,1,8,0:0:0:0:
122,356,118290,2,0,P|166:345|217:355,1,85,0|0,0:0|0:0,0:0:0:0:
249,364,118505,5,0,0:0:0:0:
299,384,118576,1,0,0:0:0:0:
353,379,118647,1,0,0:0:0:0:
399,350,118719,1,8,0:0:0:0:
427,304,118790,1,0,0:0:0:0:
432,250,118862,1,0,0:0:0:0:
412,200,118933,1,0,0:0:0:0:
371,164,119004,37,4,0:0:0:0:
158,237,119148,1,0,0:0:0:0:
320,93,119290,5,8,0:0:0:0:
113,312,119433,1,0,0:0:0:0:
249,38,119576,5,0,0:0:0:0:
175,377,119719,1,0,0:0:0:0:
170,25,119862,37,8,0:0:0:0:
256,341,120005,1,0,0:0:0:0:
90,42,120148,5,0,0:0:0:0:
245,259,120290,1,0,0:0:0:0:
320,93,120433,1,8,0:0:0:0:
155,151,120576,1,0,0:0:0:0:
155,151,120648,1,0,0:0:0:0:
155,151,120719,2,0,L|213:144,1,42.5,0|0,0:0|0:0,0:0:0:0:
356,253,120862,2,0,L|417:244,1,42.5
411,27,121005,2,0,L|472:18,1,42.5,8|0,0:0|0:0,0:0:0:0:
507,178,121148,5,0,0:0:0:0:
507,178,121219,1,0,0:0:0:0:
507,178,121290,1,4,0:0:0:0:
277,179,121433,1,0,0:0:0:0:
436,114,121576,1,8,0:0:0:0:
458,315,121719,1,0,0:0:0:0:
374,166,121862,1,0,0:0:0:0:
374,166,122148,37,8,0:0:0:0:
83,238,122290,1,0,0:0:0:0:
298,335,122433,5,0,0:0:0:0:
318,286,122504,1,0,0:0:0:0:
316,233,122575,1,0,0:0:0:0:
291,187,122647,1,0,0:0:0:0:
249,155,122718,1,8,0:0:0:0:
198,145,122790,1,0,0:0:0:0:
146,157,122861,1,0,0:0:0:0:
106,191,122932,1,0,0:0:0:0:
83,238,123004,1,0,0:0:0:0:
85,254,123576,5,4,0:0:0:0:
111,102,132719,38,0,L|156:93,1,42.5,0|0,0:0|0:0,0:0:0:0:
164,187,133005,2,0,L|209:178,1,42.5
224,268,133290,2,0,L|269:259,1,42.5,0|0,0:0|0:0,0:0:0:0:
277,353,133576,2,0,L|322:344,1,42.5
429,353,133862,5,0,0:0:0:0:
429,353,134148,1,0,0:0:0:0:
429,353,134433,1,0,0:0:0:0:
429,353,134719,1,0,0:0:0:0:
498,228,135005,6,0,P|501:198|496:175,1,42.5,0|0,0:0|0:0,0:0:0:0:
407,199,135290,2,0,P|394:171|378:154,1,42.5
304,209,135576,2,0,P|291:181|275:164,1,42.5,0|0,0:0|0:0,0:0:0:0:
210,229,135862,2,0,P|185:211|161:207,1,42.5
158,298,136148,37,0,0:0:0:0:
158,298,136433,1,0,0:0:0:0:
158,298,136719,1,0,0:0:0:0:
232,329,136862,1,0,0:0:0:0:
312,320,137005,1,0,0:0:0:0:
369,263,137148,1,0,0:0:0:0:
382,183,137290,6,0,L|376:135,1,42.5,0|0,0:0|0:0,0:0:0:0:
487,127,137576,2,0,L|492:84,1,42.5
292,199,137862,2,0,L|286:151,1,42.5
476,255,138148,2,0,L|481:212,1,42.5
417,77,138433,5,0,0:0:0:0:
385,225,138719,2,0,L|382:183,2,42.5
484,138,139148,2,0,L|480:180,2,42.5
417,77,139576,38,0,P|379:56|321:56,1,85
241,19,140005,1,0,0:0:0:0:
241,19,140148,2,0,P|202:42|156:47,1,85
292,133,140576,1,0,0:0:0:0:
292,133,140719,2,0,P|261:118|240:113,1,42.5
202,202,141005,2,0,P|223:199|245:199,1,42.5
234,278,141290,2,0,P|209:302|197:320,1,42.5
266,383,141576,2,0,P|269:362|277:343,1,42.5
386,276,141862,6,0,P|370:226|330:196,1,85,12|0,0:0|0:0,0:0:0:0:
172,123,142148,2,0,P|225:111|252:68,1,85
507,62,142433,6,0,P|459:38|367:99,1,170,8|0,0:0|0:0,0:0:0:0:
269,273,142862,1,0,0:0:0:0:
269,273,142933,1,0,0:0:0:0:
269,273,143005,2,0,P|255:217|228:184,1,85,0|0,0:0|0:0,0:0:0:0:
436,320,143290,2,0,P|394:360|379:400,1,85
371,206,143576,38,0,P|437:215|501:138,1,170,8|0,0:0|0:0,0:0:0:0:
297,144,144005,1,0,0:0:0:0:
297,144,144076,1,0,0:0:0:0:
297,144,144148,2,0,P|271:198|280:242,1,85
190,364,144433,2,0,P|179:315|137:280,1,85
60,155,144719,2,0,P|116:148|150:120,1,85,8|0,0:0|0:0,0:0:0:0:
370,98,145005,2,0,P|327:64|290:62,1,85
210,211,145290,5,0,0:0:0:0:
277,262,145433,1,0,0:0:0:0:
361,253,145576,1,0,0:0:0:0:
401,178,145719,1,0,0:0:0:0:
370,98,145862,5,8,0:0:0:0:
420,186,146005,1,0,0:0:0:0:
402,286,146148,1,0,0:0:0:0:
312,333,146290,1,0,0:0:0:0:
210,324,146433,38,0,L|111:310,1,85
110,223,146719,2,0,L|195:235,1,85
402,286,147005,6,0,L|486:297,1,85,8|0,0:0|0:0,0:0:0:0:
497,213,147291,2,0,L|413:202,1,85
175,141,147576,6,0,L|76:127,1,85,0|0,0:0|0:0,0:0:0:0:
270,6,147862,2,0,P|278:47|269:89,1,85
305,269,148148,2,0,P|296:310|304:352,1,85,8|0,0:0|0:0,0:0:0:0:
492,104,148433,2,0,L|408:93,1,85
339,188,148719,38,0,B|448:233|416:163|519:199,1,170
406,279,149148,1,0,0:0:0:0:
417,109,149290,2,0,L|404:296,1,170,8|0,0:0|0:0,0:0:0:0:
269,89,149719,1,0,0:0:0:0:
274,250,149862,1,8,0:0:0:0:
189,275,150005,1,8,0:0:0:0:
108,247,150148,1,8,0:0:0:0:
78,167,150290,1,8,0:0:0:0:
98,87,150433,6,0,P|163:180|4:207,1,340,8|4,0:0|0:0,0:0:0:0:
288,269,157576,5,8,0:0:0:0:
288,269,157648,1,0,0:0:0:0:
288,269,157719,1,0,0:0:0:0:
288,269,157790,1,0,0:0:0:0:
288,269,157862,2,0,B|239:241|186:268|186:268|153:231|110:227|110:227|149:190|146:140|146:140|131:84|161:47|161:47|215:12|282:57,1,510
253,176,159719,2,0,L|247:115,1,42.5
343,211,159862,2,0,B|334:265|334:265|341:291|341:291|330:354,1,127.5,8|0,0:0|0:0,0:0:0:0:
257,373,160148,54,0,P|204:377|137:357,1,101.999996887207,4|0,0:0|0:0,0:0:0:0:
156,48,160433,2,4,P|209:44|276:64,1,101.999996887207,12|0,0:0|0:0,0:0:0:0:
435,217,160719,1,0,0:0:0:0:
221,273,160862,1,0,0:0:0:0:
409,130,161005,1,8,0:0:0:0:
481,345,161148,1,0,0:0:0:0:
330,162,161290,2,0,P|322:116|337:75,1,85,0|0,0:0|0:0,0:0:0:0:
512,186,161576,5,8,0:0:0:0:
380,325,161719,2,0,P|324:337|279:320,1,85,0|0,0:0|0:0,0:0:0:0:
174,79,162005,1,0,0:0:0:0:
221,254,162148,2,0,L|229:160,1,85,8|0,0:0|0:0,0:0:0:0:
228,169,162362,1,0,0:0:0:0:
228,169,162433,1,0,0:0:0:0:
393,243,162576,1,0,0:0:0:0:
135,214,162719,1,8,0:0:0:0:
278,23,162862,1,0,0:0:0:0:
316,283,163005,37,0,0:0:0:0:
291,109,163148,1,0,0:0:0:0:
481,251,163290,1,8,0:0:0:0:
138,299,163433,1,0,0:0:0:0:
374,160,163576,6,0,P|390:116|382:66,1,85,0|0,0:0|0:0,0:0:0:0:
236,257,163862,1,8,0:0:0:0:
342,369,164005,1,0,0:0:0:0:
342,369,164076,1,0,0:0:0:0:
342,369,164148,2,0,L|402:361,1,42.5,0|0,0:0|0:0,0:0:0:0:
481,251,164290,2,0,L|421:243,1,42.5,0|0,0:0|0:0,0:0:0:0:
248,114,164433,2,0,L|308:106,1,42.5,8|0,0:0|0:0,0:0:0:0:
236,257,164576,5,0,0:0:0:0:
158,279,164648,1,0,0:0:0:0:
76,268,164719,2,0,P|53:208|63:161,1,101.999996887207
404,45,165005,2,0,P|427:105|417:152,1,101.999996887207,12|0,0:0|0:0,0:0:0:0:
135,201,165290,1,0,0:0:0:0:
344,104,165433,1,0,0:0:0:0:
303,296,165576,1,8,0:0:0:0:
274,51,165719,1,0,0:0:0:0:
386,293,165862,21,4,0:0:0:0:
108,275,166005,1,0,0:0:0:0:
344,104,166148,1,8,0:0:0:0:
246,368,166290,1,0,0:0:0:0:
150,103,166433,2,0,L|162:177,1,42.5
308,224,166576,2,0,L|312:167,1,42.5
353,9,166719,1,8,0:0:0:0:
237,65,166862,21,0,0:0:0:0:
237,65,166933,1,0,0:0:0:0:
237,65,167005,2,0,B|244:109|244:109|238:153,1,85,4|0,0:0|0:0,0:0:0:0:
117,334,167290,2,0,B|110:290|110:290|116:246,1,85,8|0,0:0|0:0,0:0:0:0:
323,184,167576,1,0,0:0:0:0:
199,287,167719,1,0,0:0:0:0:
237,65,167862,1,8,0:0:0:0:
285,271,168005,5,0,0:0:0:0:
288,287,168076,1,0,0:0:0:0:
291,303,168148,1,0,0:0:0:0:
329,342,168219,1,0,0:0:0:0:
383,345,168290,1,0,0:0:0:0:
430,315,168362,1,0,0:0:0:0:
450,264,168433,1,8,0:0:0:0:
442,208,168505,1,0,0:0:0:0:
406,166,168576,1,0,0:0:0:0:
390,112,168648,1,0,0:0:0:0:
398,57,168719,37,0,0:0:0:0:
352,87,168790,1,0,0:0:0:0:
297,96,168862,1,0,0:0:0:0:
242,94,168933,1,0,0:0:0:0:
192,69,169005,37,8,0:0:0:0:
172,148,169076,37,0,0:0:0:0:
231,207,169148,37,0,0:0:0:0:
239,290,169219,21,0,0:0:0:0:
180,352,169290,38,0,P|124:357|66:329,1,101.999996887207
344,197,169576,2,4,P|400:192|458:220,1,101.999996887207,12|0,0:0|0:0,0:0:0:0:
142,273,169862,1,0,0:0:0:0:
302,82,170005,1,0,0:0:0:0:
403,316,170148,1,8,0:0:0:0:
302,82,170290,1,0,0:0:0:0:
180,352,170433,6,0,P|124:357|66:329,1,101.999996887207,4|0,0:0|0:0,0:0:0:0:
323,212,170719,1,8,0:0:0:0:
491,373,170862,2,0,L|506:265,1,101.999996887207
231,178,171148,21,0,0:0:0:0:
403,316,171290,1,8,0:0:0:0:
337,27,171433,1,0,0:0:0:0:
337,27,171505,1,0,0:0:0:0:
337,27,171576,1,4,0:0:0:0:
241,267,171719,1,0,0:0:0:0:
511,185,171862,1,8,0:0:0:0:
306,111,172005,1,0,0:0:0:0:
398,365,172148,37,0,0:0:0:0:
158,318,172290,1,0,0:0:0:0:
311,196,172433,1,8,0:0:0:0:
503,270,172576,1,0,0:0:0:0:
241,268,172719,2,0,P|216:211|221:161,1,101.999996887207,4|0,0:0|0:0,0:0:0:0:
367,42,173005,1,8,0:0:0:0:
409,275,173148,21,0,0:0:0:0:
409,275,173219,1,0,0:0:0:0:
409,275,173290,2,0,L|414:203,1,50.9999984436036
262,80,173433,2,0,L|264:143,1,50.9999984436036
164,368,173576,2,0,L|153:287,1,50.9999984436036,12|0,0:0|0:0,0:0:0:0:
31,85,173719,5,0,0:0:0:0:
31,85,173790,1,0,0:0:0:0:
31,85,173862,2,0,P|6:151|33:225,1,127.500004863739,0|0,0:0|0:0,0:0:0:0:
475,344,174148,2,4,P|500:278|473:204,1,127.500004863739,12|4,0:0|0:0,0:0:0:0:
104,151,174433,1,0,0:0:0:0:
409,279,174576,1,0,0:0:0:0:
236,0,174719,1,12,0:0:0:0:
209,321,174862,1,0,0:0:0:0:
379,142,175005,6,0,P|411:78|404:3,1,127.500004863739,0|0,0:0|0:0,0:0:0:0:
152,241,175290,1,12,0:0:0:0:
371,362,175433,2,0,P|434:358|492:381,1,127.500004863739,0|0,0:0|0:0,0:0:0:0:
305,87,175719,1,0,0:0:0:0:
195,349,175862,2,0,P|131:352|73:329,1,127.500004863739,12|0,0:0|0:0,0:0:0:0:
220,83,176148,53,4,0:0:0:0:
386,268,176290,1,0,0:0:0:0:
73,329,176433,1,8,0:0:0:0:
250,9,176576,1,0,0:0:0:0:
481,204,176719,5,0,0:0:0:0:
142,58,176862,1,0,0:0:0:0:
146,371,177005,1,8,0:0:0:0:
481,204,177148,1,0,0:0:0:0:
23,133,177290,2,0,P|1:195|29:260,1,127.500004863739,8|0,0:0|0:0,0:0:0:0:
88,294,177505,1,0,0:0:0:0:
164,282,177576,1,8,0:0:0:0:
229,241,177648,1,0,0:0:0:0:
304,234,177719,1,0,0:0:0:0:
375,259,177790,1,0,0:0:0:0:
431,311,177862,54,0,P|428:344|420:374,1,63.7500024318696,8|0,0:0|0:0,0:0:0:0:
277,149,178005,2,0,P|309:146|350:154,1,63.7500024318696,8|0,0:0|0:0,0:0:0:0:
174,344,178148,2,0,P|165:313|163:281,1,63.7500024318696,8|0,0:0|0:0,0:0:0:0:
128,140,178290,2,0,P|125:108|116:77,1,63.7500024318696,8|0,0:0|0:0,0:0:0:0:
0,13,178433,5,12,0:0:0:0:
47,293,178576,1,0,0:0:0:0:
125,53,178719,53,8,0:0:0:0:
172,333,178862,1,0,0:0:0:0:
265,76,179005,5,8,0:0:0:0:
312,357,179148,1,0,0:0:0:0:
415,97,179290,53,8,0:0:0:0:
462,377,179433,1,0,0:0:0:0:
490,53,179576,21,0,0:0:0:0:
405,320,179719,1,0,0:0:0:0:
146,249,179862,1,8,0:0:0:0:
234,0,180005,1,0,0:0:0:0:
498,152,180148,1,0,0:0:0:0:
340,384,180291,1,0,0:0:0:0:
62,204,180433,1,8,0:0:0:0:
512,268,180576,1,0,0:0:0:0:
234,0,180719,37,4,0:0:0:0:
405,320,180862,1,0,0:0:0:0:
234,0,181005,1,8,0:0:0:0:
132,365,181148,1,0,0:0:0:0:
498,152,181290,1,0,0:0:0:0:
498,152,181576,21,8,0:0:0:0:
221,83,181719,1,0,0:0:0:0:
221,83,181790,1,0,0:0:0:0:
221,83,181862,1,0,0:0:0:0:
74,298,182005,1,0,0:0:0:0:
512,268,182148,1,8,0:0:0:0:
247,201,182290,37,0,0:0:0:0:
262,227,182362,1,0,0:0:0:0:
279,255,182433,1,0,0:0:0:0:
325,193,182505,1,0,0:0:0:0:
320,117,182576,1,0,0:0:0:0:
282,49,182648,1,0,0:0:0:0:
214,13,182719,2,0,P|204:61|213:96,1,63.7500024318696,8|0,0:0|0:0,0:0:0:0:
121,194,182862,2,0,P|122:225|112:256,1,63.7500024318696
0,371,183005,5,12,0:0:0:0:
47,91,183148,1,0,0:0:0:0:
125,331,183291,53,8,0:0:0:0:
172,51,183434,1,0,0:0:0:0:
265,308,183577,5,8,0:0:0:0:
312,27,183720,1,0,0:0:0:0:
415,287,183862,53,8,0:0:0:0:
462,7,184005,1,0,0:0:0:0:
22,53,184148,21,0,0:0:0:0:
107,320,184290,1,0,0:0:0:0:
366,249,184433,1,8,0:0:0:0:
278,0,184576,1,0,0:0:0:0:
14,152,184719,1,0,0:0:0:0:
172,384,184862,1,0,0:0:0:0:
450,204,185004,1,8,0:0:0:0:
0,268,185147,1,0,0:0:0:0:
278,0,185290,53,4,0:0:0:0:
107,320,185433,1,0,0:0:0:0:
278,0,185576,1,8,0:0:0:0:
397,360,185719,1,0,0:0:0:0:
14,152,185861,1,0,0:0:0:0:
14,152,186148,5,8,0:0:0:0:
354,45,186291,1,0,0:0:0:0:
354,45,186362,1,0,0:0:0:0:
354,45,186434,1,8,0:0:0:0:
397,360,186576,1,0,0:0:0:0:
397,360,186648,1,0,0:0:0:0:
397,360,186719,1,8,0:0:0:0:
181,267,186862,37,0,0:0:0:0:
181,267,186933,1,0,0:0:0:0:
181,267,187005,2,0,P|166:223|178:166,1,85,8|0,0:0|0:0,0:0:0:0:
463,311,187148,2,0,P|432:345|377:364,1,85
354,45,187290,2,0,P|399:54|442:92,1,85,8|0,0:0|0:0,0:0:0:0:
512,180,187433,1,0,0:0:0:0:
512,180,187505,1,0,0:0:0:0:
512,180,187576,5,4,0:0:0:0:
86,93,187719,1,0,0:0:0:0:
512,180,187862,53,8,0:0:0:0:
86,93,188005,1,0,0:0:0:0:
512,180,188148,5,0,0:0:0:0:
86,93,188291,1,0,0:0:0:0:
512,180,188433,53,8,0:0:0:0:
86,93,188576,1,0,0:0:0:0:
512,180,188719,5,0,0:0:0:0:
86,93,188862,1,0,0:0:0:0:
512,180,189005,53,8,0:0:0:0:
86,93,189148,1,0,0:0:0:0:
138,358,189290,53,0,0:0:0:0:
309,56,189433,1,0,0:0:0:0:
472,286,189576,1,8,0:0:0:0:
151,171,189719,5,0,0:0:0:0:
151,171,189790,1,0,0:0:0:0:
151,171,189862,1,4,0:0:0:0:
397,356,190005,1,0,0:0:0:0:
309,56,190148,1,8,0:0:0:0:
206,306,190290,1,0,0:0:0:0:
90,7,190433,1,0,0:0:0:0:
90,7,190719,53,8,0:0:0:0:
138,358,190862,1,0,0:0:0:0:
138,358,190933,1,0,0:0:0:0:
138,358,191005,1,0,0:0:0:0:
411,172,191148,1,0,0:0:0:0:
40,97,191290,1,8,0:0:0:0:
216,219,191433,21,0,0:0:0:0:
258,232,191505,1,0,0:0:0:0:
300,246,191576,1,0,0:0:0:0:
304,168,191648,1,0,0:0:0:0:
254,110,191719,1,0,0:0:0:0:
180,89,191790,1,0,0:0:0:0:
102,87,191862,2,0,L|26:99,1,63.7500024318696
0,195,192005,2,0,P|4:234|17:262,1,63.7500024318696
53,357,192148,53,0,0:0:0:0:
512,283,192290,1,0,0:0:0:0:
53,357,192433,5,8,0:0:0:0:
512,283,192575,1,0,0:0:0:0:
53,357,192719,53,0,0:0:0:0:
512,283,192861,1,0,0:0:0:0:
53,357,193005,5,8,0:0:0:0:
512,283,193147,1,0,0:0:0:0:
53,357,193290,53,0,0:0:0:0:
512,283,193432,1,0,0:0:0:0:
53,357,193576,5,8,0:0:0:0:
512,283,193719,1,0,0:0:0:0:
234,29,193862,1,0,0:0:0:0:
181,384,194005,1,0,0:0:0:0:
453,119,194148,1,8,0:0:0:0:
73,195,194290,21,0,0:0:0:0:
73,195,194362,1,0,0:0:0:0:
73,195,194433,1,4,0:0:0:0:
412,384,194576,1,0,0:0:0:0:
307,0,194719,1,8,0:0:0:0:
53,357,194862,1,0,0:0:0:0:
512,189,195005,21,0,0:0:0:0:
512,189,195290,1,8,0:0:0:0:
170,24,195433,1,0,0:0:0:0:
181,384,195576,1,0,0:0:0:0:
502,329,195719,1,0,0:0:0:0:
502,329,195790,1,0,0:0:0:0:
502,329,195862,1,8,0:0:0:0:
3,161,196005,1,0,0:0:0:0:
479,13,196148,1,6,0:0:0:0:
90,23,196719,22,0,P|125:11|170:24,1,85,2|0,0:0|0:0,0:0:0:0:
244,73,197148,2,0,L|344:62,1,85,2|0,0:0|0:0,0:0:0:0:
402,16,197576,1,2,0:0:0:0:
396,295,199005,22,0,L|301:277,1,85,2|0,0:0|0:0,0:0:0:0:
223,302,199433,2,0,P|181:311|139:293,1,85,2|0,0:0|0:0,0:0:0:0:
84,228,199862,2,0,L|79:175,1,42.5,0|2,0:0|0:0,0:0:0:0:
393,63,201290,38,0,P|410:101|404:150,1,85,2|0,0:0|0:0,0:0:0:0:
363,225,201719,2,0,P|359:266|376:305,1,85,2|0,0:0|0:0,0:0:0:0:
446,337,202148,2,0,L|499:327,1,42.5,2|0,0:0|0:0,0:0:0:0:
307,352,202433,2,0,B|206:312|225:363|139:338,1,170,0|2,0:0|0:0,0:0:0:0:
102,102,203576,6,0,P|149:80|187:85,1,85,2|0,0:0|0:0,0:0:0:0:
262,181,204005,2,0,P|215:203|177:198,1,85,2|2,0:0|0:0,0:0:0:0:
288,62,204433,2,0,L|340:73,1,42.5
404,148,204719,5,0,0:0:0:0:
362,221,204862,1,2,0:0:0:0:
460,261,205005,1,2,0:0:0:0:
466,340,205148,2,0,L|471:387,1,42.5,2|0,0:0|0:0,0:0:0:0:
