osu file format v14

[General]
AudioFilename: Find The Light - Kuroneko Edit -.mp3
AudioLeadIn: 0
PreviewTime: 75839
Countdown: 0
SampleSet: Soft
StackLeniency: 0.7
Mode: 0
LetterboxInBreaks: 0
WidescreenStoryboard: 0

[Editor]
Bookmarks: 12624,21767,40053,58339,67482
DistanceSpacing: 1.2
BeatDivisor: 4
GridSize: 16
TimelineZoom: 1

[Metadata]
Title:Find The Light - Kuroneko Edit -
TitleUnicode:Find The Light - 黒猫 Edit -
Artist:DECO*27
ArtistUnicode:DECO*27
Creator:Awaken
Version:Kuroneko
Source:
Tags:vocaloid hatsune miku 魔法使いと黒猫のウィズ 初音ミク
BeatmapID:821545
BeatmapSetID:375071

[Difficulty]
HPDrainRate:9
CircleSize:4
OverallDifficulty:9
ApproachRate:9.3
SliderMultiplier:1.8
SliderTickRate:1

[Events]
//Background and Video events
0,0,"Konachan.com - 206602 sample.jpg",0,0
//Break Periods
2,17253,22356
//Storyboard Layer 0 (Background)
//Storyboard Layer 1 (Fail)
//Storyboard Layer 2 (Pass)
//Storyboard Layer 3 (Foreground)
//Storyboard Sound Samples

[TimingPoints]
3482,285.714285714286,4,2,0,100,1,0
21767,-200,4,2,0,100,0,0
76482,-100,4,2,0,100,0,1
124624,-100,4,2,0,100,0,0

[HitObjects]
256,192,1767,12,0,3339,0:0:0:0:
120,295,3481,5,0,0:0:0:0:
188,147,3624,1,0,0:0:0:0:
336,216,3767,1,0,0:0:0:0:
267,363,3910,1,0,0:0:0:0:
83,179,4053,5,0,0:0:0:0:
151,31,4196,1,0,0:0:0:0:
299,100,4339,1,0,0:0:0:0:
230,247,4482,1,0,0:0:0:0:
6,152,4624,6,0,P|0:196|16:238,1,90
399,140,4910,2,0,P|405:95|389:54,1,90
83,179,5196,53,0,0:0:0:0:
299,100,5339,1,0,0:0:0:0:
83,179,5482,1,0,0:0:0:0:
299,100,5624,1,0,0:0:0:0:
151,31,5767,21,0,0:0:0:0:
230,247,5910,1,0,0:0:0:0:
299,100,6053,1,0,0:0:0:0:
83,179,6196,1,0,0:0:0:0:
188,147,6339,53,0,0:0:0:0:
465,239,6482,1,0,0:0:0:0:
369,51,6624,1,0,0:0:0:0:
277,335,6767,1,0,0:0:0:0:
419,164,6910,2,0,P|477:154|505:164,1,90
278,336,7196,2,0,P|220:346|192:336,1,90
230,247,7482,5,0,0:0:0:0:
423,342,7625,1,0,0:0:0:0:
230,247,7768,1,0,0:0:0:0:
423,342,7910,1,0,0:0:0:0:
369,51,8053,5,0,0:0:0:0:
337,219,8196,1,0,0:0:0:0:
170,187,8339,1,0,0:0:0:0:
201,17,8482,1,0,0:0:0:0:
77,194,8624,53,0,0:0:0:0:
140,353,8767,1,0,0:0:0:0:
299,292,8910,1,0,0:0:0:0:
238,135,9053,1,0,0:0:0:0:
122,267,9196,2,0,P|81:280|21:257,1,90
193,61,9482,2,0,P|234:48|294:71,1,90
202,292,9767,5,0,0:0:0:0:
118,116,9910,1,0,0:0:0:0:
202,292,10053,1,0,0:0:0:0:
118,116,10196,1,0,0:0:0:0:
303,202,10339,2,0,L|299:292,1,90
193,61,10624,2,0,L|197:150,1,90
441,148,10910,2,0,L|436:237,1,90
71,194,11195,2,0,L|75:283,1,90
261,132,11482,5,0,0:0:0:0:
217,207,11624,1,0,0:0:0:0:
268,126,11767,1,0,0:0:0:0:
212,215,11910,1,0,0:0:0:0:
192,61,12053,5,0,0:0:0:0:
269,282,12196,1,0,0:0:0:0:
192,61,12339,1,0,0:0:0:0:
269,282,12482,1,0,0:0:0:0:
273,34,12624,5,0,0:0:0:0:
103,204,12767,1,0,0:0:0:0:
393,324,12910,1,0,0:0:0:0:
393,83,13053,1,0,0:0:0:0:
153,323,13196,1,0,0:0:0:0:
442,203,13339,1,0,0:0:0:0:
153,83,13481,1,0,0:0:0:0:
274,372,13624,1,0,0:0:0:0:
512,240,13767,6,0,P|518:208|497:143,1,90
260,195,14053,2,0,P|254:227|275:292,1,90
493,332,14339,1,0,0:0:0:0:
354,227,14482,1,0,0:0:0:0:
493,332,14624,1,0,0:0:0:0:
354,227,14767,1,0,0:0:0:0:
153,323,14910,5,0,0:0:0:0:
442,203,15053,1,0,0:0:0:0:
272,34,15196,1,0,0:0:0:0:
103,204,15339,1,0,0:0:0:0:
393,324,15482,1,0,0:0:0:0:
393,83,15625,1,0,0:0:0:0:
153,83,15767,1,0,0:0:0:0:
274,371,15910,1,0,0:0:0:0:
480,83,16053,6,0,B|438:72|438:72|392:82,1,90
189,247,16339,2,0,B|231:258|231:258|276:247,1,90
512,253,16624,1,0,0:0:0:0:
309,133,16767,1,0,0:0:0:0:
512,253,16910,1,0,0:0:0:0:
309,133,17053,1,0,0:0:0:0:
335,112,22910,6,0,P|374:90|322:184,1,360
236,90,25196,2,0,L|213:84,2,22.5
198,296,26339,54,0,P|176:257|270:309,1,360
