osu file format v12

[General]
AudioFilename: Delusion Tax.mp3
AudioLeadIn: 0
PreviewTime: 71883
Countdown: 0
SampleSet: Soft
StackLeniency: 0.9
Mode: 0
LetterboxInBreaks: 1
WidescreenStoryboard: 0

[Editor]
Bookmarks: 3376,17704,24868,40987,51733,66062,73226,80390,119793,134121,141285,155613,169941,180688,195016,209344,214717
DistanceSpacing: 1.1
BeatDivisor: 4
GridSize: 4

[Metadata]
Title:Delusion Tax
TitleUnicode:Delusion Tax
Artist:DECO*27
ArtistUnicode:DECO*27
Creator:KisaragiShin
Version:Normal +
Source:niconico
Tags:Vocaloid Hatsune Miku Deco* 27
BeatmapID:300981
BeatmapSetID:116704

[Difficulty]
HPDrainRate:7
CircleSize:4
OverallDifficulty:3
ApproachRate:5
SliderMultiplier:1.5
SliderTickRate:4

[Events]
//Background and Video events
0,0,"delusion tax.jpg",0,0
//Break Periods
2,17865,23629
2,73386,79151
2,97565,132882
2,134282,140046
2,141446,168702
2,170102,179449
//Storyboard Layer 0 (Background)
//Storyboard Layer 1 (Fail)
//Storyboard Layer 2 (Pass)
//Storyboard Layer 3 (Foreground)
//Storyboard Sound Samples
//Background Colour Transformations
3,100,0,0,0

[TimingPoints]
3337.16068121311,447.757293064877,4,2,0,50,1,0
14531,-50,4,2,0,50,0,0
15650,-100,4,2,0,50,0,0
51733,-76.9230769230769,4,1,0,100,0,0
66062,-133.333333333333,4,1,0,100,0,0
71771,-200,4,1,0,100,0,0
80390,-100,4,1,0,100,0,0
118897,-66.6666666666667,4,1,0,100,0,0
141285,-133.333333333333,4,1,0,100,0,0
194120,-66.6666666666667,4,1,0,100,0,0

[Colours]
Combo1 : 187,235,99
Combo2 : 241,27,182
Combo3 : 132,180,120
Combo4 : 235,235,235
Combo5 : 213,201,117
Combo6 : 171,146,58
Combo7 : 164,171,135
Combo8 : 0,0,0

[HitObjects]
152,80,3337,5,2,2:2:0:0:
128,160,3561,2,2,P|104:216|104:248,1,75
128,308,4008,2,8,P|178:335|210:335,1,75,0|0,0:0|0:0,2:0:0:0:
184,252,4456,1,2,0:0:0:0:
312,356,4904,6,8,P|312:300|400:276,1,150
468,248,5575,1,0,0:0:0:0:
388,272,5799,1,0,0:0:0:0:
312,240,6023,2,8,P|256:224|224:232,1,75
44,76,6919,5,8,0:0:0:0:
80,152,7143,1,4,0:0:0:0:
128,216,7366,2,0,B|168:244|192:244|168:288,2,75
176,266,8038,2,0,L|168:304,1,37.5
216,188,8486,2,2,B|240:140|256:68|264:68|296:76|304:84,1,150
324,156,9158,2,0,P|292:188|276:244,2,75
360,228,9829,6,2,L|336:260,1,37.5
132,256,10501,1,0,0:0:0:0:
204,216,10725,1,0,0:0:0:0:
200,300,10949,1,0,0:0:0:0:
268,264,11172,1,0,0:0:0:0:
276,180,11396,2,8,P|308:148|380:140,1,112.5
472,212,12068,6,10,P|472:156|416:92,2,112.5
424,280,12963,2,2,P|400:216|400:200,2,75
244,108,14083,6,0,L|244:184,1,75
408,196,14531,1,0,0:0:0:0:
264,276,14754,1,0,0:0:0:0:
328,124,14978,1,0,0:0:0:0:
372,284,15202,2,0,L|324:224,1,75
408,316,15650,1,8,0:0:0:0:
296,196,16098,2,0,B|280:148|264:148|232:156|264:116|280:92|248:60,1,150
204,132,16769,2,0,B|240:164|264:156|272:180|224:212|248:236|272:260,1,150,8|4,0:0|0:0,0:0:0:0:
396,148,17665,69,4,2:0:0:0:
488,168,24829,21,8,0:0:0:0:
320,168,25277,1,8,0:0:0:0:
156,164,25725,2,8,B|164:116|180:116|204:116|228:116|260:116|252:164,1,150
196,216,26396,2,2,B|148:224|132:232|132:296|148:304|196:304,1,150
252,252,27068,1,2,0:0:0:0:
216,324,27292,1,2,0:0:0:0:
296,336,27516,1,0,0:0:0:0:
376,296,27739,2,8,L|304:256,1,75
152,296,28411,5,2,0:0:0:0:
72,304,28635,2,0,P|32:264|64:240,1,75
112,224,29083,1,0,0:0:0:0:
144,152,29307,1,0,0:0:0:0:
192,80,29530,22,2,P|232:72|256:112,3,75
328,128,30426,1,0,0:0:0:0:
296,200,30650,2,8,P|264:224|240:192,3,75
168,232,31545,2,4,P|144:280|208:296,1,112.5,4|4,0:0|0:0,3:0:0:0:
185,306,31993,6,0,L|288:288,1,75
304,368,32441,2,0,L|400:320,1,75
288,336,32889,2,0,L|344:256,1,75
372,284,33224,1,8,0:0:0:0:
452,192,33560,2,4,P|468:144|404:176,1,150
388,200,34120,2,2,P|380:160|332:176,1,75
268,60,34680,2,2,P|244:92|164:36,1,150
168,216,35575,2,0,L|244:220,2,75
240,220,36247,2,0,B|356:220|404:220,1,150
308,220,36918,6,0,P|304:268|264:296,1,75
292,120,37590,2,0,P|244:96|220:120,1,75
148,104,38038,21,0,0:0:0:0:
148,188,38262,1,0,0:0:0:0:
148,104,38486,1,0,0:0:0:0:
224,112,38709,2,0,B|216:160|208:216|224:256|240:288|272:280|304:264,1,225
376,304,39605,1,0,0:0:0:0:
464,168,40053,1,0,0:0:0:0:
352,48,40501,1,0,0:0:0:0:
188,64,40948,5,0,0:0:0:0:
188,64,41396,2,0,L|112:112,1,75
56,148,41844,2,0,B|76:196|120:244|104:252|88:260|192:280|188:260|228:260|176:228|224:216|308:184,1,300
324,264,42963,2,0,B|316:320|320:324|296:340,3,75
460,276,44083,1,0,0:0:0:0:
428,200,44306,1,0,0:0:0:0:
372,140,44530,1,0,0:0:0:0:
316,80,44754,2,0,L|264:56,1,37.5
188,220,45202,5,0,0:0:0:0:
188,220,45426,2,0,L|252:284,1,75
184,212,45874,1,0,0:0:0:0:
220,140,46097,2,0,P|267:143|291:179,1,75
332,232,46545,1,0,0:0:0:0:
332,232,46657,1,0,0:0:0:0:
416,316,46993,5,0,0:0:0:0:
476,260,47217,2,0,L|400:248,1,75
340,304,47665,2,0,L|260:288,1,75
256,192,48112,12,0,49456,0:0:0:0:
96,112,49903,2,0,L|60:152,1,37.5
152,124,50239,2,0,L|204:124,1,37.5
264,152,50575,2,0,L|252:116,1,37.5
320,212,51023,38,0,B|368:212|396:216|380:232,2,75
320,320,51694,2,0,P|276:320|236:280,1,56.2500021457673
196,244,52030,2,0,P|180:224|184:188,1,56.2500021457673
196,96,52366,2,0,P|224:48|244:40,1,48.7499977684022
340,160,52814,1,0,0:0:0:0:
372,60,53038,1,0,0:0:0:0:
444,140,53262,1,0,0:0:0:0:
424,244,53485,2,0,L|368:288,1,48.7499977684022
280,288,53821,2,0,P|232:276|220:268,1,56.2500021457673
224,172,54157,2,0,P|240:116|204:96,1,97.4999955368044
120,52,54605,22,0,P|176:100|244:96,2,112.500004291535
192,36,55277,1,0,0:0:0:0:
340,100,55612,1,0,0:0:0:0:
284,252,55948,1,0,0:0:0:0:
244,40,56396,2,0,B|328:104|216:96|156:32|116:80,1,194.999991073609
116,120,56956,2,0,B|184:124|240:144|260:160|220:184|188:184|172:200|136:224|220:252,1,243.749988842011
296,300,57739,1,0,0:0:0:0:
304,84,58187,1,0,0:0:0:0:
304,192,58411,1,0,0:0:0:0:
296,300,58635,1,0,0:0:0:0:
396,340,58859,6,0,B|344:320|288:332|276:392|256:304|232:272|180:264,1,225.000008583069
144,220,59530,2,0,P|165:167|213:139,1,112.500004291535
372,28,60202,1,0,0:0:0:0:
316,120,60426,2,0,P|352:152|400:128,1,97.4999955368044
412,244,60873,2,0,B|352:284|420:76|236:156,1,225.000008583069
100,56,61769,1,0,0:0:0:0:
56,152,61993,2,0,P|100:108|152:84,1,112.500004291535
216,140,62441,22,0,L|168:100,1,56.2500021457673
244,172,62776,2,0,L|292:136,1,56.2500021457673
260,232,63112,2,0,L|296:272,1,48.7499977684022
396,144,63560,2,0,P|444:180|436:240,2,112.500004291535
364,212,64232,2,0,B|304:240|288:244|284:236|272:212|264:200,1,112.500004291535
208,140,64679,1,0,0:0:0:0:
300,332,65127,21,0,0:0:0:0:
212,272,65351,1,0,0:0:0:0:
120,216,65575,1,0,0:0:0:0:
208,128,66023,101,0,0:0:0:0:
268,132,66247,1,0,0:0:0:0:
328,140,66470,1,0,0:0:0:0:
344,200,66694,2,0,L|308:176,6,28.1250010728836
308,240,67590,1,0,0:0:0:0:
280,296,67814,53,0,0:0:0:0:
224,268,68038,1,0,0:0:0:0:
168,244,68261,1,0,0:0:0:0:
116,212,68485,1,0,0:0:0:0:
128,152,68709,2,0,P|196:144|232:148,1,84.3750032186509
236,164,69157,2,0,L|268:200,1,28.1250010728836
320,232,69605,102,0,P|368:216|412:184,2,84.3750032186509
344,288,70500,2,0,P|396:268|416:268,2,56.2500021457673
376,340,71172,2,0,P|424:316|440:316,1,56.2500021457673
264,280,72291,2,0,P|224:276|200:268,1,56.25
188,268,72739,2,0,P|132:245|116:229,1,75
204,180,80351,5,0,0:0:0:0:
332,76,80799,1,0,0:0:0:0:
340,160,81023,1,0,0:0:0:0:
264,128,81246,1,0,0:0:0:0:
276,208,81470,2,0,B|236:228|456:240|376:260,1,150
348,280,82030,2,0,B|352:320|212:244|240:264,1,112.5
188,208,82590,5,0,0:0:0:0:
188,124,82814,2,0,L|188:80,4,37.5
104,120,83485,2,0,B|56:120|60:44|48:48,1,75
140,52,83933,1,0,0:0:0:0:
152,216,84381,1,0,0:0:0:0:
152,216,84605,1,0,0:0:0:0:
152,216,84828,2,0,B|156:284|156:304|200:304,1,112.5
195,303,85276,1,0,0:0:0:0:
256,192,85500,12,0,86396,0:0:0:0:
400,44,86620,6,0,L|396:136,1,75
336,64,87067,2,0,P|336:124|328:160,1,75
260,104,87515,2,0,B|220:8|208:96|176:220|152:96|152:16|104:124,1,225
100,192,88411,1,0,0:0:0:0:
160,248,88634,86,0,L|204:248,1,37.5
160,248,88858,2,0,L|160:312,1,37.5
160,248,89082,1,0,0:0:0:0:
244,248,89306,38,0,L|288:244,2,37.5
252,332,89754,2,0,L|312:344,2,37.5
320,288,90202,2,0,L|372:264,2,37.5
400,268,90649,2,0,B|440:244|448:200|436:120|388:120,1,150
260,184,91545,37,0,0:0:0:0:
256,100,91993,1,0,0:0:0:0:
92,96,92440,1,0,0:0:0:0:
92,180,92664,2,0,P|100:220|96:256,1,75
180,260,93112,2,0,P|160:316|160:352,1,75
240,340,93560,2,0,P|288:332|316:344,1,75
456,264,94231,2,0,B|416:280|392:256|480:204|468:192|448:192|384:208,1,150
400,203,94903,1,0,0:0:0:0:
336,252,95127,2,0,P|360:292|352:328,1,75
272,324,95575,2,0,P|200:304|184:284,1,75
201,305,95910,1,0,0:0:0:0:
84,264,96246,2,0,B|128:244|144:224|160:184|164:188|176:216|216:224,1,150
205,221,96918,2,0,B|272:196|284:196|288:216|272:216|260:240|308:272,1,150
248,124,134082,5,0,0:0:0:0:
172,144,141246,5,0,0:0:0:0:
152,184,169902,5,0,0:0:0:0:
256,192,180649,5,0,0:0:0:0:
272,168,181880,1,0,0:0:0:0:
88,172,182216,5,0,0:0:0:0:
324,160,183335,5,0,0:0:0:0:
216,268,184566,5,0,0:0:0:0:
204,272,188820,5,0,0:0:0:0:
204,272,193522,5,0,0:0:0:0:
204,272,196880,5,0,0:0:0:0:
204,272,200686,5,0,0:0:0:0:
204,272,204604,5,0,0:0:0:0:
204,272,208521,5,0,0:0:0:0:
204,272,211432,5,0,0:0:0:0:
168,148,214678,5,0,0:0:0:0:
