osu file format v12

[General]
AudioFilename: Ai Kotoba II.mp3
AudioLeadIn: 0
PreviewTime: 71035
Countdown: 0
SampleSet: Soft
StackLeniency: 0.7
Mode: 0
LetterboxInBreaks: 0
WidescreenStoryboard: 1

[Editor]
DistanceSpacing: 1.3
BeatDivisor: 4
GridSize: 4
TimelineZoom: 1

[Metadata]
Title:Ai Kotoba II
TitleUnicode:愛言葉II
Artist:DECO*27
ArtistUnicode:DECO*27
Creator:Tsumetaku
Version:Insane
Source:
Tags:Vocaloid Hatsune Miku V3 Love words kous awoko あをこ Deco27 Mutaro 夢太郎 これからもありがとうBOX
BeatmapID:315101
BeatmapSetID:123354

[Difficulty]
HPDrainRate:6
CircleSize:4
OverallDifficulty:7
ApproachRate:8
SliderMultiplier:1.8
SliderTickRate:1

[Events]
//Background and Video events
0,0,"maxresdefault.jpg",0,0
Video,0,"Ai Kotoba II.avi"
//Break Periods
2,103641,114955
//Storyboard Layer 0 (Background)
//Storyboard Layer 1 (Fail)
//Storyboard Layer 2 (Pass)
//Storyboard Layer 3 (Foreground)
//Storyboard Sound Samples
//Background Colour Transformations
3,100,163,162,255

[TimingPoints]
14976,437.956204379562,4,2,3,55,1,0
15851,437.956204379562,4,2,3,55,1,0
29865,-100,4,2,3,60,0,0
57894,-142.857142857143,4,2,3,65,0,0
64901,-111.111111111111,4,2,3,65,0,0
71909,-90.9090909090909,4,2,1,70,0,1
98624,-90.9090909090909,4,2,1,50,0,1
101690,-90.9090909090909,4,1,1,50,0,1
103003,-76.9230769230769,4,2,4,90,0,1
103441,-100,4,2,1,50,0,0
117456,-100,4,2,3,60,0,0
131471,-100,4,2,3,70,0,0
145485,-100,4,2,1,65,0,0
159500,-100,4,2,1,70,0,0
173514,-100,4,2,1,65,0,0
175705,-100,4,2,4,65,0,0
177018,-100,4,2,1,65,0,0
179208,-100,4,2,4,65,0,0
180522,-100,4,2,1,65,0,0
186653,-100,4,2,3,65,0,0
187529,-100,4,2,1,45,0,0
190157,-142.857142857143,4,2,1,45,0,0
190595,-111.111111111111,4,2,1,60,0,0
191033,-90.9090909090909,4,2,1,75,0,1
218843,-90.9090909090909,4,2,1,70,0,0
219062,-90.9090909090909,4,2,1,75,0,1
232200,-76.9230769230769,4,2,1,75,0,1
232857,-90.9090909090909,4,2,1,75,0,1
233076,-200,4,2,1,80,0,0
233515,-83.3333333333333,4,2,1,80,0,1
250376,-100,4,2,1,60,0,1
250595,-100,4,2,1,50,0,0

[Colours]
Combo1 : 240,134,83
Combo2 : 83,227,126
Combo3 : 136,145,221
Combo4 : 241,218,88
Combo5 : 221,123,133

[HitObjects]
96,308,14976,5,0,0:0:0:0:
188,272,15194,2,0,P|232:264|276:272,1,90,0|0,0:0|0:0,0:0:0:0:
348,340,15632,1,8,0:0:0:0:
348,340,15742,1,0,0:0:0:0:
348,340,15851,6,0,P|372:296|372:256,1,90,4|0,0:0|0:0,0:0:0:0:
296,208,16288,2,0,L|264:124,1,90,8|0,0:0|0:0,0:0:0:0:
332,64,16726,2,0,P|371:92|412:99,1,90
416,188,17164,1,8,0:0:0:0:
296,208,17383,1,0,0:0:0:0:
184,176,17602,6,0,P|180:131|156:88,1,90
84,160,18040,2,0,P|88:208|108:244,1,90,8|0,0:0|0:0,0:0:0:0:
266,152,18478,2,0,P|310:156|353:185,2,90,0|0|8,0:0|0:0|0:0,0:0:0:0:
276,264,19135,1,0,0:0:0:0:
188,252,19354,6,0,P|144:232|116:200,1,90
32,284,19792,2,0,P|23:239|31:195,1,90,8|0,0:0|0:0,0:0:0:0:
104,304,20230,2,0,P|148:324|176:356,1,90
188,252,20668,2,0,P|232:252|276:264,1,90,8|0,0:0|0:0,0:0:0:0:
360,184,21106,5,0,0:0:0:0:
492,248,21325,1,0,0:0:0:0:
348,272,21544,2,0,P|308:256|280:220,1,90,8|0,0:0|0:0,0:0:0:0:
444,164,21982,1,0,0:0:0:0:
432,312,22201,1,0,0:0:0:0:
360,184,22420,2,0,L|376:96,1,90,8|0,0:0|0:0,0:0:0:0:
240,56,22858,6,0,P|195:58|157:82,2,90,0|0|8,0:0|0:0|0:0,0:0:0:0:
288,132,23515,1,0,0:0:0:0:
360,184,23734,2,0,P|408:180|444:155,2,90,0|0|8,0:0|0:0|0:0,0:0:0:0:
376,96,24391,1,0,0:0:0:0:
240,56,24610,6,0,P|195:63|155:84,1,90
56,192,25048,1,8,0:0:0:0:
66,74,25267,1,0,0:0:0:0:
144,196,25486,2,0,P|189:189|229:168,1,90
328,60,25923,1,8,0:0:0:0:
318,178,26142,1,0,0:0:0:0:
266,250,26361,6,0,L|228:169,1,90
280,96,26799,2,0,L|319:178,1,90,8|0,0:0|0:0,0:0:0:0:
360,272,27237,1,0,0:0:0:0:
429,331,27456,1,0,0:0:0:0:
489,262,27675,1,8,0:0:0:0:
419,202,27894,1,0,0:0:0:0:
308,264,28113,6,0,P|262:246|236:212,2,90,0|0|8,0:0|0:0|0:0,0:0:0:0:
424,268,28770,1,0,0:0:0:0:
476,148,28989,1,0,0:0:0:0:
484,332,29208,2,0,P|444:352|400:352,1,90,8|8,0:0|0:0,0:0:0:0:
320,288,29646,1,8,0:0:0:0:
312,284,29756,1,8,0:0:0:0:
304,280,29865,6,0,P|216:276|132:316,1,180,4|2,0:0|0:0,0:0:0:0:
52,280,30522,2,0,P|21:246|8:204,1,90,0|0,0:0|0:0,0:0:0:0:
108,204,30960,2,0,P|152:196|196:204,2,90,0|2|0,0:0|0:0|0:0,0:0:0:0:
152,308,31617,1,0,0:0:0:0:
56,164,31836,2,0,P|68:114|96:84,1,90,0|2,0:0|0:0,0:0:0:0:
172,176,32274,2,0,P|268:168|340:128,1,180
324,24,32931,1,2,0:0:0:0:
240,84,33150,1,0,0:0:0:0:
264,184,33369,6,0,P|328:248|412:280,1,180,0|2,0:0|0:0,0:0:0:0:
272,312,34026,2,0,P|228:332|200:364,1,90,0|0,0:0|0:0,0:0:0:0:
204,252,34464,2,0,P|176:214|140:192,1,90,0|2,0:0|0:0,0:0:0:0:
264,184,34902,2,0,P|280:140|275:88,2,90
164,124,35559,1,2,0:0:0:0:
264,28,35778,2,0,P|352:28|432:84,1,180
492,208,36434,1,2,0:0:0:0:
388,192,36653,1,0,0:0:0:0:
304,256,36872,6,0,P|220:276|132:232,1,180,0|2,0:0|0:0,0:0:0:0:
228,168,37529,2,0,P|268:148|295:113,1,90
304,256,37967,2,0,P|340:284|384:292,1,90,0|2,0:0|0:0,0:0:0:0:
376,200,38405,2,0,P|396:112|464:56,1,180
504,180,39062,1,2,0:0:0:0:
468,264,39281,2,0,P|428:288|384:292,1,90,0|0,0:0|0:0,0:0:0:0:
294,228,39719,2,0,P|334:204|378:200,1,90,0|2,0:0|0:0,0:0:0:0:
385,292,40157,1,0,0:0:0:0:
252,288,40376,6,0,B|228:268|228:268|228:240|208:212,2,90,0|0|2,0:0|0:0|0:0,0:0:0:0:
196,356,41033,2,0,P|113:325|70:248,1,180
140,180,41690,1,2,0:0:0:0:
52,160,41909,1,0,0:0:0:0:
172,104,42128,2,0,P|206:131|224:172,2,90,0|0|2,0:0|0:0|0:0,0:0:0:0:
236,40,42785,1,0,0:0:0:0:
300,132,43004,2,0,P|310:175|301:219,2,90,0|0|2,0:0|0:0|0:0,0:0:0:0:
380,44,43661,1,8,0:0:0:0:
391,47,43770,1,8,0:0:0:0:
400,52,43880,6,0,P|466:110|480:197,1,180,4|2,0:0|0:0,0:0:0:0:
428,272,44537,2,0,P|400:232|390:192,1,90
328,264,44975,2,0,P|356:304|366:344,1,90,0|2,0:0|0:0,0:0:0:0:
320,192,45413,2,0,B|312:144|340:108|340:108|368:68|360:16,1,180
244,36,46069,1,2,0:0:0:0:
192,140,46288,2,0,B|168:180|180:224|180:224|192:268|168:316,1,180
68,252,46945,5,2,0:0:0:0:
92,156,47164,1,0,0:0:0:0:
192,140,47383,2,0,P|284:116|344:56,1,180,0|2,0:0|0:0,0:0:0:0:
408,132,48040,2,0,P|440:164|480:184,1,90
340,188,48478,2,0,P|344:236|363:280,1,90,0|2,0:0|0:0,0:0:0:0:
252,208,48916,2,0,P|216:292|140:332,1,180
56,276,49573,1,2,0:0:0:0:
128,208,49792,2,0,P|216:236|264:308,1,180
140,332,50449,5,2,0:0:0:0:
128,208,50668,1,0,0:0:0:0:
236,252,50887,2,0,P|264:160|256:76,1,180,0|2,0:0|0:0,0:0:0:0:
160,24,51544,2,0,P|120:48|96:84,1,90
128,208,51982,2,0,P|168:184|192:148,1,90,0|2,0:0|0:0,0:0:0:0:
48,184,52420,6,0,P|48:228|68:268,2,90
99,108,53077,1,2,0:0:0:0:
188,120,53296,2,0,P|224:148|240:188,1,90
352,144,53734,2,0,L|444:144,1,90,0|2,0:0|0:0,0:0:0:0:
508,48,54172,1,0,0:0:0:0:
352,144,54391,6,0,P|328:184|324:228,2,90,10|0|0,0:0|0:0|0:0,0:0:0:0:
232,136,55048,2,0,P|152:104|100:28,1,180,0|2,0:0|0:0,0:0:0:0:
48,112,55705,1,0,0:0:0:0:
100,196,55923,1,0,0:0:0:0:
96,296,56142,6,0,P|80:340|52:376,2,90,10|0|0,0:0|0:0|0:0,0:0:0:0:
204,244,56799,2,0,P|232:208|240:164,1,90,2|0,0:0|0:0,0:0:0:0:
284,284,57237,2,0,L|372:264,1,90,0|2,0:0|0:0,0:0:0:0:
376,128,57675,5,8,0:0:0:0:
376,128,57785,1,8,0:0:0:0:
375,128,57894,2,0,P|384:81|375:35,1,94.499997116089,6|0,0:0|0:0,0:0:0:0:
204,124,58551,2,0,P|187:184|204:244,1,125.999996154785,2|0,0:0|0:0,0:0:0:0:
201,343,59208,2,0,L|143:320,1,62.9999980773926,2|0,0:0|0:0,0:0:0:0:
129,192,59646,6,0,P|161:228|205:244,1,94.499997116089,4|0,0:0|0:0,0:0:0:0:
328,140,60303,1,2,0:0:0:0:
248,156,60522,2,0,L|196:164,2,41.9999987182618,8|8|8,0:3|0:3|0:3,0:0:0:0:
232,240,60960,2,0,L|200:268,2,41.9999987182618,8|8|8,0:0|0:0|0:3,0:0:0:0:
304,283,61398,6,0,P|323:241|359:212,2,94.499997116089,4|0|0,0:0|0:0|0:0,0:0:0:0:
220,304,62274,2,0,P|192:266|185:219,2,94.499997116089,4|0|0,0:0|0:0|0:0,0:0:0:0:
152,356,63150,2,0,P|105:360|61:343,1,94.499997116089
198,245,63807,2,0,P|216:184|198:123,1,125.999996154785,2|0,0:0|0:0,0:0:0:0:
112,184,64464,1,2,0:0:0:0:
220,260,64683,1,0,0:0:0:0:
228,264,64792,1,0,0:0:0:0:
236,268,64902,6,0,P|304:292|392:284,1,161.999995056153,4|2,0:0|0:0,0:0:0:0:
352,176,65559,2,0,P|416:128|452:56,1,161.999995056153,0|0,0:0|0:0,0:0:0:0:
340,44,66215,1,2,0:0:0:0:
268,104,66434,2,0,P|228:108|188:100,1,80.9999975280763
100,152,66872,1,0,0:0:0:0:
120,24,67091,5,2,0:0:0:0:
232,28,67310,2,0,P|236:104|216:188,1,161.999995056153
328,176,67967,1,2,0:0:0:0:
440,160,68186,2,0,P|420:238|424:319,1,161.999995056153
332,280,68843,2,0,P|296:260|256:252,1,80.9999975280763,2|0,0:0|0:0,0:0:0:0:
120,292,69281,6,0,P|178:237|202:160,1,161.999995056153,0|2,0:0|0:0,0:0:0:0:
80,144,69938,2,0,P|80:183|96:223,1,80.9999975280763
148,88,70376,5,4,0:0:0:0:
312,192,70595,1,4,0:0:0:0:
312,192,71033,2,0,P|308:132|272:76,1,121.499996292114
224,60,71471,2,0,P|224:104|208:136,1,80.9999975280763
216,252,71909,6,0,P|164:248|124:219,1,99.0000030212403,4|0,0:0|0:0,0:0:0:0:
312,192,72347,2,0,P|360:194|401:222,1,99.0000030212403,8|0,0:0|0:0,0:0:0:0:
296,312,72785,2,0,P|216:252|192:160,1,198.000006042481,0|8,0:0|0:0,0:0:0:0:
272,104,73442,1,0,0:0:0:0:
364,144,73661,2,0,P|376:191|367:240,2,99.0000030212403,0|0|8,0:0|0:0|0:0,0:0:0:0:
232,248,74318,1,0,0:0:0:0:
228,128,74537,2,0,P|279:42|368:8,1,198.000006042481,0|8,0:0|0:0,0:0:0:0:
404,237,75413,6,0,P|412:188|404:140,1,99.0000030212403
271,94,75851,2,0,P|263:143|272:192,1,99.0000030212403,8|0,0:0|0:0,0:0:0:0:
356,304,76288,2,0,P|264:272|164:284,1,198.000006042481,0|8,0:0|0:0,0:0:0:0:
112,200,76945,2,0,P|140:160|154:112,1,99.0000030212403
320,100,77383,2,0,P|286:136|264:180,1,99.0000030212403,0|8,0:0|0:0,0:0:0:0:
416,40,77821,2,0,P|432:136|488:220,1,198.000006042481
360,192,78478,1,8,0:0:0:0:
336,288,78697,2,0,P|296:316|248:324,1,99.0000030212403,0|0,0:0|0:0,0:0:0:0:
353,145,79354,5,8,0:0:0:0:
184,200,79573,1,0,0:0:0:0:
353,254,79792,1,0,0:0:0:0:
250,112,80011,1,0,0:0:0:0:
250,288,80230,1,8,0:0:0:0:
353,145,80449,2,0,P|365:97|353:49,1,99.0000030212403,0|0,0:0|0:0,0:0:0:0:
353,255,80887,2,0,P|383:292|428:310,1,99.0000030212403,0|8,0:0|0:0,0:0:0:0:
251,288,81325,2,0,P|206:310|179:349,2,99.0000030212403
431,311,81982,1,8,0:0:0:0:
472,216,82201,1,0,0:0:0:0:
372,196,82420,6,0,P|320:200|273:188,2,99.0000030212403,0|0|8,0:0|0:0|0:0,0:0:0:0:
329,98,83077,2,0,L|317:298,1,198.000006042481
188,284,83734,2,0,P|143:311|95:314,1,99.0000030212403,8|0,0:0|0:0,0:0:0:0:
144,184,84172,2,0,P|192:164|240:168,2,99.0000030212403,0|8|8,0:0|0:0|0:0,0:0:0:0:
204,264,84829,1,0,0:0:0:0:
196,364,85048,2,0,P|240:380|292:380,1,99.0000030212403,8|0,0:0|0:0,0:0:0:0:
132,296,85486,1,8,0:0:0:0:
276,240,85705,1,0,0:0:0:0:
304,232,85814,1,0,0:0:0:0:
328,232,85923,6,0,P|380:240|420:264,1,99.0000030212403,4|0,0:0|0:0,0:0:0:0:
500,176,86361,2,0,P|448:168|408:144,1,99.0000030212403,8|0,0:0|0:0,0:0:0:0:
288,76,86799,2,0,P|308:156|288:276,1,198.000006042481,0|8,0:0|0:0,0:0:0:0:
192,220,87456,1,0,0:0:0:0:
128,308,87675,2,0,P|88:336|32:344,2,99.0000030212403,0|0|8,0:0|0:0|0:0,0:0:0:0:
236,280,88332,1,0,0:0:0:0:
116,232,88551,2,0,P|76:140|92:44,1,198.000006042481,0|8,0:0|0:0,0:0:0:0:
296,148,89427,6,0,P|340:168|392:172,1,99.0000030212403
252,80,89865,2,0,P|208:60|156:56,1,99.0000030212403,8|0,0:0|0:0,0:0:0:0:
236,196,90303,2,0,P|324:158|357:67,1,198.000006042481,0|8,0:0|0:0,0:0:0:0:
472,40,90960,2,0,P|471:89|450:133,1,99.0000030212403
352,232,91398,2,0,P|352:182|373:138,1,99.0000030212403,0|8,0:0|0:0,0:0:0:0:
272,204,91836,2,0,P|232:228|180:236,1,99.0000030212403
184,104,92274,1,0,0:0:0:0:
112,172,92493,2,0,P|92:216|96:276,2,99.0000030212403,8|0|0,0:0|0:0|0:0,0:0:0:0:
256,324,93369,5,8,0:0:0:0:
364,304,93588,1,0,0:0:0:0:
348,196,93807,1,0,0:0:0:0:
456,176,94026,1,0,0:0:0:0:
440,68,94245,1,8,0:0:0:0:
340,24,94464,2,0,P|300:52|272:96,1,99.0000030212403
244,200,94902,2,0,P|224:156|179:130,1,99.0000030212403,0|8,0:0|0:0,0:0:0:0:
180,24,95340,2,0,B|128:24|92:68|92:68|100:116|68:160,1,198.000006042481
92,272,95996,5,8,0:0:0:0:
180,208,96215,1,0,0:0:0:0:
204,104,96434,2,0,P|244:76|292:68,2,99.0000030212403,0|0|8,0:0|0:0|0:0,0:0:0:0:
236,240,97091,2,0,P|152:292|56:308,1,198.000006042481
80,200,97748,2,0,P|88:152|80:100,2,99.0000030212403,8|0|0,0:0|0:0|0:0,0:0:0:0:
344,116,98624,5,2,0:0:0:0:
168,268,99062,1,2,0:0:0:0:
124,40,99500,1,2,0:0:0:0:
200,128,99719,6,0,L|240:172,2,49.5000015106202,0|0|2,0:0|0:0|0:0,0:0:0:0:
256,192,100048,12,4,101690,0:0:0:0:
276,116,103004,6,0,B|356:92|376:184|336:236|276:264,1,233.999989288331,8|8,0:0|0:0,0:0:0:0:
256,192,115705,12,8,117018,0:0:0:0:
200,272,117237,5,8,0:0:0:0:
208,276,117347,1,8,0:0:0:0:
216,280,117456,6,0,B|264:292|304:276|304:276|332:240|384:236,1,180,4|2,0:0|0:0,0:0:0:0:
286,165,118113,1,0,0:0:0:0:
392,340,118551,1,0,0:0:0:0:
188,184,118989,2,0,P|208:100|288:64,1,180,2|0,0:0|0:0,0:0:0:0:
450,209,119865,2,0,P|358:209|284:163,1,180,2|0,0:0|0:0,0:0:0:0:
288,64,120522,1,0,0:0:0:0:
400,76,120741,2,0,P|444:68|484:48,1,90,2|0,0:0|0:0,0:0:0:0:
188,184,121398,5,2,0:0:0:0:
188,184,121617,2,0,P|116:204|36:272,2,180,0|0|2,0:0|0:0|0:0,0:0:0:0:
220,92,122712,1,0,0:0:0:0:
285,164,122931,2,0,L|349:228,1,90
392,339,123369,2,0,P|304:336|240:276,1,180,2|0,0:0|0:0,0:0:0:0:
140,280,124026,2,0,P|92:200|88:112,1,180,2|0,0:0|0:0,0:0:0:0:
400,76,124902,5,2,0:0:0:0:
348,160,125121,2,0,B|324:200|324:200|328:248|292:280|292:280|288:328,2,180,0|0|2,0:0|0:0|0:0,0:0:0:0:
292,80,126215,1,0,0:0:0:0:
216,140,126434,2,0,P|168:96|144:28,1,135
136,80,126872,2,0,P|100:164|32:224,1,180,0|2,0:0|0:0,0:0:0:0:
128,292,127529,1,0,0:0:0:0:
244,280,127748,1,2,0:0:0:0:
336,208,127967,6,0,P|408:168|504:168,1,180,0|0,0:0|0:0,0:0:0:0:
428,256,128624,2,0,P|372:184|360:96,2,180,2|0|0,0:0|0:0|0:0,0:0:0:0:
336,288,129719,2,0,B|296:304|284:328|284:328|256:320|216:336,2,135,2|2|2,0:0|0:0|0:0,0:0:0:0:
256,72,130814,2,0,B|232:112|280:164|256:204,1,135
244,232,131252,1,2,0:0:0:0:
244,232,131471,6,0,P|304:292|400:308,1,180,4|8,0:0|0:0,0:0:0:0:
448,232,132128,2,0,P|440:188|448:144,1,90
360,44,132566,2,0,P|368:88|360:132,1,90,0|8,0:0|0:0,0:0:0:0:
256,204,133004,2,0,P|168:232|76:200,1,180
80,116,133661,1,8,0:0:0:0:
168,88,133880,2,0,L|168:268,1,180
248,312,134537,1,8,0:0:0:0:
328,264,134756,1,0,0:0:0:0:
256,204,134975,6,0,P|168:180|84:208,1,180,0|8,0:0|0:0,0:0:0:0:
168,276,135632,2,0,P|180:320|176:368,1,90
96,308,136069,2,0,P|56:288|12:284,1,90,0|8,0:0|0:0,0:0:0:0:
88,208,136507,2,0,P|163:155|199:75,1,180
308,92,137164,1,8,0:0:0:0:
320,228,137383,2,0,P|234:197|178:129,1,180
224,56,138040,1,8,0:0:0:0:
308,92,138259,1,0,0:0:0:0:
320,228,138478,6,0,P|260:284|168:320,1,180,0|8,0:0|0:0,0:0:0:0:
88,224,139135,2,0,P|85:175|96:136,1,90
92,304,139573,2,0,P|72:344|40:376,1,90,0|8,0:0|0:0,0:0:0:0:
165,254,140011,2,0,P|248:264|332:308,1,180
396,208,140668,1,8,0:0:0:0:
280,188,140887,2,0,P|280:140|292:96,1,90
180,136,141325,2,0,P|136:144|92:136,1,90,8|8,0:0|0:0,0:0:0:0:
36,220,141763,1,0,0:0:0:0:
136,236,141982,6,0,P|120:280|84:312,2,90,0|0|8,0:0|0:0|0:0,0:0:0:0:
180,136,142639,2,0,P|264:100|344:132,1,180
368,256,143296,1,8,0:0:0:0:
264,224,143515,1,0,0:0:0:0:
160,192,143734,6,0,P|124:216|100:260,2,90,0|0|8,0:0|0:0|0:0,0:0:0:0:
256,172,144391,1,0,0:0:0:0:
316,96,144610,1,8,0:0:0:0:
316,96,144719,1,0,0:0:0:0:
200,72,144938,1,0,0:0:0:0:
200,72,145048,1,8,0:0:0:0:
256,180,145267,5,8,0:0:0:0:
252,188,145376,1,8,0:0:0:0:
256,196,145486,2,0,B|272:236|240:288|256:332,1,135,4|0,0:0|0:0,0:0:0:0:
256,340,145923,1,8,0:0:0:0:
256,348,146142,2,0,P|174:355|106:291,1,180,0|0,0:0|0:0,0:0:0:0:
112,128,146799,1,8,0:0:0:0:
160,224,147018,1,0,0:0:0:0:
264,256,147237,6,0,B|308:268|352:264|352:264|356:288|368:308,1,135
368,308,147675,1,8,0:0:0:0:
460,248,147894,2,0,B|484:204|464:164|464:164|476:164|484:128|448:80,1,180,0|8,0:0|0:0,0:0:0:0:
360,144,148551,1,8,0:0:0:0:
300,44,148770,1,0,0:0:0:0:
220,164,148989,6,0,P|208:228|220:300,1,135
180,320,149427,2,0,P|140:340|96:344,1,90,8|0,0:0|0:0,0:0:0:0:
104,208,149865,2,0,P|116:144|104:72,1,135
144,52,150303,2,0,P|184:32|228:28,1,90,8|0,0:0|0:0,0:0:0:0:
220,164,150741,2,0,P|224:232|252:300,1,135
284,320,151179,1,8,0:0:0:0:
320,212,151398,2,0,P|360:132|440:96,1,180,0|8,0:0|0:0,0:0:0:0:
448,224,152055,5,8,0:0:0:0:
344,296,152274,1,0,0:0:0:0:
336,300,152383,1,0,0:0:0:0:
328,304,152493,2,0,B|276:328|208:280|148:304,1,180,0|8,0:0|0:0,0:0:0:0:
40,364,153150,2,0,B|8:316|72:236|40:188,1,180
132,244,153807,1,8,0:0:0:0:
240,232,154026,2,0,P|284:220|320:192,2,90
168,128,154683,5,8,0:0:0:0:
168,252,154902,2,0,L|184:340,1,90
300,312,155340,2,0,P|328:348|368:368,2,90,8|8|0,0:0|0:0|0:0,0:0:0:0:
400,252,155996,2,0,P|432:168|400:88,1,180,0|8,0:0|0:0,0:0:0:0:
312,168,156653,1,0,0:0:0:0:
308,52,156872,2,0,B|260:52|228:88|228:88|196:124|148:124,1,180,0|8,0:0|0:0,0:0:0:0:
184,208,157529,1,0,0:0:0:0:
96,240,157748,6,0,L|152:312,1,90,0|8,0:0|0:0,0:0:0:0:
328,312,158186,2,0,L|272:240,1,90,8|0,0:0|0:0,0:0:0:0:
96,240,158624,6,0,P|176:256|272:240,1,180,8|8,0:0|0:0,0:0:0:0:
348,176,159281,2,0,P|392:196|448:196,1,90,0|8,0:0|0:0,0:0:0:0:
484,112,159719,5,0,0:0:0:0:
484,124,160157,1,0,0:0:0:0:
480,132,160595,1,0,0:0:0:0:
476,140,161033,1,0,0:0:0:0:
388,204,161252,5,8,0:0:0:0:
428,304,161471,1,0,0:0:0:0:
421,313,161909,1,0,0:0:0:0:
411,321,162347,1,0,0:0:0:0:
404,326,162785,1,0,0:0:0:0:
304,292,163004,5,8,0:0:0:0:
212,348,163223,1,0,0:0:0:0:
195,351,163661,1,0,0:0:0:0:
180,346,164099,1,0,0:0:0:0:
168,337,164537,1,0,0:0:0:0:
144,232,164756,5,8,0:0:0:0:
256,204,164975,1,0,0:0:0:0:
264,194,165413,1,0,0:0:0:0:
271,185,165850,2,0,P|289:144|292:99,1,90
256,276,166288,2,0,L|216:300,1,45
196,308,166507,6,0,P|132:288|56:292,2,135,4|0|0,0:0|0:0|0:0,0:0:0:0:
300,256,167383,2,0,P|364:276|440:272,2,135,8|0|0,0:0|0:0|0:0,0:0:0:0:
300,256,168150,1,0,0:0:0:0:
300,256,168259,5,0,0:0:0:0:
144,172,168588,1,0,0:0:0:0:
232,328,168916,1,0,0:0:0:0:
300,256,169135,2,0,P|320:192|316:116,2,135,8|0|0,0:0|0:0|0:0,0:0:0:0:
204,232,170011,5,0,0:0:0:0:
152,64,170340,1,0,0:0:0:0:
320,124,170668,1,0,0:0:0:0:
216,180,170887,2,0,P|148:196|84:172,2,135,8|0|0,0:0|0:0|0:0,0:0:0:0:
240,84,171763,5,0,0:0:0:0:
89,175,172091,1,0,0:0:0:0:
232,280,172420,1,0,0:0:0:0:
356,188,172639,2,0,L|448:192,1,90,8|0,0:0|0:0,0:0:0:0:
456,192,172967,1,0,0:0:0:0:
464,192,173077,1,8,0:0:0:0:
256,24,173515,6,0,P|236:112|168:168,1,180,12|8,0:0|0:0,0:0:0:0:
72,184,174172,1,0,0:0:0:0:
144,280,174391,2,0,L|201:349,1,90,0|0,0:0|0:0,0:0:0:0:
344,300,174829,2,0,L|256:280,1,90,8|0,0:0|0:0,0:0:0:0:
336,212,175267,6,0,P|364:124|348:40,1,180,0|8,0:0|0:0,0:0:0:0:
248,28,175923,1,8,0:0:0:0:
276,124,176142,2,0,P|321:127|364:115,2,90,0|0|8,0:0|0:0|0:0,0:0:0:0:
256,360,177018,6,0,P|236:272|168:216,1,180,8|8,0:0|0:0,0:0:0:0:
72,200,177675,1,0,0:0:0:0:
144,104,177894,2,0,L|201:34,1,90,8|0,0:0|0:0,0:0:0:0:
344,84,178332,2,0,L|256:104,1,90,8|0,0:0|0:0,0:0:0:0:
336,172,178770,6,0,P|376:252|348:336,1,180,0|8,0:0|0:0,0:0:0:0:
248,356,179427,1,8,0:0:0:0:
276,260,179646,2,0,P|321:257|364:269,2,90,0|0|8,0:0|0:0|0:0,0:0:0:0:
176,288,180303,1,0,0:0:0:0:
80,167,180522,6,0,P|134:97|214:56,1,180,0|8,0:0|0:0,0:0:0:0:
312,64,181179,1,0,0:0:0:0:
380,136,181398,2,0,P|424:132|465:115,1,90
291,159,181836,2,0,P|247:163|205:180,1,90,8|0,0:0|0:0,0:0:0:0:
355,224,182274,6,0,P|378:309|451:359,1,180,0|8,0:0|0:0,0:0:0:0:
488,236,182931,1,0,0:0:0:0:
355,224,183150,2,0,P|311:232|270:250,1,90
172,327,183588,2,0,P|128:348|87:351,1,90,8|0,0:0|0:0,0:0:0:0:
292,335,184026,6,0,P|270:251|194:208,1,180,0|8,0:0|0:0,0:0:0:0:
104,252,184683,1,0,0:0:0:0:
172,327,184902,2,0,P|203:246|162:169,1,180,0|8,0:0|0:0,0:0:0:0:
64,160,185559,1,0,0:0:0:0:
104,252,185778,2,0,B|152:288|224:192|272:224,1,180,0|8,0:0|0:0,0:0:0:0:
443,35,186653,6,0,P|460:77|460:122,1,90,0|8,0:0|0:0,0:0:0:0:
460,122,187091,1,8,0:0:0:0:
460,122,187310,1,8,0:0:0:0:
256,192,187529,12,2,189281,0:0:0:0:
216,176,190157,6,0,P|190:156|175:129,1,62.9999980773926,2|0,0:0|0:0,0:0:0:0:
316,192,190595,2,0,P|356:204|388:228,1,80.9999975280763,2|0,0:0|0:0,0:0:0:0:
240,264,191033,5,4,0:0:0:0:
176,348,191252,1,0,0:0:0:0:
176,348,191361,1,0,0:0:0:0:
176,348,191471,2,0,P|144:308|136:260,1,99.0000030212403,8|0,0:0|0:0,0:0:0:0:
256,192,191909,2,0,P|332:112|344:24,1,198.000006042481,0|8,0:0|0:0,0:0:0:0:
200,52,192566,1,0,0:0:0:0:
128,144,192785,6,0,P|116:192|128:240,2,99.0000030212403,0|0|8,0:0|0:0|0:0,0:0:0:0:
244,116,193442,1,0,0:0:0:0:
364,184,193661,2,0,B|356:236|316:268|316:268|284:308|300:364,1,198.000006042481,0|8,0:0|0:0,0:0:0:0:
420,336,194318,1,0,0:0:0:0:
460,224,194537,6,0,P|464:172|452:128,1,99.0000030212403,0|0,0:0|0:0,0:0:0:0:
452,128,194865,1,0,0:0:0:0:
452,128,194975,2,0,P|408:100|384:60,1,99.0000030212403,8|0,0:0|0:0,0:0:0:0:
364,184,195413,2,0,P|312:264|224:312,1,198.000006042481,0|8,0:0|0:0,0:0:0:0:
216,160,196069,6,0,P|223:111|215:62,1,99.0000030212403
92,164,196507,2,0,P|83:212|92:261,1,99.0000030212403,0|8,0:0|0:0,0:0:0:0:
216,300,196945,2,0,P|223:251|215:202,1,99.0000030212403
312,152,197383,1,0,0:0:0:0:
312,152,197493,1,0,0:0:0:0:
312,152,197602,1,8,0:0:0:0:
400,216,197821,2,0,L|400:316,1,99.0000030212403
268,92,198478,5,8,0:0:0:0:
200,240,198697,1,0,0:0:0:0:
344,160,198916,1,0,0:0:0:0:
180,140,199135,1,0,0:0:0:0:
300,252,199354,1,8,0:0:0:0:
408,180,199573,2,0,P|428:136|428:84,1,99.0000030212403
384,260,200011,1,0,0:0:0:0:
384,260,200121,1,0,0:0:0:0:
384,260,200230,2,0,P|396:308|432:344,1,99.0000030212403,8|0,0:0|0:0,0:0:0:0:
408,180,200668,2,0,P|368:148|320:136,1,99.0000030212403,0|0,0:0|0:0,0:0:0:0:
164,144,201106,5,8,0:0:0:0:
256,68,201325,1,0,0:0:0:0:
292,180,201544,2,0,P|280:224|244:268,1,99.0000030212403
156,304,201982,1,8,0:0:0:0:
112,200,202201,2,0,P|151:171|199:168,2,99.0000030212403
60,304,202858,2,0,P|32:264|24:212,1,99.0000030212403,8|0,0:0|0:0,0:0:0:0:
45,97,203296,5,8,0:0:0:0:
51,103,203405,1,0,0:0:0:0:
56,108,203515,1,0,0:0:0:0:
62,114,203624,1,0,0:0:0:0:
68,120,203734,1,8,0:0:0:0:
188,112,203953,1,0,0:0:0:0:
132,284,204172,5,8,0:0:0:0:
220,208,204391,1,8,0:0:0:0:
324,260,204610,1,8,0:0:0:0:
304,76,204829,1,0,0:0:0:0:
260,52,204938,1,0,0:0:0:0:
212,52,205048,6,0,P|170:76|139:116,1,99.0000030212403,4|0,0:0|0:0,0:0:0:0:
268,184,205486,2,0,P|316:172|364:176,1,99.0000030212403,8|0,0:0|0:0,0:0:0:0:
447,256,205923,2,0,P|475:161|472:62,1,198.000006042481,0|8,0:0|0:0,0:0:0:0:
372,80,206580,1,0,0:0:0:0:
364,176,206799,6,0,B|352:224|352:224|312:256,2,99.0000030212403,0|0|8,0:0|0:0|0:0,0:0:0:0:
304,96,207456,1,0,0:0:0:0:
224,40,207675,2,0,P|116:20|32:44,1,198.000006042481,0|8,0:0|0:0,0:0:0:0:
56,140,208332,1,0,0:0:0:0:
168,108,208551,6,0,P|172:160|152:208,1,99.0000030212403,0|0,0:0|0:0,0:0:0:0:
156,204,208880,1,0,0:0:0:0:
156,204,208989,2,0,P|168:252|196:292,1,99.0000030212403,8|0,0:0|0:0,0:0:0:0:
312,348,209427,2,0,P|356:264|348:164,1,198.000006042481,0|8,0:0|0:0,0:0:0:0:
272,100,210084,6,0,P|229:124|180:130,1,99.0000030212403
160,228,210522,1,0,0:0:0:0:
236,292,210741,1,8,0:0:0:0:
72,272,210960,2,0,P|60:224|72:175,1,99.0000030212403
180,144,211398,1,0,0:0:0:0:
188,144,211507,1,0,0:0:0:0:
196,144,211617,1,8,0:0:0:0:
264,212,211836,2,0,P|287:254|288:303,1,99.0000030212403,0|0,0:0|0:0,0:0:0:0:
176,144,212493,5,8,0:0:0:0:
264,28,212712,1,0,0:0:0:0:
380,116,212931,1,0,0:0:0:0:
292,232,213150,1,0,0:0:0:0:
176,144,213369,1,8,0:0:0:0:
76,152,213588,2,0,B|85:199|85:199|123:232,1,99.0000030212403
272,180,214026,1,0,0:0:0:0:
272,180,214135,1,0,0:0:0:0:
272,180,214245,2,0,L|248:276,1,99.0000030212403,8|0,0:0|0:0,0:0:0:0:
88,244,214683,6,0,P|128:176|228:112,1,198.000006042481,0|8,0:0|0:0,0:0:0:0:
344,88,215340,1,0,0:0:0:0:
404,192,215559,2,0,P|448:184|512:200,2,99.0000030212403,0|0|8,0:0|0:0|0:0,0:0:0:0:
280,272,216215,2,0,P|240:244|220:199,1,99.0000030212403,0|0,0:0|0:0,0:0:0:0:
124,116,216653,5,0,0:0:0:0:
160,272,216872,2,0,P|200:244|220:199,1,99.0000030212403,8|0,0:0|0:0,0:0:0:0:
184,44,217310,2,0,P|143:71|123:116,1,99.0000030212403,0|0,0:0|0:0,0:0:0:0:
88,204,217748,1,8,0:0:0:0:
240,216,217967,1,0,0:0:0:0:
216,128,218186,5,8,0:0:0:0:
160,272,218405,1,8,0:0:0:0:
316,276,218624,1,8,0:0:0:0:
164,188,218843,1,2,0:0:0:0:
236,300,219062,6,0,P|308:352|416:360,1,198.000006042481,4|8,0:0|0:0,0:0:0:0:
404,232,219719,1,0,0:0:0:0:
428,128,219938,2,0,P|472:148|503:187,2,99.0000030212403,0|0|8,0:0|0:0|0:0,0:0:0:0:
340,200,220595,2,0,P|302:232|255:244,1,99.0000030212403
148,176,221033,5,0,0:0:0:0:
148,176,221142,1,0,0:0:0:0:
148,176,221252,2,0,P|181:140|227:122,1,99.0000030212403,8|0,0:0|0:0,0:0:0:0:
340,200,221690,1,0,0:0:0:0:
288,284,221909,2,0,L|205:338,1,99.0000030212403,0|8,0:0|0:0,0:0:0:0:
372,340,222347,1,0,0:0:0:0:
340,200,222566,6,0,P|360:88|420:32,1,198.000006042481,0|8,0:0|0:0,0:0:0:0:
284,28,223223,1,0,0:0:0:0:
184,72,223442,2,0,P|136:84|80:80,2,99.0000030212403,0|0|8,0:0|0:0|0:0,0:0:0:0:
240,168,224099,2,0,P|220:216|216:264,1,99.0000030212403
320,308,224537,5,0,0:0:0:0:
320,308,224646,1,0,0:0:0:0:
320,308,224756,1,8,0:0:0:0:
340,200,224975,2,0,L|436:224,1,99.0000030212403
404,108,225413,2,0,L|308:84,1,99.0000030212403,0|8,0:0|0:0,0:0:0:0:
240,168,225850,1,0,0:0:0:0:
320,308,226069,6,0,P|228:348|124:344,1,198.000006042481,0|8,0:0|0:0,0:0:0:0:
172,232,226726,1,0,0:0:0:0:
56,260,226945,2,0,P|40:308|44:360,2,99.0000030212403,0|0|8,0:0|0:0|0:0,0:0:0:0:
96,144,227602,2,0,P|73:100|34:69,1,99.0000030212403
36,188,228040,5,0,0:0:0:0:
36,188,228150,1,0,0:0:0:0:
36,188,228259,1,8,0:0:0:0:
172,232,228478,2,0,P|212:260|236:312,1,99.0000030212403
244,164,228916,2,0,P|204:136|180:84,1,99.0000030212403,0|8,0:0|0:0,0:0:0:0:
284,228,229354,6,0,P|380:216|476:244,1,198.000006042481,0|0,0:0|0:0,0:0:0:0:
388,136,230011,1,8,0:0:0:0:
284,228,230230,2,0,L|208:296,1,99.0000030212403
108,340,230668,1,0,0:0:0:0:
88,232,230887,5,8,0:0:0:0:
210,294,231106,2,0,L|300:336,1,99.0000030212403
416,360,231544,2,0,P|408:312|416:260,1,99.0000030212403,0|8,0:0|0:0,0:0:0:0:
308,192,231982,1,0,0:0:0:0:
208,192,232201,6,0,P|224:140|264:92,1,116.999994644165,0|8,0:0|0:0,0:0:0:0:
308,192,232639,2,0,P|292:244|252:292,1,116.999994644165,0|8,0:0|0:0,0:0:0:0:
308,192,233077,6,0,L|356:192,1,45,2|0,0:0|0:0,0:0:0:0:
148,152,233515,6,0,B|108:140|108:140|80:152|80:152|44:132,2,107.999996704102,12|0|2,0:0|0:0|0:0,0:0:0:0:
224,272,234172,1,0,0:0:0:0:
224,272,234281,1,0,0:0:0:0:
224,272,234391,2,0,P|280:272|328:296,1,107.999996704102,8|0,0:0|0:0,0:0:0:0:
188,356,234829,2,0,P|104:268|96:176,1,215.999993408203,2|8,0:0|0:0,0:0:0:0:
232,164,235486,1,0,0:0:0:0:
132,256,235705,6,0,P|76:260|28:240,1,107.999996704102,2|0,0:0|0:0,0:0:0:0:
228,296,236142,2,0,P|281:294|331:313,1,107.999996704102,8|0,0:0|0:0,0:0:0:0:
332,312,236471,1,0,0:0:0:0:
332,312,236580,2,0,P|352:188|400:112,1,215.999993408203,2|8,0:0|0:0,0:0:0:0:
304,0,237237,6,0,P|287:51|256:95,1,107.999996704102,0|2,0:0|0:0,0:0:0:0:
104,179,237675,2,0,P|120:127|151:83,1,107.999996704102,0|8,0:0|0:0,0:0:0:0:
284,184,238113,1,0,0:0:0:0:
284,184,238223,1,0,0:0:0:0:
284,184,238332,2,0,B|300:228|280:264|280:264|212:292|184:360,1,215.999993408203,2|8,0:0|0:0,0:0:0:0:
64,296,238989,1,0,0:0:0:0:
160,200,239208,6,0,P|180:144|180:92,1,107.999996704102,2|0,0:0|0:0,0:0:0:0:
372,72,239646,2,0,P|324:52|268:52,1,107.999996704102,8|0,0:0|0:0,0:0:0:0:
268,52,239975,1,0,0:0:0:0:
268,52,240084,2,0,P|272:164|236:260,1,215.999993408203,2|8,0:0|0:0,0:0:0:0:
128,336,240741,1,0,0:0:0:0:
140,208,240960,1,2,0:0:0:0:
208,336,241179,2,0,P|256:360|312:364,1,107.999996704102,0|8,0:0|0:0,0:0:0:0:
316,224,241617,2,0,P|292:176|252:140,1,107.999996704102,0|2,0:0|0:0,0:0:0:0:
184,256,242055,2,0,P|156:296|104:328,2,107.999996704102,0|8|0,0:0|0:0|0:0,0:0:0:0:
92,180,242712,6,0,P|52:140|30:91,1,107.999996704102,2|0,0:0|0:0,0:0:0:0:
200,144,243150,2,0,P|252:132|308:136,1,107.999996704102,8|0,0:0|0:0,0:0:0:0:
180,256,243588,2,0,P|120:168|128:60,1,215.999993408203,2|8,0:0|0:0,0:0:0:0:
200,144,244245,1,0,0:0:0:0:
264,232,244464,6,0,P|288:280|292:340,1,107.999996704102,2|0,0:0|0:0,0:0:0:0:
160,176,244902,2,0,P|136:128|132:68,1,107.999996704102,8|0,0:0|0:0,0:0:0:0:
252,148,245340,2,0,P|300:123|360:119,1,107.999996704102,2|0,0:0|0:0,0:0:0:0:
176,264,245778,2,0,P|128:288|68:292,1,107.999996704102,8|0,0:0|0:0,0:0:0:0:
264,232,246215,2,0,B|320:236|320:236|364:268,2,107.999996704102,2|8|8,0:0|0:0|0:0,0:0:0:0:
256,192,247091,12,8,250157,0:0:0:0:
256,192,250376,5,4,0:0:0:0:
