osu file format v12

[General]
AudioFilename: Ai Kotoba II.mp3
AudioLeadIn: 0
PreviewTime: 71035
Countdown: 0
SampleSet: Soft
StackLeniency: 0.7
Mode: 0
LetterboxInBreaks: 0
WidescreenStoryboard: 1

[Editor]
DistanceSpacing: 1.3
BeatDivisor: 4
GridSize: 4
TimelineZoom: 1

[Metadata]
Title:Ai Kotoba II
TitleUnicode:愛言葉II
Artist:DECO*27
ArtistUnicode:DECO*27
Creator:Tsumetaku
Version:Hard
Source:
Tags:Vocaloid Hatsune Miku V3 Love words kous awoko あをこ Deco27 Mutaro 夢太郎 これからもありがとうBOX
BeatmapID:324612
BeatmapSetID:123354

[Difficulty]
HPDrainRate:5
CircleSize:4
OverallDifficulty:6
ApproachRate:7
SliderMultiplier:1.4
SliderTickRate:1

[Events]
//Background and Video events
0,0,"maxresdefault.jpg",0,0
Video,0,"Ai Kotoba II.avi"
//Break Periods
2,103641,114805
2,163204,165607
//Storyboard Layer 0 (Background)
//Storyboard Layer 1 (Fail)
//Storyboard Layer 2 (Pass)
//Storyboard Layer 3 (Foreground)
//Storyboard Sound Samples
//Background Colour Transformations
3,100,163,162,255

[TimingPoints]
14976,437.956204379562,4,2,3,55,1,0
15851,437.956204379562,4,2,3,55,1,0
29865,-100,4,2,3,60,0,0
57894,-142.857142857143,4,2,3,65,0,0
64901,-111.111111111111,4,2,3,65,0,0
70376,-111.111111111111,4,2,3,50,0,0
71909,-100,4,2,1,70,0,1
98624,-100,4,2,1,50,0,1
101690,-100,4,1,1,50,0,1
103003,-100,4,2,4,90,0,1
103441,-100,4,2,1,50,0,0
117456,-100,4,2,3,45,0,0
131471,-100,4,2,3,60,0,0
145485,-100,4,2,1,65,0,0
159500,-100,4,2,1,70,0,0
166507,-100,4,1,1,50,0,0
166945,-100,4,2,1,60,0,0
173514,-100,4,2,1,65,0,0
175705,-100,4,2,4,65,0,0
177018,-100,4,2,1,65,0,0
179208,-100,4,2,4,65,0,0
180522,-100,4,2,1,65,0,0
186653,-100,4,2,3,65,0,0
187529,-100,4,2,1,45,0,0
190157,-142.857142857143,4,2,1,45,0,0
190595,-111.111111111111,4,2,1,60,0,0
191033,-100,4,2,1,75,0,1
218843,-100,4,2,1,70,0,0
219062,-100,4,2,1,75,0,1
232200,-83.3333333333333,4,2,1,75,0,1
232857,-100,4,2,1,75,0,1
233076,-100,4,2,1,80,0,0
233515,-100,4,2,1,75,0,1
250376,-100,4,2,1,60,0,1
250595,-100,4,2,1,50,0,0

[Colours]
Combo1 : 240,134,83
Combo2 : 83,227,126
Combo3 : 136,145,221
Combo4 : 241,218,88
Combo5 : 221,123,133

[HitObjects]
96,188,14976,5,0,0:0:0:0:
96,260,15194,2,0,P|108:292|136:316,2,70,0|0|8,0:0|0:0|0:0,0:0:0:0:
160,224,15851,6,0,P|232:216|296:240,1,140,4|0,0:0|0:0,0:0:0:0:
360,264,16507,1,0,0:0:0:0:
436,276,16726,2,0,P|432:240|413:209,2,70,0|0|8,0:0|0:0|0:0,0:0:0:0:
360,264,17383,1,0,0:0:0:0:
294,238,17602,6,0,P|280:306|296:373,1,140,0|8,0:0|0:0,0:0:0:0:
216,364,18259,1,0,0:0:0:0:
156,320,18478,2,0,P|166:286|188:259,1,70,0|0,0:0|0:0,0:0:0:0:
296,240,18916,2,0,P|285:273|263:300,1,70,8|0,0:0|0:0,0:0:0:0:
156,320,19354,6,0,P|128:252|68:224,1,140,0|8,0:0|0:0,0:0:0:0:
64,316,20011,1,0,0:0:0:0:
156,320,20230,2,0,P|192:320|224:308,2,70,0|0|8,0:0|0:0|0:0,0:0:0:0:
124,236,20887,1,0,0:0:0:0:
124,144,21106,2,0,B|144:68|216:48,1,140,0|8,0:0|0:0,0:0:0:0:
289,47,21763,1,0,0:0:0:0:
352,84,21982,2,0,L|388:148,1,70,0|0,0:0|0:0,0:0:0:0:
324,220,22420,2,0,L|288:156,1,70,8|0,0:0|0:0,0:0:0:0:
386,144,22858,6,0,P|431:196|450:263,2,140,0|8|0,0:0|0:0|0:0,0:0:0:0:
316,160,23953,1,0,0:0:0:0:
244,156,24172,2,0,P|232:123|231:88,1,70,8|0,0:0|0:0,0:0:0:0:
184,196,24610,2,0,P|116:184|44:196,2,140,0|8|0,0:0|0:0|0:0,0:0:0:0:
244,236,25705,2,0,P|228:268|224:304,2,70,0|8|0,0:0|0:0|0:0,0:0:0:0:
336,300,26361,6,0,P|396:272|432:208,1,140,0|8,0:0|0:0,0:0:0:0:
380,144,27018,1,0,0:0:0:0:
300,164,27237,2,0,P|288:196|288:232,1,70,0|0,0:0|0:0,0:0:0:0:
216,276,27675,2,0,B|168:260|120:280|120:280|80:264,2,140,8|0|8,0:0|0:0|0:0,0:0:0:0:
288,232,28770,1,0,0:0:0:0:
216,276,28989,1,0,0:0:0:0:
192,196,29208,2,0,P|184:156|189:126,2,70,8|8|8,0:0|0:0|0:0,0:0:0:0:
288,232,29865,6,0,P|344:220|409:161,1,140,4|2,0:0|0:0,0:0:0:0:
488,192,30522,2,0,P|484:264|456:324,1,140,0|0,0:0|0:0,0:0:0:0:
372,304,31179,1,2,0:0:0:0:
288,304,31398,2,0,P|252:308|219:317,2,70,0|0|0,0:0|0:0|0:0,0:0:0:0:
236,200,32055,1,2,0:0:0:0:
156,268,32274,6,0,P|96:236|64:172,1,140,0|0,0:0|0:0,0:0:0:0:
172,164,32931,1,2,0:0:0:0:
192,36,33150,1,0,0:0:0:0:
112,92,33369,1,0,0:0:0:0:
376,36,33807,6,0,P|342:46|316:69,1,70,2|0,0:0|0:0,0:0:0:0:
312,152,34245,2,0,P|316:188|332:224,2,70,0|0|2,0:0|0:0|0:0,0:0:0:0:
384,116,34902,1,0,0:0:0:0:
456,216,35121,2,0,L|456:288,1,70,0|0,0:0|0:0,0:0:0:0:
376,308,35559,2,0,P|316:260|256:248,1,140,2|0,0:0|0:0,0:0:0:0:
184,292,36215,1,0,0:0:0:0:
172,208,36434,2,0,L|160:120,1,70,2|0,0:0|0:0,0:0:0:0:
248,132,36872,1,0,0:0:0:0:
88,188,37310,5,2,0:0:0:0:
76,272,37529,2,0,P|116:320|188:340,1,140,0|0,0:0|0:0,0:0:0:0:
256,288,38186,1,2,0:0:0:0:
340,284,38405,2,0,P|368:260|380:228,2,70,0|0|0,0:0|0:0|0:0,0:0:0:0:
296,212,39062,1,2,0:0:0:0:
276,336,39281,6,0,P|340:367|399:340,1,140,0|0,0:0|0:0,0:0:0:0:
448,272,39938,1,2,0:0:0:0:
400,172,40157,1,0,0:0:0:0:
296,212,40376,2,0,P|224:196|170:149,1,140,0|2,0:0|0:0,0:0:0:0:
144,248,41033,1,0,0:0:0:0:
80,176,41252,2,0,P|76:144|88:104,2,70,0|0|2,0:0|0:0|0:0,0:0:0:0:
176,156,41909,1,0,0:0:0:0:
92,228,42128,6,0,P|80:296|92:368,1,140,0|2,0:0|0:0,0:0:0:0:
184,316,42785,1,0,0:0:0:0:
288,312,43004,2,0,B|324:312|324:312|352:332,2,70,0|0|2,0:0|0:0|0:0,0:0:0:0:
268,208,43661,1,8,0:0:0:0:
268,208,43770,1,8,0:0:0:0:
268,208,43880,6,0,P|329:179|397:191,1,140,4|2,0:0|0:0,0:0:0:0:
344,284,44537,2,0,L|324:144,1,140,0|0,0:0|0:0,0:0:0:0:
356,68,45194,1,2,0:0:0:0:
280,32,45413,2,0,P|244:32|211:45,2,70,0|0|0,0:0|0:0|0:0,0:0:0:0:
224,120,46069,1,2,0:0:0:0:
160,180,46288,6,0,B|144:168|136:144|136:144|84:120|76:72,1,140,0|0,0:0|0:0,0:0:0:0:
180,40,46945,1,2,0:0:0:0:
224,120,47164,1,0,0:0:0:0:
308,152,47383,1,0,0:0:0:0:
152,272,47821,6,0,L|152:344,1,70,2|0,0:0|0:0,0:0:0:0:
56,312,48259,2,0,L|56:240,2,70,0|0|2,0:0|0:0|0:0,0:0:0:0:
152,272,48916,2,0,P|219:269|288:308,1,140,0|0,0:0|0:0,0:0:0:0:
328,232,49573,1,2,0:0:0:0:
396,184,49792,2,0,P|430:173|466:174,2,70,0|0|0,0:0|0:0|0:0,2:0:0:0:
332,128,50449,2,0,L|332:56,1,70,2|0,0:0|0:0,0:0:0:0:
256,104,50887,1,0,0:0:0:0:
420,68,51325,5,2,0:0:0:0:
476,160,51544,2,0,P|464:232|412:284,1,140,0|0,0:0|0:0,0:0:0:0:
344,244,52201,1,2,0:0:0:0:
260,232,52420,2,0,P|248:198|254:158,2,70,0|0|0,0:0|0:0|0:0,0:0:0:0:
288,312,53077,1,2,0:0:0:0:
208,336,53296,2,0,P|155:291|86:290,1,140,0|0,0:0|0:0,0:0:0:0:
136,208,53953,2,0,L|200:176,1,70,2|0,0:0|0:0,0:0:0:0:
36,208,54391,6,0,P|64:144|56:76,1,140,10|0,0:0|0:0,0:0:0:0:
160,80,55048,2,0,P|226:64|282:18,2,140,0|2|0,0:0|0:0|0:0,0:0:0:0:
132,158,56142,6,0,P|150:224|196:280,1,140,10|0,0:0|0:0,0:0:0:0:
167,342,56799,2,0,P|195:278|251:238,1,140,2|0,0:0|0:0,0:0:0:0:
392,208,57675,1,8,0:0:0:0:
420,276,57894,6,0,L|448:348,2,73.4999977569581,6|0|0,0:0|0:0|0:0,0:0:0:0:
365,138,58989,1,0,0:0:0:0:
292,148,59208,2,0,L|244:156,1,48.9999985046387,2|0,0:0|0:0,0:0:0:0:
164,216,59646,6,0,L|136:284,2,73.4999977569581,4|0|0,0:0|0:0|0:0,0:0:0:0:
232,52,60741,1,8,0:3:0:0:
288,100,60960,2,0,L|324:132,1,48.9999985046387,8|8,0:3|0:3,0:0:0:0:
421,126,61398,6,0,P|457:120|493:127,2,73.4999977569581,4|0|0,0:0|0:0|0:0,0:0:0:0:
372,212,62274,2,0,P|348:240|316:256,2,73.4999977569581,4|0|0,0:0|0:0|0:0,0:0:0:0:
324,126,63150,2,0,P|296:100|280:66,2,73.4999977569581,0|0|0,0:0|0:0|0:0,0:0:0:0:
444,244,64245,2,0,L|476:280,2,48.9999985046387,0|2|0,0:0|0:0|0:0,0:0:0:0:
356,238,64902,6,0,P|296:244|234:271,1,125.999996154785,4|2,0:0|0:0,0:0:0:0:
164,300,65559,2,0,P|100:280|53:240,1,125.999996154785,0|0,0:0|0:0,0:0:0:0:
96,180,66215,1,2,0:0:0:0:
172,192,66434,2,0,P|235:185|290:155,1,125.999996154785,0|0,0:0|0:0,0:0:0:0:
344,100,67091,5,2,0:0:0:0:
400,148,67310,2,0,P|407:210|392:271,1,125.999996154785,0|0,0:0|0:0,0:0:0:0:
341,325,67967,1,2,0:0:0:0:
280,280,68186,2,0,P|273:218|288:157,1,125.999996154785,0|0,0:0|0:0,0:0:0:0:
240,96,68843,2,0,P|220:72|211:39,1,62.9999980773926,2|0,0:0|0:0,0:0:0:0:
172,140,69281,2,0,P|128:172|100:236,1,125.999996154785,0|2,0:0|0:0,0:0:0:0:
208,308,69938,2,0,L|208:244,1,62.9999980773926,0|0,0:0|0:0,0:0:0:0:
328,265,70376,5,4,0:0:0:0:
328,277,70595,1,4,0:0:0:0:
208,246,71033,2,0,B|180:236|160:239|160:239|144:223|120:215,1,94.499997116089,0|0,0:0|0:0,0:0:0:0:
84,200,71471,2,0,P|92:168|84:136,1,62.9999980773926,0|0,0:0|0:0,0:0:0:0:
204,104,71909,5,4,0:0:0:0:
304,124,72128,2,0,P|308:158|298:191,2,70,0|8|0,0:0|0:0|0:0,0:0:0:0:
268,32,72785,2,0,P|336:24|408:36,1,140,0|8,0:0|0:0,0:0:0:0:
452,124,73442,1,0,0:0:0:0:
453,125,73661,2,0,P|419:125|384:117,2,70,0|0|8,0:0|0:0|0:0,0:0:0:0:
412,200,74318,1,0,0:0:0:0:
332,232,74537,2,0,P|260:244|196:228,1,140,0|8,0:0|0:0,0:0:0:0:
96,100,75413,6,0,L|164:120,1,70,0|0,0:0|0:0,0:0:0:0:
268,60,75851,2,0,L|200:40,1,70,8|0,0:0|0:0,0:0:0:0:
75,32,76288,2,0,P|60:99|75:167,1,140,0|8,0:0|0:0,0:0:0:0:
164,120,76945,2,0,P|196:128|224:152,2,70,0|0|0,0:0|0:0|0:0,0:0:0:0:
152,212,77602,1,8,0:0:0:0:
288,228,77821,2,0,P|355:216|414:175,1,140,0|0,0:0|0:0,0:0:0:0:
468,96,78478,2,0,L|468:24,2,70,8|0|0,0:0|0:0|0:0,0:0:0:0:
396,260,79354,5,8,0:0:0:0:
412,176,79573,2,0,L|376:116,1,70,0|0,0:0|0:0,0:0:0:0:
328,204,80011,2,0,L|289:262,1,70,0|8,0:0|0:0,0:0:0:0:
208,276,80449,1,0,0:0:0:0:
248,168,80668,2,0,P|240:96|192:48,1,140,0|8,0:0|0:0,0:0:0:0:
128,152,81325,2,0,L|128:222,1,70,0|0,0:0|0:0,0:0:0:0:
36,80,81982,5,8,0:0:0:0:
128,60,82201,1,0,0:0:0:0:
216,100,82420,2,0,P|280:116|352:108,1,140,0|8,0:0|0:0,0:0:0:0:
447,48,83077,2,0,P|424:114|424:184,1,140,0|0,0:0|0:0,0:0:0:0:
496,288,83734,2,0,P|504:252|496:216,1,70,8|0,0:0|0:0,0:0:0:0:
392,256,84172,6,0,P|356:248|326:231,2,70,0|8|8,0:0|0:0|0:0,0:0:0:0:
424,332,84829,1,0,0:0:0:0:
344,328,85048,2,0,P|312:344|272:348,1,70,8|0,0:0|0:0,0:0:0:0:
392,256,85486,1,8,0:0:0:0:
416,172,85705,1,0,0:0:0:0:
416,172,85814,1,0,0:0:0:0:
416,172,85923,5,4,0:0:0:0:
432,68,86142,2,0,P|436:32|424:-4,2,70,0|8|0,0:0|0:0|0:0,0:0:0:0:
416,172,86799,2,0,P|352:132|324:72,1,140,0|8,0:0|0:0,0:0:0:0:
220,156,87456,1,0,0:0:0:0:
220,156,87675,2,0,B|216:120|216:120|226:87,2,70,0|0|8,0:0|0:0|0:0,0:0:0:0:
144,192,88332,1,0,0:0:0:0:
116,64,88551,2,0,P|168:28|248:12,1,140,0|8,0:0|0:0,0:0:0:0:
368,124,89427,6,0,L|368:52,1,70,0|0,0:0|0:0,0:0:0:0:
452,128,89865,2,0,L|452:200,1,70,8|0,0:0|0:0,0:0:0:0:
368,124,90303,2,0,P|300:108|228:113,1,140,0|8,0:0|0:0,0:0:0:0:
220,200,90960,2,0,L|160:244,1,70,0|0,0:0|0:0,0:0:0:0:
296,252,91398,2,0,L|356:208,1,70,0|8,0:0|0:0,0:0:0:0:
368,124,91836,2,0,P|324:64|320:0,1,140,0|0,0:0|0:0,0:0:0:0:
420,56,92493,2,0,P|444:68|500:80,2,70,8|0|0,0:0|0:0|0:0,0:0:0:0:
432,184,93369,5,8,0:0:0:0:
352,264,93588,2,0,L|356:192,1,70,0|0,0:0|0:0,0:0:0:0:
464,256,94026,2,0,L|460:328,1,70,0|8,0:0|0:0,0:0:0:0:
348,340,94464,1,0,0:0:0:0:
264,276,94683,1,0,0:0:0:0:
160,308,94902,2,0,L|91:294,1,70,0|8,0:0|0:0,0:0:0:0:
188,228,95340,2,0,B|212:172|192:128|192:128|216:96,1,140,0|0,0:0|0:0,0:0:0:0:
304,132,95996,2,0,L|368:96,1,70,8|0,0:0|0:0,0:0:0:0:
214,99,96434,6,0,P|143:69|77:69,1,140,0|8,0:0|0:0,0:0:0:0:
8,176,97091,2,0,P|79:206|144:205,1,140,0|0,0:0|0:0,0:0:0:0:
244,188,97748,1,8,0:0:0:0:
384,216,97967,2,0,L|338:162,1,70,0|0,0:0|0:0,0:0:0:0:
144,128,98624,5,2,0:0:0:0:
248,288,99062,1,2,0:0:0:0:
352,128,99500,1,2,0:0:0:0:
256,192,99719,12,4,101690,0:0:0:0:
240,128,103004,6,0,B|188:120|184:192|224:232,1,140,8|4,0:0|0:0,0:0:0:0:
256,192,115705,12,0,117456,0:0:0:0:
164,120,117894,5,2,0:0:0:0:
88,124,118113,2,0,P|72:192|88:260,2,140,0|0|2,0:0|0:0|0:0,0:0:0:0:
200,52,119427,1,0,0:0:0:0:
269,173,119865,2,0,P|319:126|340:60,1,140,2|0,0:0|0:0,0:0:0:0:
428,116,120522,2,0,L|444:184,1,70,0|2,0:0|0:0,0:0:0:0:
216,236,121398,5,2,0:0:0:0:
232,312,121617,2,0,P|160:312|104:276,1,140,0|0,0:0|0:0,0:0:0:0:
88,124,122493,1,2,0:0:0:0:
148,80,122712,1,0,0:0:0:0:
220,80,122931,2,0,B|248:88|280:88|280:88|288:124|304:104|304:104|340:116,2,140,0|2|0,0:0|0:0|0:0,0:0:0:0:
168,160,124026,2,0,P|184:228|232:280,1,140,2|0,0:0|0:0,0:0:0:0:
440,196,124902,5,2,0:0:0:0:
440,272,125121,2,0,P|396:328|320:348,1,140,0|0,0:0|0:0,0:0:0:0:
168,160,125996,1,2,0:0:0:0:
72,272,126434,2,0,P|116:328|192:348,1,140,0|0,0:0|0:0,0:0:0:0:
292,232,127310,2,0,P|256:224|224:232,1,70,2|0,0:0|0:0,0:0:0:0:
368,268,127748,1,2,0:0:0:0:
368,268,127967,6,0,P|400:208|396:136,1,140,0|0,0:0|0:0,0:0:0:0:
320,104,128624,2,0,B|280:104|252:116|252:116|232:92|192:76,1,140,2|0,0:0|0:0,0:0:0:0:
320,104,129500,1,0,0:0:0:0:
300,208,129719,2,0,B|248:236|196:208|196:208|172:164|112:156,1,210,2|2,0:0|0:0,0:0:0:0:
4,328,130814,2,0,P|70:309|110:253,1,140,0|2,0:0|0:0,0:0:0:0:
115,156,131471,6,0,P|154:100|221:81,1,140,4|8,0:0|0:0,0:0:0:0:
276,144,132128,2,0,P|304:168|336:176,2,70,0|0|0,0:0|0:0|0:0,0:0:0:0:
344,88,132785,1,8,0:0:0:0:
420,156,133004,2,0,P|408:224|352:260,1,140,0|0,0:0|0:0,0:0:0:0:
272,236,133661,1,8,0:0:0:0:
200,188,133880,2,0,P|164:176|128:176,1,70,0|0,0:0|0:0,0:0:0:0:
276,144,134318,2,0,P|304:124|320:90,2,70,0|8|0,0:0|0:0|0:0,0:0:0:0:
200,188,134975,1,0,0:0:0:0:
116,56,135413,5,8,0:0:0:0:
48,120,135632,2,0,P|28:188|48:252,1,140,0|0,0:0|0:0,0:0:0:0:
120,296,136288,1,8,0:0:0:0:
196,264,136507,2,0,P|232:272|256:296,2,70,0|0|0,0:0|0:0|0:0,0:0:0:0:
188,348,137164,1,8,0:0:0:0:
120,296,137383,2,0,P|108:224|132:160,1,140,0|0,0:0|0:0,0:0:0:0:
244,84,138040,2,0,L|177:61,1,70,8|0,0:0|0:0,0:0:0:0:
224,176,138478,1,0,0:0:0:0:
96,92,138916,5,8,0:0:0:0:
178,62,139135,2,0,P|244:52|316:68,1,140,0|0,0:0|0:0,0:0:0:0:
396,36,139792,1,8,0:0:0:0:
384,136,140011,2,0,P|356:156|312:164,2,70,0|0|0,0:0|0:0|0:0,0:0:0:0:
396,36,140668,1,8,0:0:0:0:
448,96,140887,2,0,L|464:164,1,70,0|0,0:0|0:0,0:0:0:0:
420,236,141325,1,8,0:0:0:0:
372,168,141544,1,8,0:0:0:0:
288,156,141763,5,0,0:0:0:0:
320,232,141982,2,0,P|320:264|308:300,2,70,0|0|8,0:0|0:0|0:0,0:0:0:0:
232,248,142639,2,0,P|164:256|92:240,1,140,0|0,0:0|0:0,0:0:0:0:
160,156,143296,2,0,B|172:124|172:124|164:89,1,70,8|0,0:0|0:0,0:0:0:0:
232,176,143734,2,0,P|304:172|356:132,1,140,0|8,0:0|0:0,0:0:0:0:
408,68,144391,1,0,0:0:0:0:
460,136,144610,2,0,L|460:172,1,35,8|0,0:0|0:0,0:0:0:0:
496,52,144938,2,0,L|496:16,1,35,0|8,0:0|0:0,0:0:0:0:
408,68,145267,1,8,0:0:0:0:
408,68,145376,1,8,0:0:0:0:
408,68,145486,6,0,P|376:132|376:200,2,140,4|8|0,0:0|0:0|0:0,0:0:0:0:
320,40,146580,1,0,0:0:0:0:
224,96,146799,2,0,L|244:28,1,70,8|0,0:0|0:0,0:0:0:0:
152,136,147237,2,0,P|144:200|176:276,2,140,0|8|0,0:0|0:0|0:0,0:0:0:0:
120,36,148332,2,0,P|84:40|52:56,2,70,8|8|0,0:0|0:0|0:0,0:0:0:0:
152,136,148989,6,0,P|136:200|80:256,1,140,0|8,0:0|0:0,0:0:0:0:
156,320,149646,1,0,0:0:0:0:
224,252,149865,2,0,P|280:218|359:217,1,140,0|8,0:0|0:0,0:0:0:0:
354,127,150522,1,0,0:0:0:0:
256,124,150741,2,0,P|192:108|135:52,2,140,0|8|0,0:0|0:0|0:0,0:0:0:0:
304,208,151836,2,0,L|304:280,1,70,8|8,0:0|0:0,0:0:0:0:
456,184,152493,6,0,B|468:144|468:144|448:108|456:44,1,140,0|8,0:0|0:0,0:0:0:0:
364,84,153150,2,0,P|292:92|228:68,1,140,0|0,0:0|0:0,0:0:0:0:
140,84,153807,1,8,0:0:0:0:
140,180,154026,2,0,L|172:244,1,70,0|0,0:0|0:0,0:0:0:0:
268,304,154464,1,0,0:0:0:0:
284,192,154683,2,0,L|252:128,1,70,8|0,0:0|0:0,0:0:0:0:
140,84,155121,2,0,P|104:72|72:72,2,70,0|8|8,0:0|0:0|0:0,0:0:0:0:
140,180,155778,1,0,0:0:0:0:
236,248,155996,6,0,B|268:248|300:268|300:268|340:256|372:260,1,140,0|8,0:0|0:0,0:0:0:0:
356,176,156653,1,0,0:0:0:0:
276,144,156872,2,0,P|288:72|332:24,1,140,0|8,0:0|0:0,0:0:0:0:
404,64,157529,1,0,0:0:0:0:
356,176,157748,1,0,0:0:0:0:
196,136,157967,2,0,P|160:132|126:136,2,70,8|8|0,0:0|0:0|0:0,0:0:0:0:
160,272,158624,6,0,P|228:292|296:284,1,140,8|8,0:0|0:0,0:0:0:0:
424,186,159281,2,0,P|390:175|356:176,1,70,0|8,0:0|0:0,0:0:0:0:
256,192,159719,12,4,163004,0:0:0:0:
192,264,166507,6,0,B|188:220|159:190|159:190|156:164|180:136,1,140,4|0,0:0|0:0,0:0:0:0:
333,137,167383,2,0,B|356:164|352:190|352:190|324:220|320:264,1,140,8|0,0:0|0:0,0:0:0:0:
192,264,168259,6,0,B|160:243|130:247|130:247|105:215,2,105,0|0|0,0:0|0:0|0:0,0:0:0:0:
276,268,169135,2,0,B|307:288|337:284|337:284|362:316,2,105,8|0|0,0:0|0:0|0:0,0:0:0:0:
328,200,170011,6,0,B|288:128|214:139|214:139|160:104|160:104|132:132|88:136,1,280,0|8,0:0|0:0,0:0:0:0:
84,24,171325,1,0,0:0:0:0:
92,136,171763,6,0,P|108:184|148:220,2,105,0|0|0,0:0|0:0|0:0,0:0:0:0:
196,128,172639,1,8,0:0:0:0:
300,128,172858,2,0,L|332:148,2,35,0|0|8,0:0|0:0|0:0,0:0:0:0:
204,312,173515,6,0,P|249:259|256:192,1,140,12|8,0:0|0:0,0:0:0:0:
156,240,174172,2,0,P|130:265|119:299,1,70,0|8,0:0|0:0,0:0:0:0:
272,356,174829,1,8,0:0:0:0:
412,340,175267,6,0,P|446:279|444:210,1,140,0|8,0:0|0:0,0:0:0:0:
392,144,175923,1,8,0:0:0:0:
344,212,176142,2,0,P|308:216|272:208,2,70,0|0|8,0:0|0:0|0:0,0:0:0:0:
223,87,177018,6,0,P|269:140|275:208,1,140,8|8,0:0|0:0,0:0:0:0:
208,252,177675,1,0,0:0:0:0:
160,188,177894,1,8,0:0:0:0:
224,88,178332,2,0,P|212:52|192:28,1,70,8|0,0:0|0:0,0:0:0:0:
92,104,178770,6,0,P|63:167|70:235,1,140,0|8,0:0|0:0,0:0:0:0:
132,300,179427,1,8,0:0:0:0:
208,252,179646,2,0,P|242:245|276:249,2,70,0|0|8,0:0|0:0|0:0,0:0:0:0:
240,160,180303,1,0,0:0:0:0:
352,148,180522,6,0,P|321:85|263:48,1,140,0|8,0:0|0:0,0:0:0:0:
164,52,181179,1,0,0:0:0:0:
92,120,181398,2,0,P|88:154|92:189,1,70,0|0,0:0|0:0,0:0:0:0:
240,229,181836,2,0,P|243:194|239:159,1,70,8|0,0:0|0:0,0:0:0:0:
168,284,182274,2,0,P|228:316|296:300,1,140,0|8,0:0|0:0,0:0:0:0:
328,224,182931,1,0,0:0:0:0:
372,144,183150,2,0,P|400:168|416:200,1,70,0|0,0:0|0:0,0:0:0:0:
428,280,183588,1,8,0:0:0:0:
427,280,184026,6,0,P|456:216|444:148,1,140,0|8,0:0|0:0,0:0:0:0:
336,200,184683,1,0,0:0:0:0:
244,272,184902,2,0,P|216:204|232:140,1,140,0|8,0:0|0:0,0:0:0:0:
336,92,185559,1,0,0:0:0:0:
364,220,185778,2,0,B|324:284|240:272,1,140,0|8,0:0|0:0,0:0:0:0:
83,233,186653,6,0,P|88:199|104:168,1,70,0|8,0:0|0:0,0:0:0:0:
215,252,187091,2,0,P|209:287|194:319,1,70,8|8,0:0|0:0,0:0:0:0:
256,192,187529,12,2,189281,0:0:0:0:
128,112,190157,5,2,0:0:0:0:
148,100,190595,1,2,0:0:0:0:
172,92,191033,6,0,P|205:99|234:117,1,70,4|0,0:0|0:0,0:0:0:0:
280,232,191471,2,0,P|245:224|216:205,1,70,8|0,0:0|0:0,0:0:0:0:
172,92,191909,2,0,P|116:144|104:204,1,140,0|8,0:0|0:0,0:0:0:0:
164,264,192566,1,0,0:0:0:0:
116,332,192785,2,0,P|80:332|48:320,2,70,0|0|8,0:0|0:0|0:0,0:0:0:0:
240,304,193442,1,0,0:0:0:0:
280,232,193661,2,0,B|300:200|332:192|332:192|364:196|404:184,1,140,0|8,0:0|0:0,0:0:0:0:
284,48,194537,6,0,P|247:46|216:56,1,70,0|0,0:0|0:0,0:0:0:0:
324,112,194975,2,0,P|360:113|391:103,1,70,8|0,0:0|0:0,0:0:0:0:
324,112,195413,2,0,P|316:176|352:252,1,140,0|8,0:0|0:0,0:0:0:0:
288,304,196069,6,0,L|220:292,1,70,0|0,0:0|0:0,0:0:0:0:
200,180,196507,2,0,P|232:196|252:224,1,70,0|8,0:0|0:0,0:0:0:0:
160,244,196945,2,0,P|96:228|52:168,1,140,0|0,0:0|0:0,0:0:0:0:
152,140,197602,1,8,0:0:0:0:
160,244,197821,2,0,L|164:320,1,70,0|0,0:0|0:0,0:0:0:0:
281,184,198478,5,8,0:0:0:0:
282,100,198697,1,0,0:0:0:0:
152,140,198916,1,0,0:0:0:0:
200,208,199135,1,0,0:0:0:0:
203,73,199354,1,8,0:0:0:0:
283,99,199573,2,0,P|349:112|415:90,1,140,0|0,0:0|0:0,0:0:0:0:
404,12,200230,1,8,0:0:0:0:
500,80,200449,2,0,L|492:152,1,70,0|0,0:0|0:0,0:0:0:0:
372,356,201106,5,8,0:0:0:0:
288,344,201325,1,0,0:0:0:0:
248,268,201544,2,0,P|184:236|112:234,1,140,0|8,0:0|0:0,0:0:0:0:
200,168,202201,2,0,P|224:104|216:28,1,140,0|0,0:0|0:0,0:0:0:0:
104,88,202858,5,8,0:0:0:0:
52,164,203077,2,0,P|56:196|72:236,1,70,0|8,0:0|0:0,0:0:0:0:
148,276,203515,2,0,P|171:302|184:336,2,70,0|8|0,0:0|0:0|0:0,0:0:0:0:
240,208,204172,2,8,L|324:236,1,70,8|8,0:0|0:0,0:0:0:0:
328,316,204610,1,8,0:0:0:0:
240,208,205048,6,0,L|240:136,1,70,4|0,0:0|0:0,0:0:0:0:
328,84,205486,2,0,L|328:156,1,70,8|0,0:0|0:0,0:0:0:0:
240,139,205923,2,0,P|180:103|111:95,1,140,0|8,0:0|0:0,0:0:0:0:
76,172,206580,1,0,0:0:0:0:
88,256,206799,2,0,P|84:288|64:324,2,70,0|0|8,0:0|0:0|0:0,0:0:0:0:
156,212,207456,1,0,0:0:0:0:
176,328,207675,2,0,P|244:335|307:306,1,140,0|8,0:0|0:0,0:0:0:0:
444,236,208551,6,0,P|468:260|484:296,1,70,0|0,0:0|0:0,0:0:0:0:
360,239,208989,2,0,P|335:215|320:183,1,70,8|0,0:0|0:0,0:0:0:0:
420,148,209427,2,0,P|440:80|416:16,1,140,0|8,0:0|0:0,0:0:0:0:
312,8,210084,2,0,P|276:8|244:20,1,70,0|0,0:0|0:0,0:0:0:0:
232,136,210522,2,0,P|264:136|300:124,1,70,0|8,0:0|0:0,0:0:0:0:
172,68,210960,2,0,P|112:112|92:172,1,140,0|0,0:0|0:0,0:0:0:0:
168,208,211617,1,8,0:0:0:0:
236,256,211836,2,0,P|236:288|224:324,1,70,0|0,0:0|0:0,0:0:0:0:
310,215,212493,5,8,0:0:0:0:
374,95,212712,1,0,0:0:0:0:
252,156,212931,1,0,0:0:0:0:
386,179,213150,1,0,0:0:0:0:
292,84,213369,1,8,0:0:0:0:
164,48,213588,2,0,P|120:108|120:172,1,140,0|0,0:0|0:0,0:0:0:0:
168,240,214245,1,8,0:0:0:0:
88,256,214464,2,0,L|20:224,1,70,0|0,0:0|0:0,0:0:0:0:
224,300,215121,5,8,0:0:0:0:
296,344,215340,1,0,0:0:0:0:
380,336,215559,2,0,P|440:299|473:241,1,140,0|8,0:0|0:0,0:0:0:0:
443,116,216215,2,0,P|382:152|349:210,1,140,0|0,0:0|0:0,0:0:0:0:
260,216,216872,2,0,P|226:205|198:183,1,70,8|0,0:0|0:0,0:0:0:0:
260,54,217310,6,0,L|272:124,1,70,0|0,0:0|0:0,0:0:0:0:
160,100,217748,2,0,L|148:30,1,70,8|0,0:0|0:0,0:0:0:0:
48,84,218186,5,8,0:0:0:0:
32,192,218405,1,8,0:0:0:0:
76,292,218624,1,8,0:0:0:0:
148,204,218843,1,2,0:0:0:0:
208,299,219062,6,0,P|138:315|70:287,1,140,4|8,0:0|0:0,0:0:0:0:
88,196,219719,1,0,0:0:0:0:
68,104,219938,2,0,P|36:92|0:90,2,70,0|0|8,0:0|0:0|0:0,0:0:0:0:
160,64,220595,6,0,L|232:84,1,70,0|0,0:0|0:0,0:0:0:0:
304,152,221033,2,0,L|370:128,1,70,0|8,0:0|0:0,0:0:0:0:
248,232,221471,2,0,L|181:255,1,70,0|0,0:0|0:0,0:0:0:0:
324,301,221909,2,0,L|391:319,1,70,0|8,0:0|0:0,0:0:0:0:
424,240,222347,1,0,0:0:0:0:
372,128,222566,6,0,P|312:104|236:120,1,140,0|8,0:0|0:0,0:0:0:0:
200,192,223223,1,0,0:0:0:0:
120,220,223442,2,0,P|84:224|50:216,2,70,0|0|8,0:0|0:0|0:0,0:0:0:0:
168,304,224099,6,0,L|118:353,1,70,0|0,0:0|0:0,0:0:0:0:
24,284,224537,2,0,L|52:216,1,70,0|8,0:0|0:0,0:0:0:0:
96,132,224975,1,0,0:0:0:0:
164,204,225194,2,0,P|189:219|244:228,2,70,0|0|8,0:0|0:0|0:0,0:0:0:0:
232,128,225850,1,0,0:0:0:0:
348,96,226069,6,0,P|344:168|304:225,1,140,0|8,0:0|0:0,0:0:0:0:
232,268,226726,1,0,0:0:0:0:
144,244,226945,2,0,P|108:240|74:244,2,70,0|0|8,0:0|0:0|0:0,0:0:0:0:
184,336,227602,6,0,L|260:364,1,70,0|0,0:0|0:0,0:0:0:0:
316,300,228040,2,0,L|388:300,1,70,0|8,0:0|0:0,0:0:0:0:
464,232,228478,1,0,0:0:0:0:
372,192,228697,2,0,P|356:160|348:124,2,70,0|0|8,0:0|0:0|0:0,0:0:0:0:
444,132,229354,1,0,0:0:0:0:
444,132,229792,5,0,0:0:0:0:
400,40,230011,1,8,0:0:0:0:
348,127,230230,2,0,P|304:188|244:216,1,140,0|0,0:0|0:0,0:0:0:0:
188,152,230887,1,8,0:0:0:0:
128,212,231106,2,0,L|160:276,1,70,0|0,0:0|0:0,0:0:0:0:
279,279,231544,2,0,L|247:215,1,70,0|8,0:0|0:0,0:0:0:0:
188,152,231982,1,0,0:0:0:0:
284,88,232201,6,0,P|292:48|284:4,1,83.9999974365235,0|8,0:0|0:0,0:0:0:0:
348,128,232639,2,0,P|340:168|348:212,1,83.9999974365235,0|8,0:0|0:0,0:0:0:0:
296,304,233077,6,0,L|224:320,1,70,2|0,0:0|0:0,0:0:0:0:
136,276,233515,6,0,P|100:268|66:276,2,70,12|0|2,0:0|0:0|0:0,0:0:0:0:
216,224,234172,1,0,0:0:0:0:
216,224,234281,1,0,0:0:0:0:
216,224,234391,2,0,P|224:192|216:152,1,70,8|0,0:0|0:0,0:0:0:0:
312,184,234829,2,0,P|372:152|400:80,1,140,2|8,0:0|0:0,0:0:0:0:
288,72,235486,1,0,0:0:0:0:
164,88,235705,6,0,P|185:61|219:47,1,70,2|0,0:0|0:0,0:0:0:0:
162,174,236142,2,0,L|94:192,1,70,8|0,0:0|0:0,0:0:0:0:
239,136,236580,2,0,P|263:192|271:272,1,140,2|8,0:0|0:0,0:0:0:0:
348,320,237237,2,0,L|400:272,1,70,0|2,0:0|0:0,0:0:0:0:
352,200,237675,2,0,L|352:130,1,70,0|8,0:0|0:0,0:0:0:0:
240,136,238113,1,0,0:0:0:0:
204,240,238332,2,0,B|132:256|132:256|68:236,1,140,2|8,0:0|0:0,0:0:0:0:
36,132,238989,1,0,0:0:0:0:
100,44,239208,6,0,L|39:9,1,70,2|0,0:0|0:0,0:0:0:0:
177,12,239646,2,0,L|240:42,1,70,8|0,0:0|0:0,0:0:0:0:
152,113,240084,2,0,P|152:176|196:244,1,140,2|8,0:0|0:0,0:0:0:0:
272,184,240741,1,0,0:0:0:0:
336,256,240960,1,2,0:0:0:0:
256,312,241179,2,0,L|232:380,1,70,0|8,0:0|0:0,0:0:0:0:
348,348,241617,1,0,0:0:0:0:
432,288,241836,1,2,0:0:0:0:
336,256,242055,2,0,P|320:228|312:192,2,70,0|8|0,0:0|0:0|0:0,0:0:0:0:
408,192,242712,6,0,L|432:124,1,70,2|0,0:0|0:0,0:0:0:0:
312,192,243150,2,0,L|252:232,1,70,8|0,0:0|0:0,0:0:0:0:
168,284,243588,2,0,P|136:220|80:184,1,140,2|8,0:0|0:0,0:0:0:0:
220,176,244245,1,0,0:0:0:0:
196,88,244464,6,0,L|172:20,1,70,2|0,0:0|0:0,0:0:0:0:
288,108,244902,2,0,L|292:32,1,70,8|0,0:0|0:0,0:0:0:0:
372,148,245340,2,0,L|406:80,1,70,2|0,0:0|0:0,0:0:0:0:
420,224,245778,2,0,L|479:176,1,70,8|0,0:0|0:0,0:0:0:0:
468,300,246215,2,0,P|436:312|398:310,2,70,2|8|8,0:0|0:0|0:0,0:0:0:0:
256,192,247091,12,8,250157,0:0:0:0:
256,192,250376,5,4,0:0:0:0:
