osu file format v9

[General]
AudioFilename: cancion.mp3
AudioLeadIn: 3000
PreviewTime: 11611
Countdown: 0
SampleSet: Soft
StackLeniency: 0.6
Mode: 0
LetterboxInBreaks: 1
EpilepsyWarning: 1

[Editor]
DistanceSpacing: 0.9
BeatDivisor: 2
GridSize: 8

[Metadata]
Title:SP-TRIP MACHINE (JUNGLE MIX)
Artist:DE-SIRE
Creator:ikari_kyon
Version:Normal
Source:Dance Dance Revolution 2ndMIX
Tags:stepmania simulation ddr naoki maeda

[Difficulty]
HPDrainRate:3
CircleSize:3
OverallDifficulty:3
ApproachRate:5
SliderMultiplier:0.999999999999999
SliderTickRate:1

[Events]
//Background and Video events
0,0,"fondo.jpg"
//Break Periods
//Storyboard Layer 0 (Background)
//Storyboard Layer 1 (Fail)
//Storyboard Layer 2 (Pass)
//Storyboard Layer 3 (Foreground)
Sprite,Foreground,Centre,"blanco.jpg",320,240 S,0,11846,,0.8361601 F,0,11846,11986,0,1 F,0,11986,12080,1,0
Sprite,Foreground,Centre,"blanco.jpg",320,240 F,0,36895,37270,0,1 S,0,37270,,1 F,0,37270,37598,1,0
Sprite,Foreground,Centre,"blanco.jpg",320,240 F,0,15076,15170,0,1 S,0,15170,,0.8054401 F,0,15170,15264,1,0 F,0,15264,15357,0,1 F,0,15357,15451,1,0 F,0,15451,18167,0 F,0,18167,18354,0,1 F,0,18354,18541,1,0 F,0,18541,20976,0 F,0,20976,21116,0,1 F,0,21116,21257,1,0 F,0,21257,21350,0,1 F,0,21350,21491,1,0 F,0,21491,26126,0 F,0,26126,26220,0,1 F,0,26220,26407,1,0 F,0,26407,26595,0,1 F,0,26595,26782,1,0
Sprite,Foreground,Centre,"blanco.jpg",320,240 F,0,42140,42327,0,1 S,0,42327,,0.8259201 F,0,42327,42514,1,0 F,0,42514,45136,0 F,0,45136,45324,0,1 F,0,45324,45511,1,0 F,0,45511,45558,0
Sprite,Foreground,Centre,"blanco.jpg",320,240 F,0,50193,50287,0,1 F,0,50287,50380,1,0 F,0,50380,50474,0 F,0,50474,50568,0,1 F,0,50568,50661,1,0
Sprite,Foreground,Centre,"desv.png",320,240 M,0,0,,320,240 S,0,0,,0.8054399 F,0,0,561,0,1 F,0,561,2856,1,0.03894472 F,0,2856,2949,0.03894472,1 F,0,2949,3464,1,0 F,0,3464,3511,0,0.9896661 F,0,3511,5946,0.9896661,0.01874065 F,0,5946,5993,0.01874065,1 F,0,5993,6367,1,0 F,0,6367,6555,0,1 F,0,6555,8943,1,0 F,0,8943,8989,0,1 F,0,8989,9551,1,0 F,0,9551,9739,0,1 F,0,9739,11050,1,0
Sprite,Foreground,Centre,"desv.png",320,240 L,0,20 F,0,11986,13297,0,1 F,0,13297,15357,1,0 S,0,15919,,0.8054399 F,0,37270,37457,0.1039999,0 F,0,37457,38955,0 F,0,50193,50754,0
Sprite,Foreground,Centre,"desv.png",320,240 F,0,20976,21163,0,1 M,0,21163,,320,240 F,0,21163,21350,1,0 S,0,21163,21350,0.7952002,1.01024
Sprite,Foreground,Centre,"desv.png",320,240 F,0,14983,15170,0,1 M,0,15170,,320,240 F,0,15170,15357,1,0 S,0,15170,15357,0.8054401,0.97952
Sprite,Foreground,Centre,"desv.png",320,240 F,0,33150,33337,0,1 F,0,33337,33524,1,0 S,0,33337,33524,0.8054401,1.08192
Sprite,Foreground,Centre,"desv.png",320,240 S,0,47571,,0.80544 F,0,47571,47618,0,1 F,0,47618,47665,1,0 F,0,47665,47711,0,1 F,0,47711,47758,1,0 F,0,47758,47805,0,1
Sprite,Foreground,Centre,"desv.png",320,240 F,0,63210,63303,0,1 F,0,63303,63397,1,0 S,0,63303,63397,0.80544,1.03072
//Storyboard Sound Samples
//Background Colour Transformations
3,100,192,192,192

[TimingPoints]
0,374.555215681378,4,2,0,85,1,0
84274,-100,4,2,0,5,0,0

[Colours]
Combo1 : 255,255,255
Combo2 : 0,128,0
Combo3 : 0,255,0

[HitObjects]
200,80,0,2,0,B|224:48|280:48|296:72,2,99.9999999999999,0|2|0
136,144,1123,1,2
104,224,1498,2,2,B|91:257|96:316|144:332|192:324|216:260,1,200
136,144,2996,6,0,B|192:135|232:159|232:207|240:224,1,150,2|0
264,312,3932,2,0,B|314:312,1,50,0|2
360,312,4307,2,0,B|448:312,1,50,0|2
456,312,4681,2,0,B|456:260,6,50
408,320,5992,6,0,B|256:320,1,150
168,320,6929,2,2,B|144:296|152:248|200:236,1,99.9999999999999,2|2
232,232,7491,2,0,B|272:232|312:200|296:136|232:104|176:136,1,200,2|0
80,88,8989,5,2
80,248,9738,1,0
208,152,10487,1,0
288,152,10862,2,2,B|308:88,1,50
216,320,11985,6,0,B|240:352|288:352|320:312,1,99.9999999999999,4|0
304,192,12922,1,2
304,144,13109,1,2
304,96,13296,1,2
216,116,13671,5,0
216,160,13858,2,2,B|216:208,1,50
216,256,14233,2,2,B|136:256,1,50
120,256,14607,2,0,B|64:256,2,50
160,344,15356,1,6
248,336,15731,6,2,B|288:296|280:248|240:240,1,99.9999999999999
192,192,16480,2,0,B|152:233|184:300,1,99.9999999999999,0|2
256,248,17229,1,0
344,240,17604,2,0,B|352:192|352:192|392:216|472:216|472:136,1,200,2|4
368,144,18915,6,2,B|384:96|344:48,1,99.9999999999999
256,48,19664,2,0,B|208:96|216:144,1,99.9999999999999,2|0
232,224,20413,2,0,B|208:256|248:272,2,50
368,208,21162,6,2,B|368:272,1,50,2|6
304,136,21911,1,0
272,104,22098,1,0
240,72,22286,1,0
184,136,22660,5,0
208,224,23035,1,2
296,232,23409,1,0
384,232,23784,1,0
392,192,23971,6,0,B|405:147|384:88|304:80|253:123,1,200,2|0
224,200,25095,1,0
288,264,25469,1,2
392,192,26031,6,0,B|376:264,4,50,0|4|0|4|0
312,80,27342,1,2
200,152,27904,1,2
48,48,28653,5,0
48,136,29028,1,2
48,224,29402,1,0
48,312,29777,1,2
96,312,29964,2,0,B|128:192|192:224,2,150,2|0|2
184,312,31462,1,2
256,176,32024,6,0,B|320:152|368:168,2,99.9999999999999,2|0|2
120,240,33335,1,4
256,296,33897,2,2,B|312:296,2,50,2|2|2
256,192,34833,12,4,36331
256,192,37268,5,4
256,192,38953,6,0,B|256:128,2,50,0|2|0
256,192,39890,1,2
368,200,40639,5,0
368,200,40826,2,0,B|328:144|272:176|256:216|264:272|288:288,1,200,2|0
184,288,41950,1,0
80,288,42324,2,0,B|78:275|72:200|160:176,2,150,2|2|2
184,288,43822,5,0
288,288,44197,1,0
384,288,44572,2,2,B|384:352,2,50
344,192,45321,1,0
256,72,45883,1,4
248,280,47943,6,0,B|184:280,1,50,0|2
200,232,48317,2,0,B|128:232,1,50,0|2
160,184,48692,2,0,B|104:184,1,50,0|2
256,104,50190,5,0
344,120,50564,1,0
432,136,50939,2,0,B|424:280|384:304|336:272,1,200,2|0
264,240,52063,1,2
152,56,53186,6,2,B|128:80|152:104,3,50
232,96,53935,1,0
328,120,54310,1,0
296,216,54685,2,0,B|312:240|288:280|240:256|240:256|216:296|160:288|176:224,1,200,2|0
184,144,55808,5,0
272,96,56183,1,2
368,120,56557,1,2
392,216,56932,2,2,B|400:288|376:320|312:352|272:328,1,200
360,120,58805,5,0
272,112,59179,2,2,B|224:112|192:144|184:160,1,99.9999999999999
184,248,59928,1,4
304,312,60490,1,0
112,96,61988,6,2,B|152:88|168:112|176:120,4,50
88,232,63299,2,0,B|128:304,1,50,4|0
200,280,63861,1,2
288,192,64610,5,2
360,136,64985,1,0
432,192,65359,1,2
376,264,65734,2,0,B|340:299,1,50
432,312,66296,6,0,B|430:165|400:104|357:106|272:88,1,300,0|4
272,240,67981,2,2,B|256:272|216:288|168:264|160:216,1,150
240,152,68918,5,0
48,88,69667,1,2
72,256,70416,5,0
160,256,70790,1,2
160,168,71165,1,0
248,168,71540,1,6
256,192,71914,12,4,73412
256,144,74161,5,0
192,208,74536,1,0
280,232,74911,2,6,B|360:248|360:248|352:272|360:304|400:320,2,150
248,104,76596,5,2
160,80,76971,1,4
176,168,77345,1,0
200,256,77720,2,4,B|248:304,1,50
320,264,78282,6,0,B|368:216|392:160|400:104|320:80|280:104|240:160,1,300,0|0
232,200,79592,1,0
152,240,79967,1,0
160,328,80342,1,0
248,328,80716,1,0
432,152,81278,5,0
432,152,81840,1,0
344,152,82214,2,2,B|344:96,4,50
256,152,83338,2,0,B|184:192|176:272|232:336,1,200,2|4
256,192,84274,12,2,87271
