osu file format v9

[General]
AudioFilename: cancion.mp3
AudioLeadIn: 3000
PreviewTime: 11611
Countdown: 0
SampleSet: Soft
StackLeniency: 0.6
Mode: 0
LetterboxInBreaks: 1
EpilepsyWarning: 1

[Editor]
DistanceSpacing: 1.3
BeatDivisor: 4
GridSize: 8

[Metadata]
Title:SP-TRIP MACHINE (JUNGLE MIX)
Artist:DE-SIRE
Creator:ikari_kyon
Version:Insane
Source:Dance Dance Revolution 2ndMIX
Tags:stepmania simulation ddr naoki maeda

[Difficulty]
HPDrainRate:7
CircleSize:4
OverallDifficulty:8
ApproachRate:8
SliderMultiplier:2
SliderTickRate:2

[Events]
//Background and Video events
0,0,"fondo.jpg"
//Break Periods
//Storyboard Layer 0 (Background)
//Storyboard Layer 1 (Fail)
//Storyboard Layer 2 (Pass)
//Storyboard Layer 3 (Foreground)
Sprite,Foreground,Centre,"blanco.jpg",320,240 S,0,11846,,0.8361601 F,0,11846,11986,0,1 F,0,11986,12080,1,0
Sprite,Foreground,Centre,"blanco.jpg",320,240 F,0,36895,37270,0,1 S,0,37270,,1 F,0,37270,37598,1,0
Sprite,Foreground,Centre,"blanco.jpg",320,240 F,0,15076,15170,0,1 S,0,15170,,0.8054401 F,0,15170,15264,1,0 F,0,15264,15357,0,1 F,0,15357,15451,1,0 F,0,15451,18167,0 F,0,18167,18354,0,1 F,0,18354,18541,1,0 F,0,18541,20976,0 F,0,20976,21116,0,1 F,0,21116,21257,1,0 F,0,21257,21350,0,1 F,0,21350,21491,1,0 F,0,21491,26126,0 F,0,26126,26220,0,1 F,0,26220,26407,1,0 F,0,26407,26595,0,1 F,0,26595,26782,1,0
Sprite,Foreground,Centre,"blanco.jpg",320,240 F,0,42140,42327,0,1 S,0,42327,,0.8259201 F,0,42327,42514,1,0 F,0,42514,45136,0 F,0,45136,45324,0,1 F,0,45324,45511,1,0 F,0,45511,45558,0
Sprite,Foreground,Centre,"blanco.jpg",320,240 F,0,50193,50287,0,1 F,0,50287,50380,1,0 F,0,50380,50474,0 F,0,50474,50568,0,1 F,0,50568,50661,1,0
Sprite,Foreground,Centre,"desv.png",320,240 M,0,0,,320,240 S,0,0,,0.8054399 F,0,0,561,0,1 F,0,561,2856,1,0.03894472 F,0,2856,2949,0.03894472,1 F,0,2949,3464,1,0 F,0,3464,3511,0,0.9896661 F,0,3511,5946,0.9896661,0.01874065 F,0,5946,5993,0.01874065,1 F,0,5993,6367,1,0 F,0,6367,6555,0,1 F,0,6555,8943,1,0 F,0,8943,8989,0,1 F,0,8989,9551,1,0 F,0,9551,9739,0,1 F,0,9739,11050,1,0
Sprite,Foreground,Centre,"desv.png",320,240 L,0,20 F,0,11986,13297,0,1 F,0,13297,15357,1,0 S,0,15919,,0.8054399 F,0,37270,37457,0.1039999,0 F,0,37457,38955,0 F,0,50193,50754,0
Sprite,Foreground,Centre,"desv.png",320,240 F,0,20976,21163,0,1 M,0,21163,,320,240 F,0,21163,21350,1,0 S,0,21163,21350,0.7952002,1.01024
Sprite,Foreground,Centre,"desv.png",320,240 F,0,14983,15170,0,1 M,0,15170,,320,240 F,0,15170,15357,1,0 S,0,15170,15357,0.8054401,0.97952
Sprite,Foreground,Centre,"desv.png",320,240 F,0,33150,33337,0,1 F,0,33337,33524,1,0 S,0,33337,33524,0.8054401,1.08192
Sprite,Foreground,Centre,"desv.png",320,240 S,0,47571,,0.80544 F,0,47571,47618,0,1 F,0,47618,47665,1,0 F,0,47665,47711,0,1 F,0,47711,47758,1,0 F,0,47758,47805,0,1
Sprite,Foreground,Centre,"desv.png",320,240 F,0,63210,63303,0,1 F,0,63303,63397,1,0 S,0,63303,63397,0.80544,1.03072
//Storyboard Sound Samples
//Background Colour Transformations
3,100,192,192,192

[TimingPoints]
0,374.555215681378,4,2,0,85,1,0
84181,-100,4,2,0,5,0,0

[Colours]
Combo1 : 255,255,255
Combo2 : 0,128,0
Combo3 : 0,255,0

[HitObjects]
256,64,0,2,0,B|303:103|303:175|255:183|207:175|187:155,1,200,2|0
168,48,561,2,0,B|148:28|100:20|52:28|52:100|100:140,1,200,2|0
184,216,1123,5,0
264,144,1310,1,0
344,216,1498,1,2
416,304,1685,2,0,B|432:344|496:336|504:288,2,100
408,192,2247,1,2
296,192,2434,2,2,B|248:176|256:112|280:104|296:104,1,100
360,40,2809,1,0
280,112,2996,6,0,B|200:136|200:216|200:216|264:256,1,200,2|0
136,240,3558,2,0,B|185:208|185:208|185:128|105:104,2,200,2|0|2
136,240,4494,5,0
200,328,4681,1,2
88,344,4869,1,0
48,240,5056,2,0,B|0:224|0:184|56:176,2,100,2|0|2
184,240,5618,1,0
280,152,5805,1,2
408,144,5992,6,0,B|424:96|408:48|408:48|352:40|312:80,1,200,2|0
312,192,6554,2,0,B|328:144|312:96|312:96|256:88|216:128,1,200,2|0
296,288,7116,6,0,B|264:272|264:272|240:248|240:200,1,100
256,312,7491,2,2,B|224:296|224:296|200:272|200:224,1,100
216,336,7865,2,0,B|184:320|184:320|160:296|160:248,1,100
168,168,8240,5,2
248,160,8427,1,2
328,168,8614,1,0
248,160,8802,1,0
168,168,8989,1,2
240,72,9363,6,0,B|176:48|112:72,1,100,2|0
72,96,9738,1,2
272,72,10112,6,0,B|336:48|400:72,1,100,2|0
448,80,10487,1,2
256,192,10862,5,2
128,192,11049,2,0,B|136:256|168:312|216:320|272:296,1,200,0|0
392,248,11611,2,0,B|435:199|456:139|430:97|376:71,1,200,0|0
240,88,12360,1,2
144,112,12547,1,2
208,184,12734,1,6
304,152,12922,2,0,B|272:256,1,100,0|0
176,264,13296,1,4
360,272,13671,5,8
384,176,13858,2,8,B|424:200|424:200|448:248|424:288,1,100,0|8
336,232,14233,2,8,B|296:256|296:256|272:304|296:344,1,100,0|8
184,304,14607,1,4
168,208,14794,1,4
368,64,15169,5,2
280,112,15356,1,14
48,48,15731,5,0
144,72,15918,1,0
64,136,16105,1,12
152,176,16293,2,0,B|232:240,1,100,0|0
320,280,16667,2,0,B|400:280|416:240,4,100,4|8|0|8|4
224,240,17604,5,12
192,144,17791,1,12
248,64,17978,1,0
360,64,18165,2,0,B|352:112|360:152|296:152,2,100,0|12|0
256,168,18915,6,0,B|256:288,1,100
256,168,19289,1,12
360,176,19476,1,0
256,168,19664,1,0
216,80,19851,1,12
120,72,20038,1,0
88,168,20225,2,0,B|64:216|80:264|120:264,1,100,0|8
216,288,20600,2,0,B|267:301|311:275|303:236,1,100,0|8
456,40,21162,6,4,B|456:144,1,100,4|12
248,136,21724,5,0
216,232,21911,1,0
312,208,22098,1,8
408,200,22286,2,0,B|408:88,1,100,8|0
336,168,22660,2,0,B|336:64,1,100,0|8
264,136,23035,2,0,B|264:32,1,100,0|8
152,56,23409,1,8
88,128,23596,1,0
168,184,23784,2,0,B|224:208|240:248|240:288|240:320|224:352,1,200
223,353,24346,1,12
384,240,24720,6,0,B|456:232|472:168|472:168|432:72,2,200,0|0|8
288,216,25657,1,0
344,128,25844,1,8
248,88,26031,1,0
152,96,26218,2,0,B|120:112|120:144|144:176|160:176,1,100,8|0
256,184,26593,2,8,B|288:200|288:232|264:264|248:264,1,100
440,184,27155,5,0
336,160,27342,1,12
120,216,27717,5,0
136,104,27904,1,8
224,168,28091,2,0,B|216:104|248:56|304:32|304:32|320:80|352:104|440:88,1,300,8|4
480,192,29028,5,4
256,32,29402,1,6
256,352,29777,1,4
256,192,29964,2,0,B|256:120|256:120|280:80|320:80|344:120|344:184,2,200,8|0|8
256,288,30900,5,0
256,192,31088,1,0
256,80,31275,2,0,B|344:72|344:72|384:136|376:224|272:240,1,300,8|0
96,88,32024,5,2
88,216,32211,1,0
168,120,32399,1,8
160,248,32586,1,8
256,192,32773,2,0,B|344:208|344:208|368:176|368:136|336:104,1,200,0|0
256,32,33335,1,12
256,32,33897,5,8
256,168,34084,1,2
256,296,34271,1,6
128,296,34459,2,0,B|96:288|88:256|96:224|120:216,1,100,0|2
160,96,34833,5,4
240,224,35020,1,4
328,104,35208,1,4
160,96,35395,1,4
88,224,35582,2,2,B|80:256|96:296|120:296|144:272,1,100
256,184,35957,2,0,B|256:160|272:128|304:112|336:128|344:176,1,100
256,192,36331,12,2,37268
352,224,37642,6,8,B|392:192|400:144|376:112,1,100
248,80,38017,2,0,B|192:104|168:160|176:216|224:240,1,200,0|8
88,80,38953,5,0
144,216,39141,1,8
248,160,39328,2,0,B|256:120|320:96|400:112|416:176,1,200,8|0
408,256,39890,2,0,B|352:328|352:328|288:288|312:240,1,200,8|0
96,208,40639,5,0
208,208,40826,2,0,B|240:192|256:160|256:120,1,100
256,208,41201,2,8,B|288:192|304:160|304:120,1,100,0|8
296,208,41575,2,0,B|328:192|344:160|344:120,2,100,0|8|0
184,200,42137,1,0
408,208,42324,1,8
288,72,42699,5,0
392,112,42886,2,0,B|448:152|432:232|384:256|328:248,1,200,2|0
120,200,43635,1,0
120,200,43822,1,8
120,200,44010,2,0,B|176:224|240:200|256:160,2,100,0|0|8
88,296,44572,5,0
56,200,44759,2,8,B|56:152|80:128|120:136,1,100,8|8
152,40,45133,1,0
192,136,45321,2,8,B|230:164|263:160|281:123,1,100,8|8
488,32,45883,6,8,B|376:104,1,100
403,86,46257,1,0
392,224,46632,5,8
384,256,46725,1,0
312,240,46913,1,8
280,224,47006,1,0
248,208,47100,1,0
216,192,47193,1,0
184,176,47287,5,0
152,160,47381,1,8
120,144,47474,1,0
88,128,47568,2,10,B|104:88,4,25
56,88,47943,5,0
168,72,48130,1,8
280,88,48317,2,0,B|336:88|368:136,1,100,8|0
320,232,48692,1,8
216,280,48879,2,8,B|176:304|112:272,1,100,0|0
64,184,49254,1,2
280,168,49628,6,0,B|224:200|192:176|192:144,1,100,0|8
248,72,50003,2,0,B|288:48|336:64|344:128,3,100,0|8|8|8
352,192,50752,1,0
456,88,50939,5,2
344,72,51126,1,2
232,88,51314,2,2,B|176:88|144:136,1,100,10|0
192,232,51688,1,0
296,280,51875,2,2,B|336:304|400:272,1,100,10|0
448,184,52250,1,2
224,176,52625,6,0,B|184:160|152:176|144:224,3,100,0|2|0|10
176,328,53374,1,8
240,248,53561,2,8,B|249:191|282:178|356:181,2,100,0|8|8
288,344,54123,5,0
344,240,54310,1,8
328,112,54497,2,0,B|288:144|288:144|232:144,1,100
160,224,54872,1,8
40,240,55059,2,0,B|0:296|56:328,2,100
128,176,55621,6,0,B|248:176,1,100,0|8
216,288,55996,2,0,B|320:288,1,100,0|8
392,208,56370,2,8,B|472:128,1,100
480,208,56745,1,8
456,296,56932,5,2
344,312,57119,1,2
232,296,57306,2,2,B|176:296|144:248,1,100,10|0
192,152,57681,1,0
296,104,57868,2,2,B|336:80|400:112,1,100,10|0
448,200,58243,1,2
336,192,58430,5,0
216,192,58617,1,8
320,232,58805,1,8
208,232,58992,1,8
312,272,59179,1,8
256,272,59273,1,0
200,272,59367,1,8
80,240,59554,2,0,B|128:136,1,100,0|8
192,72,59928,6,0,B|256:48|336:80|368:128|368:168,1,200,4|2
360,240,60490,2,2,B|365:252|333:300|253:332|189:308,1,200,6|2
112,208,61052,1,0
304,168,61239,5,4
456,40,61427,1,8
256,40,61614,1,4
144,112,61801,6,8,B|104:128|120:192|160:176,1,100,8|0
288,176,62176,2,0,B|288:304,1,100,0|12
160,264,62550,1,8
160,168,62737,2,0,B|182:127|222:103|222:103|270:127|294:183,1,200,8|0
328,280,63299,1,8
472,184,63487,5,0
376,216,63674,1,0
280,232,63861,2,8,B|168:240,1,100,0|8
80,248,64236,1,0
256,304,64610,5,6
176,216,64985,1,6
296,200,65359,1,6
200,128,65734,1,6
144,136,65921,6,0,B|144:40|144:40|128:40|88:40|80:72|80:112,2,200,0|2|0
200,128,66858,1,0
256,120,67045,2,8,B|255:28|367:28|367:122,1,200,2|6
480,192,67981,5,2
288,136,68169,1,2
120,240,68356,1,2
304,320,68543,2,2,B|384:344|384:336|400:328|400:328|400:288,1,100,10|2
232,248,69105,5,0
200,160,69292,1,0
288,176,69479,1,8
208,216,69667,1,0
256,136,69854,2,0,B|336:72,1,100,8|0
376,152,70229,5,8
440,232,70416,1,8
352,280,70603,1,8
288,200,70790,1,8
296,96,70978,1,8
376,152,71165,1,8
288,200,71352,1,8
208,144,71540,2,2,B|224:88,2,50
256,272,71914,5,0
136,248,72101,2,4,B|64:208|64:208|32:176|32:136|32:112|40:104|56:88,2,200,4|4|4
256,272,73038,5,4
312,248,73131,1,0
368,224,73225,1,8
232,192,73412,1,0
112,184,73600,1,8
208,112,73787,1,0
304,120,73974,1,8
304,120,74161,2,12,B|312:56|312:56|336:32|376:32|416:48|424:88,1,200
424,280,74911,6,0,B|424:160,1,100,6|0
424,56,75285,1,0
320,112,75472,1,8
224,184,75660,1,0
152,280,75847,1,8
56,344,76034,2,8,B|24:312|16:271|24:232,3,100,8|8|0|0
448,72,76971,5,2
48,72,77345,1,2
256,352,77720,1,4
368,208,77907,2,2,B|360:128|336:80|264:56|264:56|184:80|152:136|144:224,2,400
376,304,79592,5,8
256,144,79780,1,8
72,56,79967,2,0,B|128:104|160:128|160:128|160:168|128:208|88:216,1,200,8|0
312,248,80529,1,8
456,112,80716,2,0,B|432:120|400:152|400:152|400:152|376:208,1,100,0|8
184,200,81091,1,8
360,96,81278,2,0,B|360:64|400:48|432:72|432:104,2,100,0|8|0
248,264,81840,5,0
224,144,82027,1,0
184,256,82214,1,8
160,136,82402,1,0
264,192,82589,5,8
144,192,82776,2,0,B|120:200|120:200|104:224|104:256|144:272,1,100,0|8
32,336,83151,1,0
40,216,83338,2,8,B|64:152|120:120,1,100
256,120,83713,1,0
256,296,84087,5,6
256,192,84181,12,2,87271
