osu file format v12

[General]
AudioFilename: Healing Vision (DE-SIRE).mp3
AudioLeadIn: 0
PreviewTime: 41701
Countdown: 0
SampleSet: Normal
StackLeniency: 0.7
Mode: 1
LetterboxInBreaks: 0

[Editor]
Bookmarks: 45774,46539,89702
DistanceSpacing: 1.2
BeatDivisor: 4
GridSize: 8

[Metadata]
Title:Healing Vision
TitleUnicode:Healing Vision
Artist:DE-SIRE
ArtistUnicode:DE-SIRE
Creator:SoujiTheFox
Version:Taiko Muzukashii
Source:DDR 5thMIX
Tags:Tasha drum n bass trance
BeatmapID:225417
BeatmapSetID:80748

[Difficulty]
HPDrainRate:5
CircleSize:3
OverallDifficulty:5
ApproachRate:5
SliderMultiplier:1.4
SliderTickRate:1

[Events]
//Background and Video events
0,0,"BeautifulNight.jpg",1,1
//Break Periods
//Storyboard Layer 0 (Background)
//Storyboard Layer 1 (Fail)
//Storyboard Layer 2 (Pass)
//Storyboard Layer 3 (Foreground)
//Storyboard Sound Samples
//Background Colour Transformations
3,100,163,162,255

[TimingPoints]
70,612.244897959184,4,1,0,60,1,0
22110,306.122448979592,4,1,0,60,1,0
73538,612.244897959184,4,1,0,60,1,0
79660,306.122448979592,4,1,0,60,1,0
89455,-100,4,1,0,60,0,1
99098,-100,4,1,0,60,0,0

[Colours]
Combo1 : 0,0,255
Combo2 : 255,0,0

[HitObjects]
256,248,2518,1,4,0:0:0:0:
256,192,3131,5,8,0:0:0:0:
256,192,3743,1,8,0:0:0:0:
256,192,4355,1,8,0:0:0:0:
256,192,4814,1,8,0:0:0:0:
256,192,4967,1,8,0:0:0:0:
256,192,5580,1,8,0:0:0:0:
256,192,6192,1,8,0:0:0:0:
256,192,6804,1,8,0:0:0:0:
256,192,6957,5,0,0:0:0:0:
256,192,7110,5,8,0:0:0:0:
256,192,7416,5,0,0:0:0:0:
256,192,7723,1,0,0:0:0:0:
256,192,8029,5,8,0:0:0:0:
256,192,8182,1,8,0:0:0:0:
256,192,8335,5,0,0:0:0:0:
256,192,8641,5,8,0:0:0:0:
288,104,8947,1,8,0:0:0:0:
288,104,9100,1,8,0:0:0:0:
288,104,9253,5,0,0:0:0:0:
256,192,9559,5,8,0:0:0:0:
256,192,9712,5,0,0:0:0:0:
256,192,9865,1,0,0:0:0:0:
256,192,10172,5,8,0:0:0:0:
256,192,10325,5,0,0:0:0:0:
256,192,10478,1,0,0:0:0:0:
256,192,10784,5,8,0:0:0:0:
256,192,10937,5,0,0:0:0:0:
256,192,11090,1,0,0:0:0:0:
256,192,11396,5,8,0:0:0:0:
256,192,11549,5,0,0:0:0:0:
256,192,11702,1,0,0:0:0:0:
256,192,11855,1,0,0:0:0:0:
256,192,12008,1,0,0:0:0:0:
256,192,12314,1,4,0:0:0:0:
256,192,12621,5,8,0:0:0:0:
256,192,12927,1,8,0:0:0:0:
248,144,13233,1,8,0:0:0:0:
248,144,13386,5,0,0:0:0:0:
248,144,13692,1,0,0:0:0:0:
248,144,13845,1,0,0:0:0:0:
248,144,14151,5,8,0:0:0:0:
248,144,14763,5,0,0:0:0:0:
248,144,15070,5,8,0:0:0:0:
248,144,15376,1,8,0:0:0:0:
248,144,15682,1,8,0:0:0:0:
248,144,15835,5,0,0:0:0:0:
248,144,16141,1,0,0:0:0:0:
248,144,16294,1,0,0:0:0:0:
248,144,16600,5,8,0:0:0:0:
248,144,16906,1,8,0:0:0:0:
248,144,17059,1,8,0:0:0:0:
248,144,17212,5,0,0:0:0:0:
248,144,17518,5,8,0:0:0:0:
248,144,17825,1,8,0:0:0:0:
248,144,18131,1,8,0:0:0:0:
248,144,18284,5,0,0:0:0:0:
248,144,18590,1,0,0:0:0:0:
248,144,18743,1,0,0:0:0:0:
248,144,19049,5,8,0:0:0:0:
248,144,19661,5,0,0:0:0:0:
248,144,19967,5,8,0:0:0:0:
248,144,20274,1,8,0:0:0:0:
248,144,20580,1,8,0:0:0:0:
248,144,20733,5,0,0:0:0:0:
248,144,21039,1,0,0:0:0:0:
248,144,21192,5,8,0:0:0:0:
248,144,21345,1,8,0:0:0:0:
248,144,21498,1,8,0:0:0:0:
256,224,22110,5,4,0:0:0:0:
256,224,22416,5,8,0:0:0:0:
256,224,22569,5,0,0:0:0:0:
256,224,22875,5,8,0:0:0:0:
256,224,23334,5,0,0:0:0:0:
256,224,23640,5,8,0:0:0:0:
256,224,23793,5,0,0:0:0:0:
256,224,24099,5,8,0:0:0:0:
256,224,24558,5,0,0:0:0:0:
256,224,24865,5,8,0:0:0:0:
256,224,25018,5,0,0:0:0:0:
256,224,25324,5,8,0:0:0:0:
256,224,25783,5,0,0:0:0:0:
256,224,25936,5,8,0:0:0:0:
256,224,26089,1,8,0:0:0:0:
256,224,26242,5,0,0:0:0:0:
256,224,26548,5,8,0:0:0:0:
256,224,26854,1,8,0:0:0:0:
256,224,27007,5,0,0:0:0:0:
256,224,27314,5,8,0:0:0:0:
256,224,27467,5,0,0:0:0:0:
256,224,27773,5,8,0:0:0:0:
256,224,28232,5,0,0:0:0:0:
256,224,28538,5,8,0:0:0:0:
256,224,28691,5,0,0:0:0:0:
256,224,28997,5,8,0:0:0:0:
256,224,29456,5,0,0:0:0:0:
256,224,29763,5,8,0:0:0:0:
256,224,29916,5,0,0:0:0:0:
256,224,30222,1,0,0:0:0:0:
256,224,30375,5,8,0:0:0:0:
256,224,30834,5,0,0:0:0:0:
256,224,31140,1,0,0:0:0:0:
256,224,31446,1,0,0:0:0:0:
256,224,31599,5,8,0:0:0:0:
256,224,31905,5,4,0:0:0:0:
256,224,32212,5,8,0:0:0:0:
256,224,32365,5,0,0:0:0:0:
256,224,32671,1,0,0:0:0:0:
256,224,32824,5,8,0:0:0:0:
256,224,33130,5,0,0:0:0:0:
256,224,33436,5,8,0:0:0:0:
256,224,33589,5,0,0:0:0:0:
256,224,33895,1,0,0:0:0:0:
256,224,34048,5,8,0:0:0:0:
256,224,34354,5,0,0:0:0:0:
256,224,34661,5,8,0:0:0:0:
256,224,34814,5,0,0:0:0:0:
256,224,35120,1,0,0:0:0:0:
256,224,35273,5,8,0:0:0:0:
256,224,35426,1,8,0:0:0:0:
256,224,35579,5,0,0:0:0:0:
256,224,35732,5,8,0:0:0:0:
256,224,36038,5,0,0:0:0:0:
256,224,36191,5,8,0:0:0:0:
256,224,36344,5,0,0:0:0:0:
256,224,36497,5,8,0:0:0:0:
256,224,36803,5,0,0:0:0:0:
256,224,37109,5,8,0:0:0:0:
256,224,37263,5,0,0:0:0:0:
256,224,37569,1,0,0:0:0:0:
256,224,37722,5,8,0:0:0:0:
256,224,38028,5,0,0:0:0:0:
256,224,38334,5,8,0:0:0:0:
256,224,38487,5,0,0:0:0:0:
256,224,38793,1,0,0:0:0:0:
256,224,38946,5,8,0:0:0:0:
256,224,39252,5,0,0:0:0:0:
256,224,39558,5,8,0:0:0:0:
256,224,39712,5,0,0:0:0:0:
256,224,40018,1,0,0:0:0:0:
256,224,40171,5,8,0:0:0:0:
256,224,40324,1,8,0:0:0:0:
256,224,40477,1,8,0:0:0:0:
256,224,40630,5,0,0:0:0:0:
256,224,40936,1,0,0:0:0:0:
256,224,41242,5,8,0:0:0:0:
256,224,41395,1,8,0:0:0:0:
256,224,41701,5,4,0:0:0:0:
256,224,41854,5,8,0:0:0:0:
256,224,42007,1,8,0:0:0:0:
256,224,42161,5,0,0:0:0:0:
256,224,42467,1,0,0:0:0:0:
256,224,42620,5,8,0:0:0:0:
256,224,42926,5,0,0:0:0:0:
256,224,43079,5,8,0:0:0:0:
256,224,43232,1,8,0:0:0:0:
256,224,43385,5,0,0:0:0:0:
256,224,43691,1,0,0:0:0:0:
256,224,43844,5,8,0:0:0:0:
256,224,44150,5,0,0:0:0:0:
256,224,44303,5,8,0:0:0:0:
256,224,44456,1,8,0:0:0:0:
256,224,44609,5,0,0:0:0:0:
256,224,44916,1,0,0:0:0:0:
256,224,45069,5,8,0:0:0:0:
256,224,45222,1,8,0:0:0:0:
256,224,45375,5,0,0:0:0:0:
256,224,45528,5,8,0:0:0:0:
256,224,45834,5,0,0:0:0:0:
256,224,45987,5,8,0:0:0:0:
256,224,46140,5,0,0:0:0:0:
256,224,46293,5,8,0:0:0:0:
256,224,46446,1,8,0:0:0:0:
256,224,46599,5,0,0:0:0:0:
256,224,46752,5,8,0:0:0:0:
256,224,47058,5,0,0:0:0:0:
256,224,47212,5,8,0:0:0:0:
256,224,47365,5,0,0:0:0:0:
256,224,47518,5,8,0:0:0:0:
256,224,47671,1,8,0:0:0:0:
256,224,47824,5,0,0:0:0:0:
256,224,47977,5,8,0:0:0:0:
256,224,48283,5,0,0:0:0:0:
256,224,48436,5,8,0:0:0:0:
256,224,48589,5,0,0:0:0:0:
256,224,48742,5,8,0:0:0:0:
256,224,49048,5,0,0:0:0:0:
256,224,49201,5,8,0:0:0:0:
256,224,49354,1,8,0:0:0:0:
256,224,49507,5,0,0:0:0:0:
256,224,49814,1,0,0:0:0:0:
256,224,49967,5,8,0:0:0:0:
256,224,50120,1,8,0:0:0:0:
256,224,50273,1,8,0:0:0:0:
272,256,50426,5,0,0:0:0:0:
176,232,50732,1,0,0:0:0:0:
272,256,51038,5,8,0:0:0:0:
176,232,51191,5,0,0:0:0:0:
176,232,51344,1,0,0:0:0:0:
176,232,51497,1,4,0:0:0:0:
176,232,51650,5,8,0:0:0:0:
176,232,51956,5,0,0:0:0:0:
176,232,52109,5,8,0:0:0:0:
176,232,52263,5,0,0:0:0:0:
176,232,52416,5,8,0:0:0:0:
176,232,52569,1,8,0:0:0:0:
176,232,52722,5,0,0:0:0:0:
176,232,52875,5,8,0:0:0:0:
176,232,53181,5,0,0:0:0:0:
176,232,53334,5,8,0:0:0:0:
176,232,53487,5,0,0:0:0:0:
176,232,53640,5,8,0:0:0:0:
176,232,53793,1,8,0:0:0:0:
176,232,53946,5,0,0:0:0:0:
176,232,54099,5,8,0:0:0:0:
176,232,54405,5,0,0:0:0:0:
176,232,54558,5,8,0:0:0:0:
176,232,54712,5,0,0:0:0:0:
176,232,54865,5,8,0:0:0:0:
176,232,55018,1,8,0:0:0:0:
176,232,55171,5,0,0:0:0:0:
176,232,55324,5,8,0:0:0:0:
176,232,55477,1,8,0:0:0:0:
176,232,55630,5,0,0:0:0:0:
176,232,55936,1,0,0:0:0:0:
176,232,56089,5,8,0:0:0:0:
176,232,56242,1,8,0:0:0:0:
176,232,56395,5,0,0:0:0:0:
176,232,56548,5,8,0:0:0:0:
168,160,56854,5,0,0:0:0:0:
168,160,57007,5,8,0:0:0:0:
184,192,57161,5,0,0:0:0:0:
184,192,57314,5,8,0:0:0:0:
184,192,57467,1,8,0:0:0:0:
184,192,57620,5,0,0:0:0:0:
184,192,57773,5,8,0:0:0:0:
168,160,58079,5,0,0:0:0:0:
168,160,58232,5,8,0:0:0:0:
184,192,58385,5,0,0:0:0:0:
184,192,58538,5,8,0:0:0:0:
184,192,58691,1,8,0:0:0:0:
184,192,58844,5,0,0:0:0:0:
184,192,58997,5,8,0:0:0:0:
168,160,59303,5,0,0:0:0:0:
168,160,59456,5,8,0:0:0:0:
184,192,59609,5,0,0:0:0:0:
184,192,59763,5,8,0:0:0:0:
184,192,59916,1,8,0:0:0:0:
184,192,60069,1,8,0:0:0:0:
184,192,60222,5,0,0:0:0:0:
112,176,60528,1,0,0:0:0:0:
168,160,60834,5,8,0:0:0:0:
168,160,61140,1,8,0:0:0:0:
168,160,61293,5,4,0:0:0:0:
168,216,63742,1,0,0:0:0:0:
168,136,63895,5,8,0:0:0:0:
168,136,63972,1,8,0:0:0:0:
168,136,64048,1,8,0:0:0:0:
168,136,64201,5,0,0:0:0:0:
168,136,64507,1,0,0:0:0:0:
168,136,64661,5,8,0:0:0:0:
168,136,64814,5,0,0:0:0:0:
168,136,64967,1,0,0:0:0:0:
168,136,65120,5,8,0:0:0:0:
168,136,65196,1,8,0:0:0:0:
168,136,65273,1,8,0:0:0:0:
168,136,65426,5,0,0:0:0:0:
168,136,65732,1,0,0:0:0:0:
168,136,65885,5,8,0:0:0:0:
168,136,66038,5,0,0:0:0:0:
168,136,66191,1,0,0:0:0:0:
168,136,66344,5,8,0:0:0:0:
168,136,66421,1,8,0:0:0:0:
168,136,66497,1,8,0:0:0:0:
168,136,66650,5,0,0:0:0:0:
168,136,66956,5,8,0:0:0:0:
168,136,67109,1,8,0:0:0:0:
168,136,67263,5,0,0:0:0:0:
168,136,67416,1,0,0:0:0:0:
168,136,67569,1,0,0:0:0:0:
168,136,67875,1,0,0:0:0:0:
168,136,68181,1,0,0:0:0:0:
168,136,68487,1,0,0:0:0:0:
240,264,68640,1,0,0:0:0:0:
240,264,68793,5,8,0:0:0:0:
240,264,68870,1,8,0:0:0:0:
240,264,68946,1,8,0:0:0:0:
248,232,69099,5,0,0:0:0:0:
240,264,69405,1,0,0:0:0:0:
240,264,69558,5,8,0:0:0:0:
240,264,69712,5,0,0:0:0:0:
240,264,69865,1,0,0:0:0:0:
240,264,70018,5,8,0:0:0:0:
240,264,70094,5,0,0:0:0:0:
240,264,70171,5,8,0:0:0:0:
200,224,70324,5,0,0:0:0:0:
168,248,70630,1,0,0:0:0:0:
248,192,70783,5,8,0:0:0:0:
176,200,71089,5,0,0:0:0:0:
128,216,71242,5,8,0:0:0:0:
128,216,71319,1,8,0:0:0:0:
128,256,71395,1,8,0:0:0:0:
168,248,71548,5,0,0:0:0:0:
168,248,71701,5,8,0:0:0:0:
184,208,71778,1,8,0:0:0:0:
192,272,71854,5,0,0:0:0:0:
240,280,72007,5,8,0:0:0:0:
240,280,72161,5,0,0:0:0:0:
344,160,72314,5,12,0:0:0:0:
248,176,72518,1,12,0:0:0:0:
176,168,72722,1,12,0:0:0:0:
256,112,73538,5,0,0:0:0:0:
256,112,73844,1,0,0:0:0:0:
224,208,75374,1,0,0:0:0:0:
224,208,75680,1,0,0:0:0:0:
224,208,76293,1,0,0:0:0:0:
224,208,76599,1,0,0:0:0:0:
224,208,77517,1,0,0:0:0:0:
224,208,77823,1,0,0:0:0:0:
224,208,78435,1,0,0:0:0:0:
224,208,78742,1,0,0:0:0:0:
256,264,79660,1,4,0:0:0:0:
224,208,79966,5,8,0:0:0:0:
256,160,80272,5,0,0:0:0:0:
256,160,80425,5,8,0:0:0:0:
256,160,80578,5,0,0:0:0:0:
256,160,80884,1,0,0:0:0:0:
256,160,81190,5,8,0:0:0:0:
256,160,81496,5,0,0:0:0:0:
256,160,81649,5,8,0:0:0:0:
256,160,81802,5,0,0:0:0:0:
256,160,82108,1,0,0:0:0:0:
256,160,82415,5,8,0:0:0:0:
256,160,82721,5,0,0:0:0:0:
256,160,82874,5,8,0:0:0:0:
256,160,83027,5,0,0:0:0:0:
256,160,83180,5,8,0:0:0:0:
256,160,83333,5,0,0:0:0:0:
256,160,83639,5,8,0:0:0:0:
256,160,83792,1,8,0:0:0:0:
256,160,83945,5,0,0:0:0:0:
256,160,84098,5,8,0:0:0:0:
256,160,84251,5,0,0:0:0:0:
256,160,84404,5,8,0:0:0:0:
256,160,84557,5,0,0:0:0:0:
256,160,84864,5,8,0:0:0:0:
256,160,85170,5,0,0:0:0:0:
256,160,85323,5,8,0:0:0:0:
256,160,85476,5,0,0:0:0:0:
256,160,85629,5,8,0:0:0:0:
256,160,85782,5,0,0:0:0:0:
256,160,86088,5,8,0:0:0:0:
256,160,86394,5,0,0:0:0:0:
256,160,86547,5,8,0:0:0:0:
256,160,86700,5,0,0:0:0:0:
256,160,86853,5,8,0:0:0:0:
256,160,87006,5,0,0:0:0:0:
256,160,87313,5,8,0:0:0:0:
256,160,87619,5,0,0:0:0:0:
256,160,87772,5,8,0:0:0:0:
256,160,87925,5,0,0:0:0:0:
256,160,88078,5,8,0:0:0:0:
256,160,88231,5,0,0:0:0:0:
256,160,88537,5,8,0:0:0:0:
256,160,88843,5,0,0:0:0:0:
256,160,89149,1,0,0:0:0:0:
256,160,89455,1,4,0:0:0:0:
256,160,89608,5,8,0:0:0:0:
256,160,89762,5,0,0:0:0:0:
256,160,89915,5,8,0:0:0:0:
256,160,90068,5,0,0:0:0:0:
256,160,90374,1,0,0:0:0:0:
256,160,90527,5,8,0:0:0:0:
256,160,90680,5,4,0:0:0:0:
256,160,90833,5,8,0:0:0:0:
256,160,90986,5,0,0:0:0:0:
256,160,91139,5,8,0:0:0:0:
256,160,91292,5,0,0:0:0:0:
256,160,91598,1,0,0:0:0:0:
256,160,91751,5,8,0:0:0:0:
256,160,91904,5,4,0:0:0:0:
256,160,92057,5,8,0:0:0:0:
256,160,92211,5,0,0:0:0:0:
256,160,92364,5,8,0:0:0:0:
256,160,92517,5,0,0:0:0:0:
256,160,92823,1,0,0:0:0:0:
256,160,92976,5,8,0:0:0:0:
256,160,93129,5,4,0:0:0:0:
256,160,93282,5,8,0:0:0:0:
256,160,93435,5,0,0:0:0:0:
256,160,93588,5,8,0:0:0:0:
256,160,93741,5,0,0:0:0:0:
256,160,94047,1,0,0:0:0:0:
256,160,94200,5,8,0:0:0:0:
256,160,94353,5,4,0:0:0:0:
256,160,94506,5,8,0:0:0:0:
256,160,94659,5,0,0:0:0:0:
256,160,94813,5,8,0:0:0:0:
256,160,94966,5,4,0:0:0:0:
256,160,95272,1,0,0:0:0:0:
256,160,95425,5,8,0:0:0:0:
256,160,95578,5,4,0:0:0:0:
256,160,95731,5,8,0:0:0:0:
256,160,95884,5,0,0:0:0:0:
256,160,96037,5,8,0:0:0:0:
256,160,96190,5,4,0:0:0:0:
256,160,96496,1,0,0:0:0:0:
256,160,96649,5,8,0:0:0:0:
256,160,96802,5,4,0:0:0:0:
256,160,96955,5,8,0:0:0:0:
256,160,97108,5,4,0:0:0:0:
256,160,97262,5,8,0:0:0:0:
256,160,97415,5,4,0:0:0:0:
256,160,97568,5,8,0:0:0:0:
256,160,97721,5,4,0:0:0:0:
256,160,97874,5,8,0:0:0:0:
256,160,98027,5,4,0:0:0:0:
256,160,98333,1,0,0:0:0:0:
256,160,98486,1,0,0:0:0:0:
256,160,98639,1,0,0:0:0:0:
256,160,98792,1,0,0:0:0:0:
256,160,98945,1,0,0:0:0:0:
80,128,99022,1,0,0:0:0:0:
80,128,99098,1,0,0:0:0:0:
256,160,99864,1,4,0:0:0:0:
256,192,100017,12,0,102313,0:0:0:0:
