osu file format v12

[General]
AudioFilename: Healing Vision (DE-SIRE).mp3
AudioLeadIn: 0
PreviewTime: 41701
Countdown: 0
SampleSet: Normal
StackLeniency: 0.7
Mode: 0
LetterboxInBreaks: 0

[Editor]
Bookmarks: 45774,46539,89702
DistanceSpacing: 1.2
BeatDivisor: 4
GridSize: 8

[Metadata]
Title:Healing Vision
TitleUnicode:Healing Vision
Artist:DE-SIRE
ArtistUnicode:DE-SIRE
Creator:SoujiTheFox
Version:Standard
Source:DDR 5thMIX
Tags:Tasha drum n bass trance
BeatmapID:224934
BeatmapSetID:80748

[Difficulty]
HPDrainRate:5
CircleSize:4
OverallDifficulty:7
ApproachRate:8
SliderMultiplier:1.4
SliderTickRate:1

[Events]
//Background and Video events
0,0,"BeautifulNight.jpg",1,1
//Break Periods
2,61493,62992
//Storyboard Layer 0 (Background)
//Storyboard Layer 1 (Fail)
//Storyboard Layer 2 (Pass)
//Storyboard Layer 3 (Foreground)
//Storyboard Sound Samples
//Background Colour Transformations
3,100,163,162,255

[TimingPoints]
70,612.244897959184,4,2,1,25,1,0
22110,306.122448979592,4,2,1,50,1,0
22110,-100,4,2,1,50,0,1
22111,-100,4,2,1,50,0,0
60987,-100,4,2,1,25,0,0
61293,-100,4,2,1,50,0,0
67416,-100,4,2,1,25,0,0
68487,-100,4,2,1,50,0,0
73538,612.244897959184,4,1,1,35,1,0
79660,306.122448979592,4,2,1,40,1,0
89455,-100,4,2,1,40,0,1
99098,-100,4,2,1,40,0,0
103384,-100,4,2,1,10,0,0

[Colours]
Combo1 : 0,102,255
Combo2 : 143,216,239
Combo3 : 233,196,255

[HitObjects]
104,120,7416,2,0,P|96:168|96:192,1,70
168,240,8029,2,0,L|168:280,2,35,2|0|0,0:0|0:0|0:0,0:0:0:0:
224,176,8641,1,0,0:0:0:0:
296,216,8947,2,0,L|336:232,2,35,2|0|0,0:0|0:0|0:0,0:0:0:0:
296,136,9559,1,2,0:0:0:0:
272,96,9712,1,0,1:0:0:0:
256,56,9865,6,0,P|208:64|168:56,1,70,0|2,1:0|0:0,0:0:0:0:
144,48,10325,1,0,1:0:0:0:
112,72,10478,2,0,P|112:120|96:160,1,70,0|0,1:0|0:0,0:0:0:0:
112,184,10937,1,0,1:0:0:0:
136,216,11090,2,0,P|192:208|224:216,1,70,0|2,1:0|0:0,0:0:0:0:
240,232,11549,1,0,1:0:0:0:
256,272,11702,2,0,L|256:312,2,35,0|0|0,1:0|1:0|1:0,0:0:0:0:
320,216,12314,5,4,1:1:0:0:
360,144,12621,1,0,0:0:0:0:
336,64,12927,2,0,L|368:32,2,35,2|0|0,0:0|0:0|0:0,0:0:0:0:
296,88,13386,2,0,P|264:104|224:104,1,70,0|0,1:0|1:0,0:0:0:0:
192,88,13845,2,0,P|144:72|120:80,1,70,0|2,1:0|0:0,0:0:0:0:
96,104,14304,1,0,0:0:0:0:
56,104,14457,1,0,0:0:0:0:
24,184,14763,5,0,1:0:0:0:
72,248,15070,1,0,0:0:0:0:
144,200,15376,2,0,L|112:168,2,35,2|0|0,0:0|0:0|0:0,0:0:0:0:
176,224,15835,2,0,P|208:240|256:248,1,70,0|0,1:0|1:0,0:0:0:0:
280,232,16294,2,0,P|328:216|352:216,1,70,0|2,1:0|0:0,0:0:0:0:
384,224,16753,1,0,0:0:0:0:
424,208,16906,1,0,0:0:0:0:
432,128,17212,6,0,P|384:144|352:136,1,70,0|0,1:0|0:0,0:0:0:0:
296,88,17825,1,2,0:0:0:0:
256,96,17978,1,0,0:0:0:0:
216,88,18131,1,0,0:0:0:0:
176,104,18284,2,0,P|144:128|112:136,1,70,0|0,1:0|1:0,0:0:0:0:
88,168,18743,2,0,P|88:208|104:248,1,70,0|2,1:0|0:0,0:0:0:0:
128,264,19202,1,0,0:0:0:0:
168,280,19355,2,0,L|208:288,1,35
240,296,19661,5,0,1:0:0:0:
256,192,19967,12,4,22110,1:0:0:0:
192,144,22416,5,2,0:0:0:0:
192,144,22569,1,0,1:0:0:0:
256,296,22875,2,0,L|256:368,2,70,2|0|0,0:0|0:0|0:0,0:0:0:0:
320,240,23334,5,0,1:0:0:0:
384,80,23640,1,2,0:0:0:0:
384,80,23793,1,0,1:0:0:0:
216,48,24099,1,2,0:0:0:0:
152,104,24252,2,0,P|136:144|96:168,1,70
40,136,24558,5,0,1:0:0:0:
104,288,24865,1,2,0:0:0:0:
104,288,25018,1,0,1:0:0:0:
248,208,25324,2,0,L|328:232,2,70,2|0|0,0:0|0:0|0:0,0:0:0:0:
168,176,25783,5,0,1:0:0:0:
256,32,26089,1,2,0:0:0:0:
256,32,26242,2,0,P|264:80|336:144,1,140,0|2,1:0|0:0,0:0:0:0:
384,80,26701,2,0,P|416:112|424:144,1,70,0|2,0:0|0:0,0:0:0:0:
384,208,27007,5,0,1:0:0:0:
256,312,27314,1,2,0:0:0:0:
256,312,27467,1,0,1:0:0:0:
96,264,27773,2,0,L|48:336,2,70,2|0|0,0:0|0:0|0:0,0:0:0:0:
152,208,28232,5,0,1:0:0:0:
104,48,28538,1,2,0:0:0:0:
104,48,28691,1,0,1:0:0:0:
256,120,28997,2,0,L|256:200,2,70,2|0|0,0:0|0:0|0:0,0:0:0:0:
256,40,29456,5,0,1:0:0:0:
416,96,29763,1,2,0:0:0:0:
416,96,29916,2,0,P|432:160|408:240,1,140,0|2,1:0|1:2,0:0:0:0:
360,296,30375,1,0,0:0:0:0:
288,256,30528,1,0,0:0:0:0:
216,296,30681,6,0,P|176:312|136:304,1,70,0|0,0:0|1:0,0:0:0:0:
192,144,31140,2,0,P|256:128|328:144,1,140,0|0,1:0|1:0,0:0:0:0:
400,184,31599,1,0,0:0:0:0:
256,264,31905,5,4,1:0:0:0:
112,176,32212,1,2,0:0:0:0:
112,176,32365,1,0,1:0:0:0:
232,56,32671,2,0,L|192:128,2,70,2|0|0,1:2|0:0|0:0,0:0:0:0:
312,40,33130,5,0,1:0:0:0:
384,192,33436,1,2,0:0:0:0:
384,192,33589,1,0,1:0:0:0:
256,296,33895,2,0,L|256:200,2,70,2|0|0,1:2|0:0|0:0,0:0:0:0:
200,352,34354,5,0,1:0:0:0:
144,192,34661,1,2,0:0:0:0:
144,192,34814,1,0,1:0:0:0:
288,104,35120,2,0,L|336:40,2,70,2|0|2,1:2|0:0|0:0,0:0:0:0:
312,184,35579,6,0,P|336:232|360:248,1,70,0|2,1:0|0:0,0:0:0:0:
416,192,35885,1,2,0:0:0:0:
416,192,36038,1,2,1:2:0:0:
448,112,36191,2,0,P|456:72|440:32,1,70,0|2,0:0|1:2,0:0:0:0:
368,72,36497,1,0,0:0:0:0:
288,40,36650,1,2,0:0:0:0:
224,96,36803,5,0,1:0:0:0:
176,256,37109,1,2,0:0:0:0:
176,256,37263,1,0,1:0:0:0:
80,120,37569,2,0,L|48:56,2,70,2|0|0,1:2|0:0|0:0,0:0:0:0:
120,192,38028,5,0,1:0:0:0:
256,296,38334,1,2,0:0:0:0:
256,296,38487,1,0,1:0:0:0:
392,192,38793,2,0,L|472:192,2,70,2|0|0,1:2|0:0|0:0,0:0:0:0:
312,192,39252,5,0,1:0:0:0:
208,56,39558,1,2,0:0:0:0:
208,56,39712,2,0,P|200:104|128:168,1,140,0|2,1:0|1:2,0:0:0:0:
72,216,40171,1,0,0:0:0:0:
40,296,40324,1,0,0:0:0:0:
112,336,40477,6,0,P|160:320|192:328,1,70,0|0,0:0|1:0,0:0:0:0:
336,256,40936,2,0,P|320:192|336:120,1,140,0|2,1:0|0:0,0:0:0:0:
384,56,41395,1,0,0:0:0:0:
216,56,41701,6,0,P|200:104|120:176,1,140,4|2,1:0|0:0,0:0:0:0:
72,216,42161,1,0,1:0:0:0:
200,320,42467,1,0,1:0:0:0:
256,256,42620,1,2,0:0:0:0:
312,320,42773,1,0,0:0:0:0:
392,296,42926,6,0,P|424:256|416:152,1,140,0|2,1:0|0:0,0:0:0:0:
400,88,43385,1,0,1:0:0:0:
256,168,43691,2,0,L|168:184,2,70,0|2|0,1:0|0:0|0:0,0:0:0:0:
328,216,44150,6,0,P|336:160|288:80,1,140,0|2,1:0|0:0,0:0:0:0:
240,32,44609,1,0,1:0:0:0:
104,128,44916,1,0,1:0:0:0:
48,192,45069,1,2,0:0:0:0:
80,272,45222,1,2,0:0:0:0:
152,312,45375,6,0,L|232:336,1,70,0|0,1:0|0:0,0:0:0:0:
232,248,45681,2,0,L|312:264,1,70,2|0,0:0|1:0,0:0:0:0:
304,176,45987,2,0,L|400:176,1,70,0|2,0:0|1:2,0:0:0:0:
344,96,46293,2,0,L|416:88,1,70,0|2,0:0|0:0,0:0:0:0:
472,32,46599,6,0,P|488:64|472:176,1,140,0|2,1:0|0:0,0:0:0:0:
432,232,47058,1,0,1:0:0:0:
304,344,47365,1,0,1:0:0:0:
240,288,47518,1,2,0:0:0:0:
160,272,47671,1,0,0:0:0:0:
112,336,47824,6,0,P|80:288|96:200,1,140,0|2,1:0|0:0,0:0:0:0:
128,136,48283,1,0,1:0:0:0:
288,80,48589,2,0,L|360:48,2,70,0|2|0,1:0|0:0|0:0,0:0:0:0:
216,32,49048,6,0,P|208:72|232:192,1,140,0|2,1:0|0:0,0:0:0:0:
248,248,49507,1,0,1:0:0:0:
408,296,49814,2,0,L|472:336,2,70,0|2|0,1:0|0:0|0:0,0:0:0:0:
368,224,50273,6,0,P|392:184|392:144,1,70,0|0,0:0|1:0,0:0:0:0:
232,120,50732,2,0,P|200:152|96:176,1,140,0|0,1:0|0:0,0:0:0:0:
40,136,51191,2,0,L|24:224,1,70,0|0,1:0|1:0,0:0:0:0:
64,280,51497,6,0,P|96:304|224:320,1,140,4|2,1:0|0:0,0:0:0:0:
248,264,51956,2,0,P|312:264|392:240,1,140,0|0,1:0|1:0,0:0:0:0:
448,184,52416,1,2,0:0:0:0:
448,104,52569,1,0,0:0:0:0:
368,112,52722,6,0,P|320:128|216:112,1,140,0|2,1:0|0:0,0:0:0:0:
208,40,53181,2,0,P|176:72|152:176,1,140,0|0,1:0|1:0,0:0:0:0:
160,248,53640,1,2,0:0:0:0:
80,224,53793,1,0,0:0:0:0:
80,304,53946,6,0,L|240:344,1,140,0|2,1:0|0:0,0:0:0:0:
296,336,54405,2,0,L|431:302,1,140,0|0,1:0|1:0,0:0:0:0:
456,224,54865,1,0,0:0:0:0:
448,144,55018,1,2,0:0:0:0:
376,96,55171,6,0,P|336:120|304:128,1,70,0|2,1:0|0:0,0:0:0:0:
256,64,55477,2,0,P|216:88|192:112,1,70,0|2,0:0|1:2,0:0:0:0:
168,184,55783,1,0,0:0:0:0:
88,160,55936,1,2,1:2:0:0:
64,240,56089,1,0,0:0:0:0:
144,272,56242,1,2,0:0:0:0:
224,304,56395,6,0,P|256:288|368:296,1,140,0|2,1:0|0:0,0:0:0:0:
296,352,56854,2,0,P|288:288|288:200,1,140,0|0,1:0|1:0,0:0:0:0:
280,128,57314,1,2,0:0:0:0:
224,64,57467,1,0,0:0:0:0:
144,56,57620,6,0,P|160:104|136:200,1,140,0|2,1:0|0:0,0:0:0:0:
72,144,58079,2,0,P|112:128|216:136,1,140,0|0,1:0|1:0,0:0:0:0:
288,160,58538,1,2,0:0:0:0:
360,208,58691,1,0,0:0:0:0:
320,280,58844,6,0,P|272:280|208:344,1,140,0|2,1:0|0:0,0:0:0:0:
288,360,59303,2,0,P|264:312|184:240,1,140,0|0,1:0|1:0,0:0:0:0:
128,216,59763,1,2,0:0:0:0:
72,152,59916,1,0,0:0:0:0:
120,80,60069,6,0,P|160:88|192:88,1,70,0|0,0:0|1:0,0:0:0:0:
352,128,60528,2,0,P|376:192|352:256,1,140,0|0,1:0|0:0,0:0:0:0:
296,192,60987,2,0,L|208:192,2,70,0|0|4,1:0|1:0|1:0,0:0:0:0:
128,136,63742,6,0,L|88:64,2,70,0|0|2,1:0|0:0|0:0,0:0:0:0:
152,216,64201,2,0,P|128:248|128:352,2,140,0|0|0,1:0|1:0|1:0,0:0:0:0:
216,160,64967,5,0,1:0:0:0:
216,160,65120,1,0,0:0:0:0:
216,160,65273,1,2,0:0:0:0:
296,176,65426,2,0,P|320:144|320:40,2,140,0|0|0,1:0|1:0|1:0,0:0:0:0:
248,240,66191,6,0,L|272:336,2,70,0|0|0,1:0|0:0|0:0,0:0:0:0:
168,216,66650,2,0,P|128:200|80:112,2,140,0|0|0,1:0|1:0|1:0,0:0:0:0:
216,144,67416,6,0,P|200:112|208:64,1,70,0|0,1:0|0:0,0:0:0:0:
272,32,67722,1,0,0:0:0:0:
352,64,67875,2,0,P|328:120|336:216,1,140,0|0,1:0|1:0,0:0:0:0:
320,280,68334,2,0,L|256:328,1,70,0|0,0:0|1:0,0:0:0:0:
176,312,68640,6,0,P|184:256|176:232,1,70,4|0,1:0|0:0,0:0:0:0:
160,160,68946,1,2,0:0:0:0:
80,168,69099,2,0,P|88:128|184:80,2,140,0|0|0,1:0|1:0|1:0,0:0:0:0:
120,240,69865,6,0,P|168:248|208:248,1,70,0|0,1:0|1:0,0:0:0:0:
256,200,70171,1,2,0:0:0:0:
304,128,70324,2,0,P|328:176|304:272,2,140,0|0|0,1:0|1:0|1:0,0:0:0:0:
352,56,71089,6,0,P|384:88|400:128,1,70,0|0,1:0|0:0,0:0:0:0:
416,192,71395,1,0,0:0:0:0:
408,272,71548,2,0,P|376:328|288:360,2,140,0|0|0,1:0|1:0|1:0,0:0:0:0:
336,232,72314,6,2,L|232:184,2,93.3333333333333,2|2|0,0:0|0:0|0:0,0:0:0:0:
192,72,73538,6,0,L|112:72,1,70
320,312,75374,6,0,L|400:312,1,70
96,192,76293,6,0,L|96:264,1,70
416,227,77517,6,0,L|416:152,1,70
256,64,78435,6,0,L|256:136,1,70
144,240,79660,6,0,P|112:208|112:104,2,140,4|2|0,1:0|0:0|1:0,0:0:0:0:
216,192,80425,1,2,0:0:0:0:
256,264,80578,2,0,P|272:296|304:320,1,70,0|0,1:0|0:0,0:0:0:0:
360,256,80884,6,0,P|392:280|496:296,2,140,0|2|0,1:0|0:0|1:0,0:0:0:0:
344,176,81649,2,0,P|360:144|352:96,1,70,2|0,0:0|1:0,0:0:0:0:
312,40,81955,1,0,0:0:0:0:
256,104,82108,6,0,P|216:120|104:104,2,140,0|2|0,1:0|0:0|1:0,0:0:0:0:
312,40,82874,1,2,0:0:0:0:
392,40,83027,2,0,P|424:72|432:112,1,70,0|0,1:0|0:0,0:0:0:0:
432,176,83333,6,0,L|424:248,1,70,0|0,1:0|0:0,0:0:0:0:
344,232,83639,2,0,L|328:304,1,70,2|0,0:0|0:0,0:0:0:0:
256,264,83945,2,0,L|224:336,1,70,0|2,0:0|0:0,0:0:0:0:
160,280,84251,2,0,L|112:344,1,70,0|2,1:0|0:0,0:0:0:0:
40,304,84557,6,0,P|32:248|48:160,1,140,0|2,1:0|0:0,0:0:0:0:
208,112,85170,1,0,1:0:0:0:
264,176,85323,1,2,0:0:0:0:
328,120,85476,2,0,P|352:152|384:160,1,70,0|0,1:0|0:0,0:0:0:0:
432,96,85782,6,0,P|448:128|416:240,1,140,0|2,1:0|0:0,0:0:0:0:
296,328,86394,1,0,1:0:0:0:
232,272,86547,1,2,0:0:0:0:
160,320,86700,2,0,P|120:328|88:320,1,70,0|0,1:0|0:0,0:0:0:0:
48,248,87006,6,0,P|104:248|184:208,1,140,0|2,1:0|0:0,0:0:0:0:
256,64,87619,1,0,1:0:0:0:
216,136,87772,1,2,0:0:0:0:
296,136,87925,2,0,P|296:176|312:208,1,70,0|0,1:0|0:0,0:0:0:0:
392,208,88231,6,0,P|376:256|296:288,1,140,0|2,1:0|0:0,0:0:0:0:
216,288,88690,1,2,0:0:0:0:
152,232,88843,2,0,L|72:240,2,70,0|2|0,1:0|0:0|1:0,0:0:0:0:
216,176,89302,1,0,0:0:0:0:
264,104,89455,6,0,P|232:80|216:40,2,70,0|0|2,1:0|0:0|1:2,0:0:0:0:
344,136,89915,1,0,0:0:0:0:
424,168,90068,2,0,P|456:192|472:232,2,70,0|2|0,1:0|0:0|1:0,0:0:0:0:
344,136,90527,1,0,0:0:0:0:
296,208,90680,6,0,L|232:248,1,70,0|0,1:0|0:0,0:0:0:0:
208,168,90986,2,0,L|136:184,1,70,2|0,1:2|0:0,0:0:0:0:
136,96,91292,2,0,L|48:96,2,70,0|2|0,1:0|0:0|1:0,0:0:0:0:
208,48,91751,1,0,0:0:0:0:
280,88,91904,6,0,L|360:48,2,70,0|0|2,1:0|0:0|1:2,0:0:0:0:
224,152,92364,1,0,0:0:0:0:
160,208,92517,2,0,L|80:248,2,70,0|2|0,1:0|0:0|1:0,0:0:0:0:
224,152,92976,1,2,0:0:0:0:
248,232,93129,6,0,P|264:264|296:288,1,70,0|2,1:0|0:0,0:0:0:0:
336,216,93435,2,0,P|368:240|400:240,1,70,2|0,1:2|0:0,0:0:0:0:
400,160,93741,1,0,1:0:0:0:
480,192,93894,1,2,0:0:0:0:
512,112,94047,1,0,1:0:0:0:
432,80,94200,1,2,0:0:0:0:
344,64,94353,6,0,L|296:120,1,70,0|2,1:0|0:0,0:0:0:0:
213,117,94660,2,0,L|168:64,1,70,0|2,1:0|0:0,0:0:0:0:
120,136,94966,1,0,1:0:0:0:
88,216,95119,1,2,0:0:0:0:
112,296,95272,1,0,1:0:0:0:
184,336,95425,1,2,0:0:0:0:
256,288,95578,6,0,L|256:208,1,70,0|2,1:0|0:0,0:0:0:0:
336,240,95884,2,0,L|336:312,1,70,0|2,1:0|0:0,0:0:0:0:
416,288,96190,1,0,1:0:0:0:
432,208,96343,1,2,0:0:0:0:
432,128,96496,1,0,1:0:0:0:
400,48,96649,1,2,0:0:0:0:
312,40,96802,6,0,P|288:80|288:112,1,70,0|2,1:0|0:0,0:0:0:0:
272,184,97108,2,0,P|256:216|232:240,1,70,0|2,1:0|0:0,0:0:0:0:
152,272,97415,1,0,1:0:0:0:
72,256,97568,1,2,0:0:0:0:
48,176,97721,1,0,1:0:0:0:
80,96,97874,1,2,0:0:0:0:
160,88,98027,6,0,P|200:120|304:128,1,140,0|0,1:0|1:0,0:0:0:0:
360,88,98486,1,0,1:0:0:0:
408,160,98639,1,0,1:0:0:0:
360,232,98792,1,0,1:0:0:0:
280,264,98945,2,0,L|280:304,2,35,0|0|0,1:0|1:0|1:0,0:0:0:0:
256,128,99864,5,4,1:0:0:0:
256,192,100017,12,0,103843,0:0:0:0:
