osu file format v5

[General]
AudioFilename: 02_dokan_no_naka_no_mozart.mp3
AudioLeadIn: 0
PreviewTime: -1
Countdown: 1
SampleSet: Normal
StackLeniency: 0.7
Mode: 0
LetterboxInBreaks: 1

[Metadata]
Title:Underground Mozart
Artist:DDR Mario Mix
Creator:Ash
Version:Normal
Source:
Tags:

[Difficulty]
HPDrainRate:4
CircleSize:4
OverallDifficulty:5
SliderMultiplier:1.2
SliderTickRate:2

[Events]
//Background and Video events
0,0,"undergroundnormal.png"
//Break Periods
2,51250,53064
2,81578,86249
2,95507,95892
//Storyboard Layer 0 (Background)
//Storyboard Layer 1 (Failing)
//Storyboard Layer 2 (Passing)
//Storyboard Layer 3 (Foreground)
//Storyboard Sound Samples
//Background Colour Transformations
3,100,163,162,255

[TimingPoints]
6,356.866710283709,4,1,0,100
34265,713.690971809207,4,2,0,100
59959,356.866710283709,4,1,0,100

[Colours]
Combo1 : 0,0,130
Combo2 : 122,72,255
Combo3 : 164,0,0
Combo4 : 0,145,72

[HitObjects]
56,48,5715,1,4
56,152,6251,2,4,B|56:240,1,60
56,312,6964,2,4,B|147:327|259:239|256:104,1,300
456,48,8570,5,4
456,152,9106,2,4,B|456:240,1,60
455,312,9819,2,4,B|365:327|253:239|256:104,1,300
256,328,11425,5,4
256,328,11782,1,4
256,48,13031,2,0,B|161:101|176:200,1,180
256,192,13923,1,0
336,188,14280,2,0,B|351:283|272:312,1,120
32,240,15886,5,0
32,112,16421,1,0
112,112,16778,1,0
112,192,17135,2,0,B|280:192,1,120
480,240,18741,5,0
480,112,19276,1,0
400,112,19633,1,0
400,192,19990,2,0,B|232:192,1,120
256,0,21418,5,0
256,96,21953,1,0
256,192,22488,1,0
256,192,22845,5,4
256,192,23202,1,4
48,312,24451,6,0,B|-26:212|64:96,1,180
96,192,25343,1,0
160,240,25700,2,0,B|190:163|128:104,1,120
464,312,27306,6,0,B|538:212|448:96,1,180
416,192,28198,1,0
352,240,28555,2,0,B|322:163|384:104,1,120
128,128,30161,6,0,B|216:73|320:136,1,180
256,192,31053,1,0
200,248,31410,2,0,B|288:303|392:240,2,180
200,168,32837,2,4,B|288:113|392:176,2,180
256,352,34622,5,0
96,352,35335,1,2
96,192,36049,1,0
256,192,36763,1,2
416,192,37477,5,0
416,32,38190,1,2
256,32,38904,1,0
256,192,39618,1,2
256,32,40331,6,2,B|254:208|48:192,1,300
256,352,43186,6,2,B|258:176|464:192,1,300
96,192,46041,5,0
256,192,46755,1,0
256,272,47112,2,0,B|256:368,2,90
256,192,48539,5,0
416,192,49253,1,0
256,192,49967,2,0,B|176:192,3,60
480,336,54249,5,4
416,192,54963,1,4
336,48,55677,2,4,B|272:48,2,60
32,48,57104,5,4
96,192,57818,1,4
176,336,58532,2,4,B|64:336,2,90
256,336,59959,5,4
256,336,60316,1,4
80,224,61565,6,0,B|160:304|304:256,1,180
256,192,62457,1,0
265,113,62814,2,0,B|340:76|416:144,1,120
432,224,64420,6,0,B|352:304|208:256,1,180
256,192,65312,1,0
246,113,65669,2,0,B|172:76|96:144,1,120
256,336,67275,6,0,B|194:258|208:136,1,180
256,88,68167,1,0
304,168,68524,2,4,B|319:240|208:299,1,120
256,384,69951,5,0
256,288,70487,1,0
256,192,71022,1,0
256,192,71379,5,4
256,192,71736,1,4
224,32,72985,6,0,B|366:12|384:160,1,180
288,112,73877,1,0
208,112,74234,2,0,B|129:100|112:176,1,120
224,352,75840,6,0,B|366:372|384:224,1,180
288,272,76732,1,0
208,272,77089,2,0,B|129:284|112:208,1,120
256,16,78695,6,0,B|256:208,1,180
256,196,79587,1,0
256,196,79944,2,0,B|256:384,2,180
256,196,81371,1,4
256,192,87438,12,4,89936
256,192,90293,12,4,92791
256,72,93148,1,0
256,312,93861,1,0
256,72,94575,1,0
256,312,95289,1,0
256,192,97073,12,4,101356
