osu file format v5

[General]
AudioFilename: 02_dokan_no_naka_no_mozart.mp3
AudioLeadIn: 3000
PreviewTime: -1
Countdown: 1
SampleSet: Normal
StackLeniency: 0.3
Mode: 0
LetterboxInBreaks: 1

[Metadata]
Title:Underground Mozart
Artist:DDR Mario Mix
Creator:Ash
Version:Insane
Source: Nintendo
Tags: Dance Dance Revolution DDR Super Mario Mix Underground Mozart Nintendo Konami

[Difficulty]
HPDrainRate:7
CircleSize:5
OverallDifficulty:7
SliderMultiplier:1.5
SliderTickRate:2

[Events]
//Background and Video events
0,0,"undergroundinsane.png"
//Break Periods
//Storyboard Layer 0 (Background)
//Storyboard Layer 1 (Failing)
//Storyboard Layer 2 (Passing)
//Storyboard Layer 3 (Foreground)
//Storyboard Sound Samples
//Background Colour Transformations
3,100,163,162,255

[TimingPoints]
6,356.866710283709,4,1,0,100
34265,713.733420567418,4,2,0,100
59959,356.866710283709,4,1,0,100

[Colours]
Combo1 : 0,0,130
Combo2 : 122,72,255
Combo3 : 170,0,0
Combo4 : 0,145,72

[HitObjects]
256,56,5715,1,4
328,192,6251,1,4
388,192,6429,1,4
472,312,6964,1,0
418,339,7143,1,0
421,278,7321,1,0
368,306,7500,1,0
314,338,7678,1,4
313,277,7857,1,0
256,56,8570,5,4
184,192,9106,1,4
123,192,9284,1,4
40,312,9819,1,0
94,339,9998,1,0
91,278,10176,1,0
144,306,10355,1,0
198,338,10533,1,4
199,277,10712,1,0
448,152,11425,6,0,B|433:241|344:256,1,150
368,304,11961,2,0,B|353:215|264:200,1,150
216,192,12496,1,0
104,160,12853,2,0,B|119:71|208:56,1,150
180,4,13388,2,0,B|195:93|284:108,1,150
313,64,13923,1,0
369,57,14102,1,0
420,79,14280,6,0,B|405:168|316:183,1,150
270,163,14815,2,0,B|359:178|374:267,1,150
371,314,15351,1,0
260,336,15708,2,0,B|171:321|156:232,1,150
104,259,16243,2,0,B|193:244|208:155,1,150
256,137,16778,1,0
310,152,16957,1,0
330,204,17135,6,0,B|345:293|434:308,2,150
330,204,18027,2,0,B|315:293|226:308,2,150
330,204,18919,2,0,B|345:293|434:308,2,150
442,205,19990,6,0,B|427:116|338:101,1,150
366,49,20525,2,0,B|351:138|262:153,1,150
214,150,21061,1,0
256,240,21418,5,4
224,288,21596,1,0
224,288,21685,1,0
224,288,21774,1,0
187,335,21953,1,0
292,378,22310,5,0
331,332,22488,1,4
444,238,22845,6,0,B|429:149|340:134,1,150
348,191,23380,2,0,B|437:176|452:87,1,150
470,42,23916,1,0
365,0,24272,2,0,B|350:89|261:104,1,150
268,46,24808,2,0,B|357:61|372:150,1,150
330,181,25343,1,0
275,194,25521,1,0
219,181,25700,6,0,B|130:196|115:285,1,150
172,275,26235,2,0,B|157:186|68:171,1,150
21,158,26771,1,0
87,66,27127,2,0,B|101:147|190:162,1,150
169,214,27663,2,0,B|184:125|273:110,1,150
324,108,28198,1,0
376,137,28376,1,0
382,196,28555,6,0,B|367:285|278:300,1,150
290,238,29090,2,0,B|275:327|186:342,1,150
134,341,29625,1,0
109,220,29982,2,0,B|198:205|213:116,1,150
155,101,30518,2,0,B|244:116|259:205,1,150
289,247,31053,1,0
229,247,31231,1,0
258,198,31410,6,4,B|118:169|53:302,2,225
257,317,32837,6,4,B|397:346|462:213,2,225
448,73,34443,5,0
420,61,34622,1,0
392,49,34800,1,0
364,37,34978,1,2
357,88,35157,5,0
329,76,35335,1,0
301,64,35514,1,2
273,52,35692,1,0
270,104,35871,5,2
242,92,36049,1,2
214,80,36227,1,0
186,68,36406,1,2
181,120,36584,5,0
153,108,36763,1,2
125,96,36941,1,2
97,84,37120,2,0,B|51:116,1,37.5
67,135,37477,6,2,B|113:167,1,37.5
100,186,37833,6,0,B|54:218,1,37.5
68,237,38190,6,2,B|114:269,1,37.5
100,288,38547,6,0,B|54:320,1,37.5
71,339,38904,6,2,B|117:371,1,37.5
127,376,39261,2,2,B|197:382|224:330,1,112.5
223,272,40153,5,2
171,241,40510,1,0
223,212,40867,1,2
275,183,41224,1,0
222,153,41580,1,2
170,121,41937,1,0
223,93,42294,1,2
276,66,42651,1,0
276,66,42830,1,2
224,34,43186,1,2
172,64,43543,1,2
172,64,43722,1,2
224,93,44079,1,2
275,123,44435,1,2
223,153,44792,1,2
171,183,45149,1,0
171,183,45328,1,0
171,183,45506,1,0
171,183,45684,6,2,B|75:200|70:296,1,150
72,279,46577,1,0
72,279,46755,1,0
72,278,46933,1,2
72,337,47290,1,0
131,338,47647,1,2
190,338,48004,1,0
220,337,48182,1,2
250,337,48361,1,0
279,338,48539,2,2,B|367:338,1,75
354,338,49075,2,0,B|442:338,1,75
488,338,49788,1,2
489,338,50145,1,0
458,79,50681,5,0
398,79,51037,1,0
398,79,51216,1,2
338,79,51573,1,0
278,79,51930,1,0
98,79,53000,1,0
98,79,53179,1,0
98,79,53357,1,0
256,104,54249,5,0
256,192,54785,1,0
256,192,54963,1,2
256,280,55498,1,0
256,280,55677,1,2
256,280,55855,1,0
256,280,56034,1,2
256,280,56212,1,0
256,280,56390,1,4
32,192,57104,5,0
120,192,57639,1,0
120,192,57818,1,2
208,192,58353,1,0
208,192,58532,1,4
368,88,59067,1,4
368,280,59602,1,4
368,280,59959,6,0,B|344:362|264:384,1,150
224,336,60494,2,0,B|316:329|320:232,1,150
319,240,61030,1,0
319,143,61387,2,0,B|316:55|224:48,1,150
268,1,61877,2,0,B|344:22|368:104,1,150
368,104,62457,1,0
367,103,62636,1,0
368,104,62814,6,0,B|392:186|472:208,1,150
440,256,63349,2,0,B|416:174|336:152,1,150
340,153,63885,1,0
171,153,64242,2,0,B|96:174|72:256,1,150
44,206,64777,2,0,B|120:186|144:104,1,150
144,104,65312,1,0
143,104,65491,1,0
144,104,65669,6,0,B|151:12|248:8,1,150
242,68,66204,2,0,B|334:75|338:172,1,150
336,223,66740,1,0
341,103,67096,2,0,B|334:11|237:7,1,150
243,67,67632,2,0,B|151:74|147:171,1,150
149,222,68167,1,0
28,223,68523,6,0,B|35:315|132:319,2,150
28,161,69416,2,0,B|35:69|132:65,1,150
123,65,69951,1,4
342,114,70487,1,4
172,262,71022,1,4
172,263,71379,6,0,B|179:355|276:359,1,150
327,351,71914,2,0,B|334:259|431:255,1,150
417,195,72449,2,0,B|509:188|513:91,2,150
419,135,73342,2,0,B|331:132|324:40,1,150
265,29,73877,1,0
207,47,74055,1,0
184,102,74234,6,0,B|178:194|90:197,1,150
98,137,74769,2,0,B|7:144|4:232,1,150
0,291,75304,1,0
108,341,75661,2,0,B|196:338|202:246,1,150
240,199,76197,2,0,B|328:196|334:104,1,150
379,64,76732,1,0
438,55,76910,1,0
476,100,77089,6,0,B|470:192|382:195,1,150
398,253,77624,2,0,B|392:162|304:158,1,150
243,157,78159,1,0
123,159,78516,2,0,B|35:164|29:255,1,150
31,315,79051,2,0,B|120:311|126:220,1,150
124,160,79587,1,0
137,40,79944,5,0
196,40,80122,1,0
256,40,80301,1,0
256,280,81014,1,0
256,192,81371,12,0,85654
256,192,86189,1,0
256,192,86724,1,0
136,192,87081,1,0
136,72,87438,2,0,L|376:72|376:200,1,300
376,192,88330,1,0
375,252,88508,2,0,L|294:252|254:189,2,150
256,192,89579,5,0
376,192,89936,1,0
376,312,90293,2,0,L|136:312|136:184,1,300
136,192,91185,1,0
137,132,91363,2,0,L|218:132|258:195,2,150
256,192,92434,5,0
256,192,92791,6,0,B|297:120|392:144,1,150
256,192,93505,6,0,B|215:264|120:240,1,150
256,192,94218,6,0,B|215:120|120:144,1,150
256,192,94932,6,0,B|297:264|392:240,1,150
176,192,95646,5,4
336,192,96360,1,4
256,192,97073,12,4,101177
