osu file format v5

[General]
AudioFilename: 02_dokan_no_naka_no_mozart.mp3
AudioLeadIn: 0
PreviewTime: -1
Countdown: 1
SampleSet: Soft
StackLeniency: 0.7
Mode: 0
LetterboxInBreaks: 1

[Metadata]
Title:Underground Mozart
Artist:DDR Mario Mix
Creator:Ash
Version:Impossible
Source:
Tags:

[Difficulty]
HPDrainRate:5
CircleSize:6
OverallDifficulty:8
SliderMultiplier:1.5
SliderTickRate:4

[Events]
//Background and Video events
0,0,"undergroundimpossible.png"
//Break Periods
//Storyboard Layer 0 (Background)
//Storyboard Layer 1 (Failing)
//Storyboard Layer 2 (Passing)
//Storyboard Layer 3 (Foreground)
//Storyboard Sound Samples
//Background Colour Transformations
3,100,163,162,255

[TimingPoints]
6,356.866710283709,4,1,0,100
34265,713.690971809207,4,2,0,100
59957,356.866710283709,4,1,0,100

[Colours]
Combo1 : 0,0,130
Combo2 : 122,72,255
Combo3 : 170,0,0
Combo4 : 0,145,72

[HitObjects]
256,0,5715,1,4
-8,344,6251,2,4,B|104:344,1,75
520,344,6964,2,4,B|384:344,1,75
400,280,7321,1,0
360,344,7500,1,0
312,280,7678,1,0
272,344,7857,1,4
256,0,8570,5,4
520,344,9106,2,4,B|424:344,1,75
-8,344,9819,2,4,B|96:344,1,75
120,288,10176,1,0
168,344,10355,1,0
224,288,10533,1,0
272,344,10712,1,4
24,0,11425,5,0
96,40,11604,1,0
176,8,11782,1,0
256,40,11961,1,0
336,8,12139,1,0
416,40,12317,1,0
496,8,12496,1,0
416,40,12674,1,0
336,8,12853,1,0
256,40,13031,1,0
176,8,13210,1,0
96,40,13388,1,0
24,0,13566,2,0,B|24:120,1,75
24,75,13923,2,0,B|24:195,1,75
24,150,14280,5,0
96,190,14459,1,0
176,158,14637,1,0
256,190,14815,1,0
336,158,14994,1,0
416,190,15172,1,0
496,158,15351,1,0
416,190,15529,1,0
336,158,15708,1,0
256,190,15886,1,0
176,158,16065,1,0
96,190,16243,1,0
24,150,16421,2,0,B|24:270,1,75
24,225,16778,2,0,B|24:345,1,75
24,300,17135,5,0
96,260,17314,1,0
176,292,17492,1,0
256,260,17670,1,0
336,292,17849,1,0
416,260,18027,1,0
496,292,18206,1,0
416,260,18384,1,0
336,292,18563,1,0
256,260,18741,1,0
176,292,18919,1,0
96,260,19098,1,0
24,300,19276,2,0,B|24:180,1,75
24,225,19633,2,0,B|24:105,1,75
24,151,19990,5,0
96,111,20168,1,0
176,143,20347,1,0
256,111,20525,1,0
336,143,20704,1,0
416,111,20882,1,0
496,143,21061,2,4,B|484:233|344:256,1,150
256,64,21953,1,4
121,244,22488,1,4
0,360,22845,6,0,B|0:264,1,75
0,208,23202,2,0,B|0:112,1,75
72,104,23559,2,0,B|72:240,1,75
72,256,23916,2,0,B|72:360,1,75
144,304,24272,2,0,B|144:208,1,75
144,152,24629,2,0,B|144:56,1,75
216,104,24986,2,0,B|216:216,1,75
216,256,25343,2,0,B|216:336,1,75
296,331,25700,2,0,B|296:256,1,75
296,179,26057,2,0,B|296:104,1,75
368,77,26414,2,0,B|368:152,1,75
368,229,26771,2,0,B|368:304,1,75
440,331,27127,2,0,B|440:256,1,75
440,179,27484,2,0,B|440:104,1,75
512,133,27841,2,0,B|512:208,1,75
512,285,28198,2,0,B|512:360,1,75
440,336,28555,2,0,B|420:248|304:256,1,150
256,240,29090,2,0,B|236:152|120:160,1,150
112,88,29625,2,4,B|92:0|-24:8,2,150
144,159,30518,2,0,B|236:152|256:240,1,150
328,255,31053,2,0,B|420:248|440:336,1,150
376,376,31588,5,0
312,336,31767,1,0
256,384,31945,1,0
200,336,32124,1,0
144,384,32302,1,0
88,336,32480,1,0
32,288,32659,1,0
88,232,32837,1,4
136,176,33016,1,0
184,232,33194,1,0
232,176,33373,1,4
280,232,33551,1,0
336,184,33729,1,0
392,232,33908,1,4
448,184,34086,1,0
448,40,34443,5,0
416,56,34622,1,0
384,72,34800,1,2
352,88,34978,1,0
352,128,35157,5,2
320,144,35335,1,2
288,160,35514,1,2
256,176,35692,1,0
256,216,35871,5,0
224,232,36049,1,0
192,248,36227,1,2
160,264,36406,1,0
160,304,36584,5,2
128,320,36763,1,2
96,336,36941,1,2
64,352,37120,2,0,B|5:305|24:208,3,150
32,176,39439,1,0
48,144,39618,1,0
64,112,39796,1,2
104,48,40153,5,0
104,120,40510,1,0
104,192,40867,1,0
104,264,41224,1,0
104,336,41580,1,0
176,360,41937,5,0
176,320,42116,1,0
176,280,42294,1,0
176,240,42473,1,0
176,200,42651,1,0
176,160,42830,1,0
176,120,43008,1,0
176,80,43186,1,0
176,40,43365,1,0
176,0,43543,2,0,B|50:33|120:176,1,187.5
136,208,44792,1,0
96,272,45149,1,0
96,272,45328,1,0
96,272,45506,1,0
96,272,45684,6,2,B|171:324|272:264,1,150
272,264,46577,1,0
304,240,46755,1,0
328,216,46933,1,2
272,160,47290,1,0
216,208,47647,1,2
152,248,48004,1,0
120,224,48183,1,2
88,200,48361,1,0
56,176,48539,5,2
96,112,48896,1,0
96,112,49075,1,2
152,64,49432,1,0
208,112,49788,1,2
264,160,50145,1,0
344,240,50681,5,0
304,304,51037,1,0
304,304,51215,2,0,B|256:224,1,75
266,241,51750,2,0,B|234:313,2,75
265,240,52642,2,0,B|307:309,1,75
303,302,53179,1,2
304,302,53357,1,0
303,303,53534,1,0
200,136,54249,6,0,B|240:75|312:64,1,112.5
288,70,54963,2,0,B|295:151|256:214,1,112.5
240,160,55677,1,0
208,136,55855,1,0
240,112,56034,1,0
208,88,56212,1,0
240,64,56390,1,0
340,308,57104,6,0,B|244:396,1,112.5
256,384,57818,2,0,B|163:292,1,112.5
176,304,58532,5,4
256,224,59067,1,4
336,304,59602,1,4
256,224,59959,5,0
192,184,60138,1,0
136,136,60316,1,0
184,80,60494,1,0
256,104,60673,1,0
328,80,60851,1,0
376,136,61030,1,0
320,184,61208,1,0
256,224,61387,1,0
256,152,61565,1,0
256,80,61743,1,0
256,80,61922,2,0,B|256:264,1,150
256,304,62457,1,0
256,376,62636,1,0
256,376,62814,5,0
256,376,62992,1,0
320,344,63171,1,0
384,304,63349,1,0
320,264,63528,1,0
256,304,63706,1,0
192,344,63885,1,0
128,304,64063,1,0
192,272,64242,1,0
256,232,64420,1,0
256,160,64598,1,0
256,80,64777,1,0
256,80,64955,2,0,B|256:288,1,150
256,304,65491,1,0
256,376,65669,5,0
184,376,65847,1,0
112,376,66026,1,0
112,304,66204,1,0
184,304,66383,1,0
256,304,66561,1,0
328,304,66740,1,0
400,304,66918,1,0
400,232,67096,1,0
328,232,67275,1,0
256,232,67453,1,0
184,232,67632,1,0
112,232,67810,1,0
112,160,67989,1,0
184,160,68167,1,0
256,160,68345,1,0
328,160,68524,1,0
400,160,68702,1,0
400,88,68881,1,0
328,88,69059,1,0
256,88,69238,1,0
184,88,69416,1,0
112,88,69595,1,0
112,16,69773,1,0
184,16,69951,6,0,B|308:1|272:128,1,150
280,160,70487,2,0,B|404:145|368:272,1,150
378,305,71022,2,0,B|365:410|498:377,1,150
471,381,71557,5,0
472,304,71736,1,0
472,224,71914,1,0
472,152,72093,1,0
472,80,72271,1,0
472,8,72449,1,0
400,8,72628,2,0,B|400:104,1,75
400,152,72985,2,0,B|288:208,1,75
336,256,73342,2,0,B|404:223,1,75
408,296,73698,2,0,B|408:392,3,75
336,368,74412,5,0
336,296,74591,1,0
336,224,74769,1,0
336,152,74948,1,0
336,80,75126,1,0
336,8,75304,1,0
264,8,75483,2,0,B|264:104,1,75
264,152,75840,2,0,B|152:208,1,75
200,256,76197,2,0,B|268:223,1,75
264,296,76553,2,0,B|264:392,3,75
192,368,77267,5,0
192,296,77446,1,0
192,224,77624,1,0
192,152,77802,1,0
192,80,77981,1,0
192,8,78159,1,0
120,8,78338,2,0,B|120:104,1,75
120,152,78695,2,0,B|8:208,1,75
56,256,79051,2,0,B|124:223,1,75
120,296,79408,2,0,B|120:392,2,75
120,296,79944,2,0,L|40:260|48:152,1,150
120,200,80479,2,0,L|200:164|192:56,1,150
200,24,81014,2,0,L|280:60|272:168,1,150
256,192,81550,5,0
256,264,81728,1,0
256,336,81906,1,0
184,336,82085,1,0
184,264,82263,1,0
256,264,82442,1,0
328,264,82620,1,0
328,192,82799,1,0
256,192,82977,1,0
184,192,83155,1,0
184,120,83334,1,0
256,120,83512,1,0
328,120,83691,1,0
328,48,83869,1,0
256,48,84048,1,0
184,48,84226,2,0,L|329:94|166:304|352:360,1,600
168,304,86189,1,0
256,192,86724,5,4
256,192,87081,1,4
256,40,87438,1,0
184,56,87616,1,0
128,104,87795,1,0
96,176,87973,1,0
104,248,88152,1,0
144,312,88330,1,0
208,344,88508,2,0,L|294:360,4,75
256,192,89579,5,4
256,192,89936,1,4
256,344,90293,1,0
328,328,90471,1,0
384,280,90650,1,0
416,208,90828,1,0
408,136,91007,1,0
368,72,91185,1,0
304,40,91361,2,0,L|218:24,4,75
256,192,92434,5,0
256,192,92791,1,0
296,128,92969,1,0
360,168,93148,1,0
320,232,93326,1,0
256,192,93505,1,0
192,152,93683,1,0
232,88,93861,1,0
296,128,94040,1,0
256,192,94218,1,0
216,256,94397,1,0
152,216,94575,1,0
192,152,94754,1,0
256,192,94932,1,0
320,232,95110,1,0
280,296,95289,1,0
216,256,95467,1,0
256,192,95646,12,0,96003
256,192,96360,12,0,96716
256,192,97073,12,4,101177
