osu file format v5

[General]
AudioFilename: DDR EXTREME - Speed Over Beethoven.mp3
AudioLeadIn: 0
PreviewTime: -1
Countdown: 1
SampleSet: Normal
StackLeniency: 0.7
Mode: 0

[Metadata]
Title:Speed Over Beethoven
Artist:
Creator:zw254
Version:Easy

[Difficulty]
HPDrainRate:3
CircleSize:5
OverallDifficulty:3
SliderMultiplier:0.499999999999999
SliderTickRate:2

[Events]
//Background and Video events
0,0,"WindFire.jpg"
//Break Periods
//Storyboard Layer 0 (Background)
//Storyboard Layer 1 (Failing)
//Storyboard Layer 2 (Passing)
//Storyboard Layer 3 (Foreground)
//Storyboard Sound Samples
//Background Colour Transformations
3,100,163,162,255

[TimingPoints]
1464,355.029585798817,4,1,1,100

[HitObjects]
256,192,177,12,6,17129
96,96,19614,6,6,B|256:288,7,243.75
320,256,36878,1,6
416,256,37632,1,6
480,192,38431,1,6
416,160,39141,1,6
352,128,39807,1,6
256,128,40827,1,6
224,128,41182,1,6
192,224,42203,1,6
224,192,42603,1,6
352,192,43668,1,6
320,192,44067,1,6
192,160,45132,5,6
224,128,45532,1,6
256,96,45842,1,6
288,96,46197,1,6
320,64,46552,1,6
352,64,46907,1,6
384,32,47262,1,6
416,64,47573,1,6
352,160,48638,5,6
320,160,48993,1,6
256,128,49481,1,6
288,96,49925,1,6
256,96,50103,1,6
224,96,50324,1,6
224,96,50458,1,6
192,192,51523,5,6
224,224,51922,1,6
256,192,52277,1,6
288,192,52588,1,6
320,192,52943,1,6
320,224,53298,1,6
288,256,53653,1,6
256,256,54008,1,6
192,192,54718,5,6
192,160,55117,1,6
192,128,55428,1,6
224,96,55827,1,6
256,96,56138,1,6
288,96,56537,1,6
320,128,56848,1,6
320,160,57203,1,6
288,192,57558,1,6
256,192,57869,1,6
224,192,58224,1,6
192,192,58579,1,6
160,192,58934,1,6
192,64,59999,5,6
224,64,60398,1,6
224,96,60753,1,6
224,128,61064,1,6
224,192,61730,1,6
224,192,61907,1,6
256,192,62129,1,6
288,192,62351,1,6
352,288,63505,1,6
320,288,63727,1,6
320,288,63860,1,6
224,256,64881,1,6
224,256,65058,1,6
224,224,65280,1,6
352,192,66434,5,6
352,192,66611,1,6
352,192,66789,1,6
448,128,67854,1,6
416,128,68209,1,6
384,128,68564,1,6
352,128,68964,1,6
320,128,69274,1,6
288,128,69585,1,6
256,160,69984,1,6
256,192,70295,1,6
192,224,70961,1,6
160,192,71316,1,6
160,160,71671,1,6
160,128,71892,1,6
192,128,72292,1,6
224,128,72603,1,6
256,128,72780,1,6
288,128,73002,1,6
288,128,73179,1,6
256,192,85961,12,6,89910
