osu file format v5

[General]
AudioFilename: DBSK - Mirotic.mp3
AudioLeadIn: 0
PreviewTime: -1
Countdown: 3
SampleSet: Normal
StackLeniency: 0.7
Mode: 0
LetterboxInBreaks: 1

[Metadata]
Title:DBSK Mirotic
Artist:DBSK
Creator:XxTheRyuxX
Version:Easy
Source:mirotic DBSK
Tags:mirotic DBSK

[Difficulty]
HPDrainRate:0
CircleSize:3
OverallDifficulty:0
SliderMultiplier:2.6
SliderTickRate:4

[Events]
//Background and Video events
//Break Periods
//Storyboard Layer 0 (Background)
//Storyboard Layer 1 (Failing)
//Storyboard Layer 2 (Passing)
//Storyboard Layer 3 (Foreground)
//Storyboard Sound Samples
//Background Colour Transformations
3,100,163,162,255

[TimingPoints]
730,999.3,4,1,0,100,1

[Colours]
Combo1 : 0,128,64
Combo2 : 0,0,0
Combo3 : 255,0,0
Combo4 : 0,0,255

[HitObjects]
256,192,19716,1,0
256,192,20882,1,0
256,192,21881,1,0
256,192,23047,1,0
96,192,24047,6,0,B|128:224,41,43.3333333333333
192,160,32207,1,0
256,192,32874,1,0
192,224,33373,1,0
128,192,34039,1,0
224,160,34539,1,0
224,288,35039,1,0
128,192,35705,1,0
288,128,36371,1,0
288,256,36871,1,0
192,224,37370,1,0
160,96,37870,1,0
320,160,38536,1,0
256,256,39203,1,0
192,224,39702,1,0
224,192,40368,1,0
224,256,41035,1,0
96,128,41701,1,0
256,96,42367,1,0
256,256,42867,1,0
192,160,43533,1,0
320,96,44032,1,0
288,224,44699,1,0
192,160,45531,5,0
128,128,45865,1,0
256,96,46531,1,0
256,256,47030,1,0
96,192,47697,1,0
192,96,48363,5,0
256,160,48862,1,0
160,256,49529,1,0
32,192,50028,1,0
256,160,50694,1,0
416,224,51361,1,0
256,224,52027,5,0
256,160,52693,1,0
320,160,53359,1,0
320,224,54025,1,0
256,224,54692,1,0
256,160,55358,1,0
320,160,55858,1,0
320,224,56690,5,0
256,224,57356,1,0
256,160,58189,1,0
320,160,58689,1,0
320,224,59688,1,0
256,224,60354,5,0
256,160,61354,1,0
320,160,62020,1,0
320,224,62686,1,0
256,224,63186,1,0
256,160,64018,5,0
288,96,64518,1,0
224,96,65184,1,0
192,128,66017,5,0
192,192,66517,1,0
256,192,67016,1,0
320,192,67516,1,0
288,128,68349,5,0
224,128,68848,1,0
160,128,69348,1,0
192,192,70514,5,0
128,192,71014,1,0
128,32,71680,1,0
320,96,72179,1,0
192,192,72846,1,0
256,192,73512,5,0
192,96,74011,1,0
96,192,74678,1,0
224,288,75344,1,0
256,160,76010,5,0
160,192,76676,1,0
256,192,77342,1,0
192,160,77842,1,0
256,192,78508,1,0
256,192,79841,12,0,81340
224,192,82339,5,0
96,128,83005,1,0
352,160,83505,1,0
192,256,84171,1,0
64,160,84837,1,0
224,160,85337,1,0
224,256,86003,1,0
320,224,86669,1,0
192,192,87335,1,0
96,192,88834,6,0,B|192:192,15,86.6666666666667
256,192,94331,1,0
256,128,94997,1,0
160,192,95663,1,0
256,192,96329,5,0
128,160,96995,1,0
416,192,97662,1,0
320,256,98161,1,0
192,224,98827,1,0
192,128,99494,1,0
320,128,100160,5,0
320,224,100659,1,0
192,256,101159,1,0
192,128,101659,1,0
352,224,102325,1,0
256,288,102991,1,0
224,192,103491,1,0
320,192,103990,1,0
288,256,104657,1,0
160,192,105323,5,0
288,192,105823,1,0
224,64,106489,1,0
192,224,106988,1,0
320,192,107655,1,0
192,128,108154,1,0
256,96,108987,5,0
256,224,109487,1,0
160,192,110153,1,0
224,128,110652,1,0
320,160,111319,1,0
192,224,111985,1,0
192,128,112651,1,0
256,160,113317,1,0
192,160,113983,5,0
192,192,114650,1,0
224,128,115482,1,0
128,96,115982,1,0
256,192,116648,1,0
320,128,117148,1,0
160,128,117814,1,0
160,224,118480,1,0
256,160,119313,5,0
96,160,119813,1,0
128,96,120479,1,0
256,224,121145,1,0
256,160,121978,5,0
224,160,122644,1,0
160,160,122977,1,0
128,160,123310,1,0
96,160,123643,1,0
128,96,124643,5,0
224,128,124976,1,0
224,192,125642,1,0
288,192,126308,1,0
320,128,126808,1,0
224,128,127474,5,0
160,224,128140,1,0
64,224,128806,1,0
192,128,129306,1,0
256,160,129972,5,0
352,160,130472,1,0
256,256,130972,1,0
128,192,131804,5,0
160,96,132304,1,0
256,128,132970,1,0
256,192,133636,5,0
96,256,134136,1,0
96,128,134802,1,0
192,128,135302,1,0
192,224,135968,5,0
256,192,136634,1,0
192,160,137134,1,0
256,128,137634,1,0
192,192,139133,5,0
224,224,139632,1,0
288,224,140132,1,0
288,160,140632,1,0
320,160,141464,5,0
288,96,142130,1,0
160,128,142630,1,0
192,224,143130,1,0
256,192,144129,5,0
288,160,144629,1,0
192,128,145295,1,0
288,128,146128,5,0
288,192,146794,1,0
192,224,147294,1,0
192,96,148293,5,0
256,128,148959,1,0
256,224,149625,1,0
192,256,150625,5,0
192,192,151291,1,0
192,128,151957,1,0
320,224,153123,5,0
192,256,153789,1,0
192,160,154455,1,0
288,160,154955,1,0
192,256,156121,5,0
224,160,156787,1,0
320,224,157453,1,0
192,256,159119,5,0
192,128,159785,1,0
288,160,160451,1,0
256,224,161284,5,0
128,192,161783,1,0
192,128,162283,1,0
256,224,163116,1,0
160,224,163949,5,0
224,128,164448,1,0
320,224,165281,1,0
224,192,165947,5,0
256,96,166613,1,0
320,192,167446,1,0
224,256,168112,1,0
160,160,168778,1,0
224,96,169611,5,0
288,192,170111,1,0
160,192,170777,1,0
224,128,171277,1,0
256,192,172276,5,0
224,224,172776,1,0
320,256,173442,1,0
256,320,174275,1,0
160,192,174941,5,0
256,160,175440,1,0
288,256,176107,1,0
160,256,176606,1,0
160,160,177439,6,0,B|256:160,7,86.6666666666667
256,192,179937,12,0,181436
224,160,181769,5,0
224,160,182269,1,0
256,160,182769,1,0
256,256,183435,1,0
160,224,183935,1,0
288,192,184601,1,0
288,256,185100,1,0
224,192,185767,1,0
288,128,186266,1,0
320,224,186932,1,0
224,224,187599,1,0
96,192,187932,1,0
96,192,189264,5,0
224,160,189764,1,0
160,128,190597,2,0,B|256:128,9,86.6666666666667
256,192,194927,12,0,197425
192,160,198091,5,0
320,192,198757,1,0
192,224,199424,1,0
192,128,200090,1,0
320,192,200756,1,0
256,288,201256,1,0
160,224,201922,1,0
192,160,202588,1,0
256,224,203421,5,0
352,192,204087,1,0
192,160,204753,1,0
256,96,205419,5,0
352,160,206086,1,0
224,224,206752,1,0
96,128,207252,1,0
192,96,207918,1,0
288,128,208750,5,0
224,224,209250,1,0
96,128,209916,1,0
320,96,210583,1,0
224,256,211415,5,0
224,128,212081,1,0
288,192,212581,1,0
160,192,213414,1,0
224,256,213914,1,0
288,192,215246,5,0
224,128,216578,1,0
160,192,217411,1,0
224,256,217911,1,0
288,192,218743,1,0
224,128,219410,5,0
192,192,220076,1,0
224,224,220576,1,0
256,192,221242,1,0
224,160,222408,1,0
256,192,223074,12,0,224739
