osu file format v9

[General]
AudioFilename: kimi ga umareta hi short.mp3
AudioLeadIn: 0
PreviewTime: 55983
Countdown: 0
SampleSet: Soft
StackLeniency: 0.5
Mode: 0
LetterboxInBreaks: 0

[Editor]
Bookmarks: 2725,24298,56657,89017
DistanceSpacing: 1
BeatDivisor: 2
GridSize: 4

[Metadata]
Title:Kimi ga Umareta Hi
Artist:DATEKEN
Creator:Lanttu
Version:Normal
Source:
Tags:happy birthday vocaloid day you were born

[Difficulty]
HPDrainRate:4
CircleSize:4
OverallDifficulty:3
ApproachRate:5
SliderMultiplier:1.4
SliderTickRate:2

[Events]
//Background and Video events
0,0,"bg.png"
//Break Periods
//Storyboard Layer 0 (Background)
//Storyboard Layer 1 (Fail)
//Storyboard Layer 2 (Pass)
//Storyboard Layer 3 (Foreground)
//Storyboard Sound Samples
//Background Colour Transformations
3,100,188,205,225

[TimingPoints]
2725,674.157303370787,4,2,1,50,1,0
82949,-100,4,2,1,45,0,0
88342,-100,4,2,1,40,0,0
93736,-100,4,2,1,35,0,0

[Colours]
Combo1 : 190,210,225
Combo2 : 250,237,194
Combo3 : 250,205,175
SliderBorder : 255,255,255

[HitObjects]
472,44,2725,2,0,B|444:108|356:112,1,140,0|8
312,60,3736,2,0,B|376:104|368:184,1,140,0|2
360,248,4747,2,0,B|349:286|359:326,2,70,8|0|2
468,160,6095,5,8
420,212,6432,2,0,B|368:264|288:244,1,140,2|2
224,220,7444,1,8
204,360,8118,6,0,B|164:296|80:296,1,140,2|8
16,296,9129,2,0,B|80:256|80:172,1,140
32,128,10140,1,8
88,84,10477,1,0
136,136,10814,1,4
260,72,11489,5,8
328,48,11826,2,0,B|356:26|390:35|466:69|409:130|329:96|390:35|419:13|453:23,1,210,2|4
496,160,13511,6,0,B|444:212|460:288,1,140,2|8
464,360,14522,2,0,B|404:360|400:304|340:304,1,140,0|2
268,304,15533,2,0,B|228:308|200:288,2,70,8|0|2
268,164,16882,5,8
252,232,17219,2,0,B|192:204|112:220,1,140,0|2
48,240,18230,1,8
28,100,18904,6,0,B|104:104|156:48,1,140,2|8
84,20,19916,2,0,B|84:100|140:144,1,140
192,188,20927,2,0,B|224:208|244:240,2,70,8|0|4
192,48,22275,5,8
192,48,22612,1,2
84,136,23286,5,0
152,120,23623,1,4
220,136,23960,1,0
264,188,24298,6,0,B|234:215|222:261,2,70,2|0|8
316,140,25309,1,2
440,76,25983,1,0
376,100,26320,1,8
264,188,26994,6,0,B|280:260|340:304,1,140,4|8
384,248,28005,2,0,B|332:340|212:356,1,210,2|4
164,224,29691,6,0,B|91:240|51:302,1,140,2|8
131,314,30702,2,0,B|110:240|45:189,1,140,2|0
0,152,31713,1,8
104,56,32387,6,0,B|64:68|36:100,2,70,6|0|8
172,44,33399,2,0,B|168:160|240:240,1,210,2|4
344,328,35084,6,0,B|388:268|460:256,1,140,2|8
512,304,36095,2,0,B|452:264|424:192,1,140
404,128,37107,1,8
504,28,37781,6,0,B|500:68|464:88,2,70,2|0|8
432,24,38792,2,0,B|344:24|352:144|268:144,1,210,0|4
132,148,40477,2,0,B|220:148|212:268|296:268,2,210,2|2|8
36,44,43174,6,0,B|4:64|-4:100,2,70,4|0|8
100,12,44185,1,2
0,200,45196,5,4
16,267,45533,1,0
52,328,45871,2,0,B|103:279|179:272,1,140,2|8
188,344,46882,2,0,B|160:276|200:208,1,140
240,152,47893,1,8
288,100,48230,1,0
350,65,48567,6,0,B|328:32|292:32,2,70,4|0|8
288,100,49578,2,0,B|316:176|376:208,1,140,2|0
440,232,50590,2,0,B|476:248|492:276,2,70,8|0|2
368,352,51938,5,8
368,280,52275,2,0,B|304:280|312:344|248:344,1,140,2|0
180,344,53286,2,0,B|112:344,2,70,8|0|2
44,304,54635,5,8
96,256,54972,2,0,B|131:253|151:224|186:148|103:140|65:218|151:224|187:221|206:191,1,210,2|4
288,80,56657,6,0,B|263:62|243:26,2,70,2|0|8
344,120,57668,2,0,B|380:40|472:40,2,140,2|0|0
380,256,59691,2,0,B|408:232|444:240,1,70,0|8
432,308,60365,2,0,B|356:232|240:232,1,210,0|12
104,232,62050,6,0,B|68:212|56:176,2,70,2|0|8
128,160,63062,2,0,B|196:148|208:36|292:36,1,210,2|0
288,36,64747,1,4
168,136,65421,5,8
144,200,65758,2,0,B|188:224|264:220|296:164|292:108,1,210
488,24,67444,6,0,B|440:72|440:152,1,140,2|8
440,220,68455,2,0,B|471:233|495:268|495:303|478:338,2,140,2|0|0
328,300,70477,2,0,B|364:312|412:296,1,70,0|8
256,280,71489,6,0,B|196:280|200:348|140:348,1,140,0|8
8,300,72837,2,0,B|72:264|96:192,1,140,2|8
36,160,73848,2,0,B|121:230|235:185,1,210,2|8
276,52,75533,5,6
233,185,76208,1,8
233,185,76545,2,0,B|244:252|376:256|384:320,1,210,2|4
400,180,78230,6,0,B|468:220|484:288,2,140,2|8|0
384,320,80253,2,0,B|360:292|324:284,2,70,8|0|4
256,264,81601,1,8
184,256,81938,1,0
68,80,82949,6,0,B|56:44|16:20,2,70,4|0|2
96,216,84298,1,8
96,216,84635,1,2
220,48,85646,2,0,B|248:28|288:24,2,70,8|0|4
124,152,86994,5,8
124,152,87331,1,2
332,116,88342,6,0,B|368:116|408:136,2,70,12|0|2
468,160,89691,1,8
468,160,90028,1,2
260,108,91039,1,8
248,180,91376,1,0
320,156,91713,1,2
328,296,92387,5,8
328,296,92725,1,2
124,348,93736,5,6
124,348,94073,1,0
80,208,95084,1,0
80,208,95421,1,2
72,60,96432,1,2
72,60,96769,1,0
