osu file format v9

[General]
AudioFilename: kimi ga umareta hi short.mp3
AudioLeadIn: 0
PreviewTime: 55983
Countdown: 0
SampleSet: Soft
StackLeniency: 0.5
Mode: 0
LetterboxInBreaks: 0

[Editor]
Bookmarks: 2725,24298,56657,89017
DistanceSpacing: 1
BeatDivisor: 4
GridSize: 4

[Metadata]
Title:Kimi ga Umareta Hi
Artist:DATEKEN
Creator:Lanttu
Version:Hard
Source:
Tags:happy birthday vocaloid day you were born

[Difficulty]
HPDrainRate:7
CircleSize:4
OverallDifficulty:7
ApproachRate:7
SliderMultiplier:1.6
SliderTickRate:2

[Events]
//Background and Video events
0,0,"bg.png"
//Break Periods
//Storyboard Layer 0 (Background)
//Storyboard Layer 1 (Fail)
//Storyboard Layer 2 (Pass)
//Storyboard Layer 3 (Foreground)
//Storyboard Sound Samples
//Background Colour Transformations
3,100,188,205,225

[TimingPoints]
2725,674.157303370787,4,2,1,50,1,0
12500,-100,4,2,2,30,0,0
12837,-100,4,2,1,50,0,0
28680,-100,4,2,1,40,0,0
28848,-100,4,2,1,50,0,0
34241,-100,4,2,2,30,0,0
34410,-100,4,2,1,50,0,0
50253,-100,4,2,1,40,0,0
50421,-100,4,2,1,50,0,0
55814,-100,4,2,2,30,0,0
55983,-100,4,2,1,50,0,0
77387,-100,4,2,2,30,0,0
77556,-100,4,2,1,50,0,0
82949,-100,4,2,1,45,0,0
88342,-100,4,2,1,40,0,0
93399,-100,4,2,1,35,0,0

[Colours]
Combo1 : 190,210,225
Combo2 : 250,237,194
Combo3 : 250,205,175
SliderBorder : 255,255,255

[HitObjects]
472,40,2725,1,2
420,100,3062,1,0
340,112,3399,1,8
292,48,3736,2,0,B|361:105|344:192,1,160,2|2
332,272,4747,2,0,B|321:310|331:350,2,80,8|0|4
344,192,5758,5,0
424,204,6095,1,8
412,284,6432,2,0,B|332:320|256:312,1,160,2|2
200,256,7444,2,0,B|186:298|148:316,1,80,8|0
124,244,8118,5,4
100,168,8455,1,0
56,100,8792,1,8
0,44,9129,2,0,B|60:88|156:72,1,160,2|0
232,56,10140,2,0,B|272:48|312:48,2,80,2|0|4
152,72,11151,5,0
76,96,11489,1,8
12,140,11826,1,2
12,140,12500,6,0,B|-8:116,4,20,2|2|2|2|8
56,204,13174,1,0
80,280,13511,5,2
140,228,13848,1,0
212,200,14185,1,8
292,184,14522,2,0,B|364:184|356:112|428:112,1,160,0|2
508,108,15533,1,8
464,40,15871,1,0
428,112,16208,6,0,B|432:156|468:180,1,80,4|0
508,248,16882,1,8
492,328,17219,2,0,B|420:284|340:288,1,160,4|2
264,260,18230,2,0,B|300:232|312:188,1,80,8|0
324,116,18904,5,2
320,36,19241,1,0
396,68,19578,1,8
324,116,19916,2,0,B|272:176|184:184,1,160,2|0
104,188,20927,2,0,B|60:184|8:200,2,80,10|0|4
112,268,21938,5,0
32,276,22275,1,8
80,340,22612,1,2
24,196,23286,5,0
72,132,23623,1,4
144,96,23960,1,0
140,176,24298,6,0,B|116:208|112:256,2,80,2|0|8
212,140,25309,2,0,B|242:109|291:117|330:146|329:190,1,160,2|0
252,204,26320,2,0,B|276:120|360:96,1,160,8|4
440,84,27331,2,0,B|480:72|508:40,1,80,0|8
436,4,28005,2,0,B|428:88|464:160,1,160,2|2
500,232,29017,1,12
500,232,29691,6,0,B|460:236|428:264,2,80,2|0|8
492,312,30702,2,0,B|428:268|328:268,1,160,2|0
260,268,31713,2,0,B|176:268,2,80,8|0|4
340,268,32725,1,0
300,196,33062,1,8
220,196,33399,1,2
220,196,34241,6,4,B|200:176,2,20,2|2|4
180,268,34747,1,0
180,348,35084,2,0,B|120:348|104:276|40:276,1,160,2|8
12,348,36095,2,0,B|52:280|48:192,1,160,2|0
44,116,37107,2,0,B|68:152|112:156,1,80,8|0
116,76,37781,5,4
110,155,38118,1,0
140,232,38455,1,8
200,284,38792,2,0,B|248:212|332:204,1,160,2|0
416,204,39803,1,12
372,272,40140,1,0
332,204,40477,6,0,B|332:140|416:140|416:76,1,160,2|8
332,76,41489,2,0,B|332:140|416:140|416:204,1,160,0|0
372,272,42500,2,0,B|456:292|500:368,2,160,8|4|8
372,272,44185,1,2
460,136,44859,6,0,B|432:104|436:60,2,80,0|12|0
508,200,45871,2,0,B|420:204|372:272,1,160,2|8
324,336,46882,2,0,B|288:260|208:232,1,160,2|0
132,208,47893,1,8
52,192,48230,1,0
16,120,48567,6,0,B|54:99|96:125,2,80,4|0|8
28,40,49578,2,0,B|75:110|50:203,1,160,6|2
32,272,50590,2,0,B|24:312|32:352,2,80,12|0|6
52,193,51601,1,0
108,136,51938,1,8
180,104,52275,6,0,B|240:112|256:32|320:40,1,160
396,40,53286,2,0,B|480:40,2,80,8|0|4
348,104,54298,1,0
320,180,54635,1,8
300,256,54972,1,2
300,256,55814,6,0,B|272:264,2,20,2|2|4
380,240,56320,1,0
448,196,56657,2,0,B|468:160|500:136,2,80,2|0|8
444,276,57668,2,0,B|408:356|316:356,1,160,2|0
236,352,58680,1,8
156,336,59017,6,0,B|120:316|68:320,2,80,0|4|0
236,352,60028,1,8
216,276,60365,2,0,B|144:236|52:240,1,160,2|0
84,164,61376,2,0,B|40:176|4:156,1,80,12|0
52,92,62050,6,0,B|12:69|1:29,2,80,2|0|8
128,124,63062,1,2
208,132,63399,2,0,B|268:132|292:68|356:68,1,160,0|8
424,104,64410,2,0,B|404:144|360:148,1,80,0|4
352,68,65084,5,0
420,24,65421,1,8
492,64,65758,2,0,B|508:100|508:152|464:180|420:184,1,160,2|0
344,200,66769,2,0,B|380:220|400:256,1,80,12|0
424,332,67444,5,2
344,320,67781,1,0
400,256,68118,1,8
480,276,68455,2,0,B|464:312|424:340|384:340|344:320,1,160
272,280,69466,1,8
204,240,69803,2,0,B|168:220|124:216,2,80,0|4|0
272,280,70814,1,8
344,320,71151,5,2
272,280,71489,1,0
192,292,71826,1,0
140,356,72163,1,12
84,296,72500,1,0
4,284,72837,6,0,B|48:212|32:128,1,160,2|8
8,52,73848,2,0,B|32:128|120:156,1,160,2|0
196,184,74859,2,0,B|236:196|268:220,2,80,8|0|4
120,156,75871,5,0
184,108,76208,1,8
224,44,76545,1,2
224,44,77387,6,0,B|208:12,2,20,2|2|8
268,112,77893,1,0
320,172,78230,2,0,B|360:192|372:232,1,80,2|0
292,248,78904,2,0,B|332:184|428:172,1,160,8|0
508,172,79916,2,0,B|508:124|464:100,2,80,0|8|0
504,252,80927,5,4
476,328,81264,1,0
404,364,81601,1,8
328,336,81938,2,0,B|300:304|256:296|212:304|184:336,1,160,0|0
104,344,82949,5,12
48,288,83286,1,0
36,208,83623,2,4,B|24:168|32:128,1,80,6|0
104,164,84298,2,0,B|112:120|140:92,2,80,8|2|0
144,236,85309,1,0
184,168,85646,2,0,B|208:132|248:124,2,80,8|0|4
144,236,86657,5,0
184,168,86994,1,8
248,124,87331,1,2
248,124,88342,5,12
304,184,88680,2,0,B|338:104|423:83,1,160
496,60,89691,1,8
436,8,90028,2,0,B|396:85|455:157,1,160,2|0
512,212,91039,1,8
512,212,91376,1,0
512,292,91713,6,0,B|468:296|444:328,2,80,6|0|8
508,372,92725,2,0,B|448:320|356:320,1,160,2|6
280,320,93736,5,12
280,320,94073,1,0
280,320,94410,1,2
164,288,95084,1,0
164,288,95421,1,2
248,200,96432,1,2
248,200,96769,1,0
