osu file format v6

[General]
AudioFilename: switch.mp3
AudioLeadIn: 1489
PreviewTime: 63322
Countdown: 1
SampleSet: Normal
StackLeniency: 0.7
Mode: 0
LetterboxInBreaks: 1
SkinPreference:Default

[Editor]
DistanceSpacing: 1
BeatDivisor: 4
GridSize: 8

[Metadata]
Title:switch
Artist:DAISUKE ASAKURA ex.TERRA
Creator:ouranhshc
Version:Normal
Source:DDR Bemani konami
Tags:Shulin Xgor DDR Dance Dance Revolution DanceDanceRevolution Supernova2 DDR project

[Difficulty]
HPDrainRate:5
CircleSize:4
OverallDifficulty:5
SliderMultiplier:1.2
SliderTickRate:1

[Events]
//Background and Video events
0,0,"switch-bg.png"
//Break Periods
2,24645,27193
//Storyboard Layer 0 (Background)
//Storyboard Layer 1 (Fail)
//Storyboard Layer 2 (Pass)
//Storyboard Layer 3 (Foreground)
//Storyboard Sound Samples
//Background Colour Transformations
3,100,163,162,255

[TimingPoints]
367,394.736842105263,4,1,0,100,1,0
22861,-100,4,1,0,74,0,0
23256,-100,4,1,0,49,0,0
23651,-100,4,1,0,23,0,0
24046,-100,4,1,0,0,0,0
28289,-100,4,1,0,100,0,0
63322,-100,4,2,0,100,0,0
64605,-100,4,1,0,100,0,0
66184,-100,4,1,0,100,0,1
85723,-100,4,1,0,0,0,1
87302,-100,4,1,0,100,0,0
88294,-100,4,2,0,100,0,0
90070,-100,4,1,0,100,0,0
91842,-100,4,1,0,100,0,1
92039,-100,4,1,0,100,0,1
92335,-100,4,1,0,77,0,1
92730,-100,4,1,0,47,0,1
93125,-100,4,1,0,0,0,1

[HitObjects]
256,192,1551,1,4
168,192,1847,1,4
168,280,2143,1,0
168,280,2340,1,0
256,280,2636,1,4
344,280,2932,1,4
344,280,3130,1,0
344,160,3524,5,0
344,40,3919,1,0
256,40,4215,1,0
256,128,4511,1,0
192,128,4709,1,0
104,128,5005,1,0
104,216,5301,1,0
280,248,6090,6,8,B|280:184,1,60
280,64,6682,1,0
400,64,7077,1,0
400,184,7472,2,8,B|400:248,1,60
112,184,8656,5,0
136,128,8853,1,0
168,72,9051,1,0
224,72,9248,1,0
280,72,9445,1,4
400,72,9741,1,0
400,192,10038,1,0
400,192,10235,1,4
400,312,10531,1,0
280,312,10827,1,0
280,312,11024,1,4
280,192,11320,1,0
280,72,11616,2,0,B|280:136,1,60
384,280,12406,5,0
384,280,12603,1,0
464,192,12998,2,0,B|464:64,1,120
344,72,13788,1,0
256,192,15169,5,8
315,192,15366,1,8
376,192,15564,1,8
376,192,15761,1,8
376,312,16156,1,8
256,312,16551,2,0,B|128:312,1,120,0|8
16,312,17340,2,2,B|16:128,1,180,0|0
16,72,18130,1,0
72,72,18327,1,0
128,72,18524,1,8
192,72,18722,5,0
192,72,18919,1,0
312,72,19314,1,8
432,72,19709,1,0
432,192,20103,2,0,B|432:256,1,60,8|0
136,192,21288,6,0,B|136:128,1,60
192,136,21682,2,0,B|192:72,1,60
248,72,22077,2,0,B|248:8,1,60
256,192,22472,12,0,24445
256,192,28393,5,0
256,72,28788,1,0
376,72,29182,1,0
376,192,29577,1,8
376,192,29774,1,0
376,192,29972,1,8
376,312,30367,2,0,B|312:312,1,60
256,312,30761,2,0,B|192:312,1,60
136,312,31156,1,8
136,192,31551,6,0,B|136:128,1,60
195,132,31945,2,0,B|195:68,1,60
195,11,32340,1,0
315,11,32735,1,0
436,11,33130,1,0
436,131,33524,1,0
436,191,33722,1,0
128,136,34709,5,0
248,136,35103,1,0
368,136,35498,1,0
368,256,35893,2,0,B|240:256,1,120
128,256,36682,2,0,B|128:320,1,60
192,320,37077,2,0,B|256:320,1,60
312,320,37472,1,0
432,320,37866,5,0
432,200,38261,1,0
432,80,38656,1,0
312,80,39051,2,8,B|248:80,1,60
312,184,39643,2,8,B|248:184,1,60
80,304,41024,5,0
80,184,41419,1,0
80,64,41814,1,0
200,64,42209,2,8,B|264:64,1,60
456,64,43788,6,0,B|456:128,1,60
456,304,44577,1,8
456,244,44774,1,8
456,64,45366,1,0
392,64,45564,1,0
272,64,45959,1,4
152,64,46353,1,4
32,64,46748,1,4
24,232,47340,6,0,B|88:232,1,60
80,296,47735,2,0,B|144:296,1,60
200,296,48130,1,0
320,296,48524,2,8,B|384:296,1,60
376,112,49314,1,0
376,112,49511,1,0
256,112,49906,1,0
256,232,50301,2,0,B|192:232,1,60
72,232,50893,1,8
72,232,51090,1,8
192,232,51485,1,8
312,232,51880,1,8
472,48,53656,5,0
472,136,53952,1,0
472,224,54248,1,0
472,224,54445,1,0
288,224,55038,2,0,B|216:224,1,60
136,224,55531,1,0
136,136,55827,1,0
136,136,56024,1,0
376,136,56814,6,2,B|376:72|336:48|304:40,1,120,0|8
192,40,57603,2,2,B|171:45|131:69|131:133,1,120,0|8
256,192,58393,12,4,59972
256,192,61551,5,4
376,192,61945,1,8
376,72,62340,1,4
256,72,62735,1,8
256,192,63130,1,4
256,312,63524,6,0,B|192:312,1,60
136,312,63919,2,0,B|136:248,1,60
136,192,64314,2,0,B|136:128,1,60
48,192,64709,5,4
136,192,65005,1,4
224,192,65301,1,4
224,192,65498,1,4
312,192,65794,1,4
400,192,66090,1,4
400,192,66288,6,0,B|400:64,1,120
280,72,67077,2,0,B|152:72,1,120
40,72,67866,1,8
40,160,68163,1,8
40,248,68459,1,8
336,248,69248,5,0
336,248,69445,1,0
336,128,69840,1,0
216,128,70235,1,0
96,128,70630,2,8,B|32:128,1,60
256,328,71814,6,8,B|256:264,1,60
256,208,72209,2,8,B|256:144,1,60
256,88,72603,1,0
344,88,72899,1,0
432,88,73195,1,8
432,88,73393,1,8
432,176,73689,1,0
432,264,73985,1,8
432,264,74182,1,8
344,264,74478,1,0
256,264,74774,1,8
256,264,74972,1,8
72,264,75564,6,0,B|72:200,2,60
128,264,76156,2,0,B|128:328,1,60
188,324,76551,2,0,B|188:260,1,60
188,204,76945,1,0
368,204,78327,6,8,B|368:140,1,60
368,83,78722,1,8
308,83,78919,1,8
188,83,79314,2,0,B|188:211,1,120
188,324,80103,2,0,B|316:324,1,120
428,324,80893,1,0
428,203,81288,1,0
248,203,81880,6,0,B|184:203,1,60
68,203,82472,1,0
188,203,82867,1,0
188,323,83261,2,0,B|252:323,1,60
408,323,84445,6,8,B|408:259,1,60
408,203,84840,2,8,B|408:139,1,60
408,83,85235,1,2
349,83,85432,1,2
288,83,85630,1,2
256,192,85827,12,0,87209
120,192,88393,6,0,B|120:160,16,30,0|0|0|0|0|0|0|0|0|0|0|0|0|0|0|0|4
208,192,90268,5,4
296,192,90564,1,4
296,192,90761,1,4
384,192,91057,1,4
472,192,91353,1,4
472,192,91551,1,4
256,192,91945,12,0,95103
