osu file format v6

[General]
AudioFilename: switch.mp3
AudioLeadIn: 1511
PreviewTime: 63125
Countdown: 1
SampleSet: Normal
StackLeniency: 0.7
Mode: 0
LetterboxInBreaks: 1
SkinPreference:Default

[Editor]
DistanceSpacing: 1.29999995231628
BeatDivisor: 4
GridSize: 8

[Metadata]
Title:switch
Artist:DAISUKE ASAKURA ex.TERRA
Creator:ouranhshc
Version:Insane
Source:DDR Bemani konami
Tags:Shulin Xgor DDR Dance Dance Revolution DanceDanceRevolution Supernova2 DDR project

[Difficulty]
HPDrainRate:7
CircleSize:5
OverallDifficulty:8
SliderMultiplier:2
SliderTickRate:1

[Events]
//Background and Video events
0,0,"switch-bg.png"
//Break Periods
//Storyboard Layer 0 (Background)
//Storyboard Layer 1 (Fail)
//Storyboard Layer 2 (Pass)
//Storyboard Layer 3 (Foreground)
//Storyboard Sound Samples
//Background Colour Transformations
3,100,163,162,255

[TimingPoints]
367,394.736842105263,4,1,0,100,1,0
63026,-100,4,2,0,100,0,0
64654,-100,4,1,0,100,0,0
66283,-100,4,1,0,100,0,1
85033,-100,4,1,0,100,0,0
85131,-100,4,1,0,100,0,1
85329,-100,4,1,0,100,0,0
86710,-100,4,1,0,100,0,1
86908,-100,4,1,0,100,0,0
88289,-100,4,2,0,100,0,0
89917,-100,4,1,0,100,0,0
91447,-100,4,1,0,100,0,1
91743,-100,4,1,0,80,0,1
92138,-100,4,1,0,58,0,1
92533,-100,4,1,0,29,0,1
92927,-100,4,1,0,0,0,1
93421,-100,4,2,0,0,0,0

[HitObjects]
256,40,1551,5,8
152,112,1748,1,0
152,112,1847,1,8
192,232,2044,1,0
192,232,2143,2,0,B|296:232,1,100
352,112,2538,1,8
352,112,2636,1,0
256,40,2834,1,8
256,40,2932,1,0
256,160,3130,1,4
40,48,3524,5,0
40,288,3919,1,0
40,104,4215,1,0
40,288,4511,1,0
168,288,4709,1,0
168,160,4906,1,0
168,160,5005,2,0,B|264:120|160:272|304:136,1,150
480,32,6090,5,0
360,32,6288,1,0
360,272,6682,1,0
360,32,7077,1,0
312,32,7176,1,0
264,32,7274,1,0
216,32,7373,1,0
168,32,7472,1,0
104,144,7669,1,0
104,272,7867,2,8,B|168:360|232:360|256:312|312:296,1,200
56,208,8656,5,0
176,208,8853,1,0
176,88,9051,1,0
56,88,9248,1,0
56,208,9445,1,0
232,208,9741,1,4
232,24,10038,1,4
352,24,10235,1,0
352,208,10531,1,4
168,200,10827,1,4
168,152,10926,1,0
168,104,11024,1,0
360,104,11320,1,0
256,272,11616,1,8
256,272,11814,1,8
40,40,12406,5,0
40,40,12505,1,0
40,40,12603,1,0
40,160,12801,1,0
160,160,12998,1,0
160,280,13195,1,0
280,280,13393,1,0
400,280,13590,1,0
280,280,13788,1,0
400,280,13985,2,8,B|416:208|400:176,1,100
280,184,14380,2,8,B|304:104|272:72,1,100
400,88,14774,2,8,B|376:152|400:192,1,100
256,96,15169,5,0
136,192,15366,1,0
256,280,15564,1,0
376,192,15761,1,4
72,192,16156,1,0
312,192,16551,1,0
488,192,16847,1,0
344,80,17143,1,0
224,80,17340,1,0
224,256,17636,1,0
416,256,17932,1,0
56,48,18722,5,0
176,48,18919,1,0
416,48,19314,1,8
416,288,19709,1,0
176,288,20103,1,8
176,160,20301,1,0
296,160,20498,2,2,B|336:136|376:160|408:176|496:160,1,200,2|10
256,80,21288,5,0
168,192,21485,1,0
256,304,21682,1,0
336,192,21880,1,0
256,80,22077,5,0
304,80,22176,1,0
352,80,22274,1,0
400,80,22373,1,0
352,80,22472,5,0
304,80,22570,1,0
256,80,22669,1,0
208,80,22768,1,0
256,80,22866,5,0
304,80,22965,1,0
352,80,23064,1,0
400,80,23163,1,0
448,80,23261,1,8
256,328,23656,5,0
208,328,23755,1,0
160,328,23853,1,0
112,328,23952,1,0
160,328,24051,5,0
208,328,24149,1,0
256,328,24248,1,0
304,328,24347,1,0
256,328,24445,5,0
208,328,24544,1,0
160,328,24643,1,0
112,328,24742,1,0
64,328,24840,1,8
256,88,25235,5,0
304,88,25334,1,0
352,88,25432,1,0
400,88,25531,1,0
352,88,25630,5,0
304,88,25728,1,0
256,88,25827,1,0
208,88,25926,1,0
256,88,26024,5,0
304,88,26123,1,0
352,88,26222,1,0
400,88,26320,1,0
448,88,26419,1,8
384,224,26814,5,0
360,264,26913,1,0
312,288,27011,1,0
264,296,27110,1,0
216,288,27209,1,0
176,256,27307,1,0
152,208,27406,1,0
144,160,27505,1,0
152,112,27603,1,0
176,64,27702,1,0
224,48,27801,1,0
272,48,27899,1,0
320,64,27998,1,0
344,112,28097,1,0
320,160,28195,1,0
272,184,28294,1,0
224,184,28393,5,8
352,184,28590,1,8
352,312,28788,1,8
224,312,28985,1,8
224,184,29182,1,8
480,120,29577,1,4
256,248,29972,1,4
48,96,30367,1,0
96,96,30465,1,0
144,96,30564,1,0
144,192,30761,1,0
192,192,30860,1,0
240,192,30959,1,0
288,72,31156,1,8
288,336,31551,5,0
160,336,31748,1,0
32,336,31945,1,0
96,224,32143,1,0
96,96,32340,1,0
96,360,32735,5,0
224,360,32932,1,0
352,360,33130,1,0
480,360,33327,1,0
480,232,33524,1,0
480,104,33722,1,0
352,104,33919,2,8,B|360:144|256:128|344:232|240:272,1,200
120,240,34511,1,8
32,328,34709,5,0
80,328,34807,1,0
128,328,34906,1,0
128,200,35103,1,0
176,200,35202,1,0
224,200,35301,1,0
224,72,35498,1,0
488,72,35893,1,0
488,336,36288,1,0
488,336,36386,1,0
488,336,36485,1,0
360,336,36682,1,0
232,336,36880,1,0
160,224,37077,1,0
96,336,37274,2,0,B|196:336,1,100
168,80,37866,5,0
432,80,38261,1,0
296,304,38656,1,0
296,40,39051,1,8
296,168,39248,1,8
32,168,39643,1,8
160,168,39840,1,8
96,280,40038,1,0
96,280,40235,2,2,B|88:240|136:240|72:208|104:80,1,200
360,32,41024,5,0
360,32,41123,1,0
360,32,41222,1,0
232,32,41419,1,0
168,144,41616,1,0
296,144,41814,1,0
88,304,42209,2,0,B|192:304,1,100
256,192,42603,12,0,43393
456,296,43788,6,2,B|456:192,1,100
80,288,44577,1,2
80,240,44676,1,0
80,192,44774,1,2
464,192,45366,1,2
464,64,45564,1,8
200,64,45959,1,8
464,64,46353,1,8
336,288,46748,1,8
472,40,47340,5,0
472,40,47439,1,0
472,40,47538,1,0
472,168,47735,1,0
344,168,47932,1,0
216,168,48130,1,0
32,168,48524,6,0,B|56:240|96:264|152:288|192:280,1,200
304,216,49116,1,0
432,216,49314,1,0
304,216,49511,1,0
304,88,49709,1,0
432,88,49906,1,0
432,216,50103,1,0
304,216,50301,2,2,B|304:320,1,100
40,312,50893,1,8
40,184,51090,1,8
296,184,51485,1,4
40,184,51880,1,4
256,72,53656,5,0
256,264,53952,1,0
72,192,54248,1,0
72,192,54347,1,0
72,192,54445,1,0
328,192,54840,1,8
456,192,55038,1,0
456,192,55136,1,0
456,192,55235,1,0
328,192,55432,1,0
328,192,55531,1,0
136,192,55827,1,0
264,192,56024,1,0
472,344,56419,1,8
472,80,56814,5,0
344,80,57011,1,8
344,80,57110,1,8
216,80,57307,1,8
216,80,57406,1,8
216,208,57603,1,0
344,208,57801,1,8
344,208,57899,1,8
152,208,58195,1,0
152,80,58393,6,0,B|104:96|32:152|96:208|184:216,1,200
152,208,58985,1,8
280,208,59182,1,8
56,56,59774,1,4
256,192,59972,12,4,61156
256,24,61551,5,0
152,192,61847,1,0
344,192,62143,1,0
344,192,62241,1,0
344,192,62340,1,0
256,24,62636,1,0
256,216,62932,1,0
64,192,63130,5,0
112,192,63228,1,0
160,192,63327,1,0
208,192,63426,1,0
256,192,63524,1,0
304,192,63623,1,0
352,192,63722,1,0
400,192,63820,1,0
448,192,63919,1,0
400,192,64018,1,0
352,192,64116,1,0
304,192,64215,1,0
256,192,64314,1,0
208,192,64413,1,0
160,192,64511,1,0
112,192,64610,1,0
64,192,64709,5,4
176,352,65005,1,4
368,352,65301,1,4
368,304,65399,1,0
368,256,65498,1,4
368,64,65794,1,4
496,208,66090,1,4
368,208,66288,5,0
112,208,66682,1,0
368,208,67077,1,0
368,16,67373,1,0
176,16,67669,1,8
176,64,67768,1,8
176,112,67866,1,8
176,304,68163,1,8
176,112,68459,1,8
472,320,69248,6,8,B|368:320,1,100
112,320,69840,1,8
296,136,70235,1,8
440,264,70630,2,8,B|400:304|392:312|360:312|312:288,1,100
256,40,71814,5,8
208,40,71913,1,0
160,40,72011,1,0
160,168,72209,1,8
160,296,72406,1,0
288,296,72603,1,12
416,296,72801,1,0
416,296,72899,1,0
424,104,73195,1,0
376,104,73294,1,0
328,104,73393,1,12
200,104,73590,1,0
200,104,73689,1,0
200,296,73985,1,0
200,248,74084,1,0
200,200,74182,1,8
328,200,74380,1,0
328,200,74478,1,0
136,200,74774,1,4
136,200,74972,1,8
232,80,75564,5,8
232,80,75663,1,8
232,80,75761,1,8
360,80,75959,1,8
360,208,76156,1,8
232,208,76353,1,8
360,208,76551,1,8
360,80,76748,1,8
256,192,76945,12,0,78130
400,248,78327,5,0
400,120,78524,1,0
272,120,78722,1,0
144,120,78919,1,0
272,344,79314,1,0
400,120,79709,1,0
400,312,80005,1,0
208,312,80301,1,0
208,312,80399,1,0
208,312,80498,1,0
208,120,80794,1,0
208,312,81090,1,0
472,56,81880,5,0
344,56,82077,1,0
80,56,82472,1,0
344,56,82867,1,0
344,312,83261,1,0
344,184,83459,1,0
216,184,83656,1,0
216,56,83853,1,0
80,56,84051,1,0
80,184,84248,1,0
80,312,84445,5,8
184,232,84643,1,8
312,232,84840,1,8
424,168,85038,1,8
368,56,85235,5,0
320,56,85334,1,0
272,56,85432,1,0
224,56,85531,1,0
272,56,85630,5,0
320,56,85728,1,0
368,56,85827,1,0
416,56,85926,1,0
368,56,86024,5,0
320,56,86123,1,0
272,56,86222,1,0
224,56,86320,1,0
176,56,86419,1,8
216,336,86814,5,0
168,336,86913,1,0
120,336,87011,1,0
72,336,87110,1,0
120,336,87209,5,0
168,336,87307,1,0
216,336,87406,1,0
264,336,87505,1,0
216,336,87603,5,0
168,336,87702,1,0
120,336,87801,1,0
72,336,87899,1,0
24,336,87998,1,8
256,128,88393,5,0
256,80,88492,1,0
296,56,88590,1,0
344,72,88689,1,0
360,120,88788,1,0
352,168,88886,1,0
328,208,88985,1,0
280,224,89084,1,0
232,216,89182,1,0
184,200,89281,1,0
136,216,89380,1,0
104,256,89478,1,0
104,304,89577,1,0
136,336,89676,1,0
184,344,89774,1,0
232,328,89873,1,0
256,288,89972,5,4
448,288,90268,1,4
360,112,90564,1,4
360,240,90761,1,4
168,240,91057,1,4
264,72,91353,1,4
256,192,91551,12,0,95103
