osu file format v6

[General]
AudioFilename: switch.mp3
AudioLeadIn: 1522
PreviewTime: 63322
Countdown: 1
SampleSet: Normal
StackLeniency: 0.7
Mode: 0
LetterboxInBreaks: 1
SkinPreference:Default

[Editor]
DistanceSpacing: 0.800000011920929
BeatDivisor: 4
GridSize: 8

[Metadata]
Title:switch
Artist:DAISUKE ASAKURA ex.TERRA
Creator:ouranhshc
Version:Easy
Source:DDR Bemani konami
Tags:Shulin Xgor DDR Dance Dance Revolution DanceDanceRevolution Supernova2 DDR project

[Difficulty]
HPDrainRate:2
CircleSize:3
OverallDifficulty:2
SliderMultiplier:1
SliderTickRate:1

[Events]
//Background and Video events
0,0,"switch-bg.png"
//Break Periods
2,24645,26833
2,58593,63149
//Storyboard Layer 0 (Background)
//Storyboard Layer 1 (Fail)
//Storyboard Layer 2 (Pass)
//Storyboard Layer 3 (Foreground)
//Storyboard Sound Samples
//Background Colour Transformations
3,100,163,162,255

[TimingPoints]
367,394.736842105263,4,1,0,100,1,0
24243,-100,4,2,0,0,0,0
28289,-100,4,1,0,100,0,0
64605,-100,4,1,0,100,0,0
66184,-100,4,1,0,100,0,1
85723,-100,4,1,0,0,0,1
87796,-100,4,1,0,100,0,0
91842,-100,4,1,0,100,0,1
92039,-100,4,1,0,100,0,1
92335,-100,4,1,0,77,0,1
92730,-100,4,1,0,47,0,1
93125,-100,4,1,0,0,0,1

[HitObjects]
256,192,1551,1,4
416,192,2340,1,4
256,192,3130,1,0
96,192,3919,1,4
184,328,4709,2,0,B|336:328,1,150,0|8
336,168,6090,5,0
336,168,6288,1,0
176,168,7077,1,0
256,32,7867,1,0
96,32,8656,5,8
96,112,9051,1,8
96,192,9445,1,4
256,192,10235,1,0
416,192,11024,1,4
416,352,11814,1,0
296,352,12406,5,0
296,352,12603,1,0
296,272,12998,2,8,B|296:168,1,100
296,88,13788,1,8
64,304,15366,5,8
64,224,15761,1,8
224,224,16551,1,0
384,224,17340,1,8
384,64,18130,1,0
272,184,18919,6,0,L|216:184|168:184|168:104|168:48,1,200,0|8
328,88,20498,2,0,L|344:88|424:88|424:136|424:192,1,200,0|8
256,192,22077,12,0,24445
256,192,28393,5,0
256,112,28788,1,0
336,112,29182,1,8
336,192,29577,1,8
336,272,29972,1,8
256,272,30367,2,8,B|48:272,1,200
56,272,31551,6,0,B|56:64,1,200
136,72,32735,1,0
216,72,33130,1,0
296,72,33524,1,8
296,72,33722,1,8
296,272,34709,5,0
296,192,35103,1,0
216,192,35498,1,0
216,112,35893,2,0,B|112:112,1,100
112,32,36682,2,0,B|8:32,1,100
16,112,37472,1,8
16,192,37866,5,0
96,192,38261,1,0
176,192,38656,1,0
256,192,39051,2,8,L|360:192|360:96,1,200
256,312,41024,5,0
176,312,41419,1,0
176,232,41814,1,0
176,152,42209,2,8,B|232:152,1,50
480,40,43788,6,2,B|256:248,1,300
104,288,45761,6,2,B|288:112,1,250
400,80,47340,6,0,B|504:80,1,100
504,160,48130,1,0
504,240,48524,1,0
424,240,48919,1,0
424,160,49314,1,8
424,160,49511,1,8
344,160,49906,1,8
224,160,50498,5,8
144,160,50893,1,8
144,240,51288,1,8
224,240,51682,1,8
304,240,52077,1,8
480,32,53656,6,8,B|480:240,1,200
320,232,55235,2,8,B|112:232,1,200
256,320,56814,6,0,B|256:256|272:216|352:208,1,150,0|8
376,208,57603,2,0,B|376:144|360:104|280:96,1,150,0|8
256,96,58393,1,0
48,192,64709,5,4
168,192,65301,1,4
168,192,65498,1,4
288,192,66090,1,4
288,192,66288,6,0,B|288:88,1,100
208,88,67077,2,0,B|104:88,1,100
24,88,67866,1,0
24,168,68261,1,0
24,248,68656,1,0
144,248,69248,5,0
144,248,69445,1,0
224,248,69840,1,0
304,248,70235,1,0
384,248,70630,2,0,B|488:248,1,100
344,328,71814,6,8,B|344:224,1,100
344,144,72603,1,4
184,144,73393,1,4
184,264,73985,1,4
184,264,74182,1,4
344,264,74972,1,4
464,264,75564,6,0,B|464:208,7,50,0|8|0|8|0|8|0|8
184,216,78327,6,8,B|184:64,1,150
264,64,79314,2,0,B|264:168,1,100
264,248,80103,2,0,B|160:248,1,100
80,248,80893,1,0
80,168,81288,1,0
240,168,82077,5,0
240,248,82472,1,0
240,328,82867,1,0
320,328,83261,2,0,B|424:328,1,100
420,167,84445,6,8,B|420:111,6,50
256,192,85827,12,0,87603
256,192,88393,5,0
336,192,88788,1,0
336,112,89182,1,0
256,112,89577,1,0
176,112,89972,5,4
176,232,90564,1,4
176,232,90761,1,4
296,232,91353,1,4
296,232,91551,1,4
256,192,91945,12,0,95103
