osu file format v14

[General]
AudioFilename: audio.mp3
AudioLeadIn: 0
PreviewTime: 56030
Countdown: 0
SampleSet: Soft
StackLeniency: 0.3
Mode: 0
LetterboxInBreaks: 0
WidescreenStoryboard: 0

[Editor]
Bookmarks: 905,6905,18905,30905,42905,54905,56405,68405,80405,86405,92405
DistanceSpacing: 1
BeatDivisor: 4
GridSize: 4
TimelineZoom: 3.499999

[Metadata]
Title:Moshimo (TV Size)
TitleUnicode:Moshimo (TV Size)
Artist:DAISUKE
ArtistUnicode:ダイスケ
Creator:Lian2002
Version:Silent's Insane
Source:NARUTO-ナルト-疾風伝
Tags:Anime Japanese NARUTO Shippuden Opening 12 William_k [Kurose_Riku] Silent_Rock Jval93700
BeatmapID:2252226
BeatmapSetID:891891

[Difficulty]
HPDrainRate:5
CircleSize:4.3
OverallDifficulty:7.8
ApproachRate:8.8
SliderMultiplier:1.5
SliderTickRate:1

[Events]
//Background and Video events
0,0,"if.jpg",0,0
//Break Periods
//Storyboard Layer 0 (Background)
//Storyboard Layer 1 (Fail)
//Storyboard Layer 2 (Pass)
//Storyboard Layer 3 (Foreground)
//Storyboard Sound Samples

[TimingPoints]
905,375,4,2,21,30,1,0
905,-125,4,2,21,30,0,0
1280,-125,4,2,21,30,0,0
1467,-125,4,2,25,30,0,0
1842,-125,4,2,22,30,0,0
2030,-125,4,2,23,30,0,0
2217,-125,4,2,21,30,0,0
2405,-125,4,2,23,30,0,0
2967,-125,4,2,24,30,0,0
3342,-125,4,2,27,30,0,0
3530,-125,4,2,26,30,0,0
3717,-125,4,2,25,30,0,0
3905,-125,4,2,28,30,0,0
4842,-125,4,2,29,30,0,0
5030,-125,4,2,26,30,0,0
5217,-125,4,2,30,30,0,0
5405,-125,4,2,23,30,0,0
5592,-125,4,2,31,30,0,0
5780,-125,4,2,21,30,0,0
5967,-125,4,2,25,30,0,0
6342,-125,4,2,1,50,0,0
6530,-83.3333333333333,4,2,1,50,0,0
17592,-83.3333333333333,4,2,1,50,0,0
17967,-83.3333333333333,4,2,1,50,0,0
18342,-83.3333333333333,4,2,1,50,0,0
18530,-83.3333333333333,4,2,1,50,0,0
18905,-100,4,2,1,40,0,0
25186,-100,4,2,1,5,0,0
25280,-100,4,2,1,40,0,0
27811,-100,4,2,1,5,0,0
27905,-100,4,2,1,40,0,0
30905,-100,4,2,1,45,0,0
37186,-100,4,2,1,5,0,0
37280,-100,4,2,1,45,0,0
39436,-100,4,2,1,5,0,0
39530,-100,4,2,1,45,0,0
42905,-111.111111111111,4,2,1,40,0,0
48905,-90.9090909090909,4,2,1,50,0,0
52092,-117.647058823529,4,2,1,30,0,0
52280,-111.111111111111,4,2,1,40,0,0
52467,-105.263157894737,4,2,1,50,0,0
52655,-100,4,2,1,55,0,0
52842,-95.2380952380952,4,2,1,55,0,0
53030,-90.9090909090909,4,2,1,55,0,0
54905,-76.9230769230769,4,2,1,55,0,0
55092,-83.3333333333333,4,2,1,55,0,0
55467,-90.9090909090909,4,2,1,55,0,0
55842,-100,4,2,1,55,0,0
56030,-66.6666666666667,4,2,1,55,0,0
56405,-90.9090909090909,4,2,1,60,0,1
68030,-90.9090909090909,4,2,1,60,0,0
68405,-90.9090909090909,4,2,1,60,0,1
74405,-125,4,2,1,50,0,0
80405,-90.9090909090909,4,2,1,60,0,1
84905,-90.9090909090909,4,2,1,60,0,1
86405,-90.9090909090909,4,2,1,50,0,0
92405,-200,4,2,1,50,0,0
93717,-125,4,2,1,50,0,0
94467,-133.333333333333,4,2,1,5,0,0

[Colours]
Combo1 : 209,165,165
Combo2 : 128,255,128
Combo3 : 255,255,147
Combo4 : 145,200,255
Combo5 : 255,128,192
Combo6 : 255,119,119

[HitObjects]
315,227,905,6,0,L|256:234,1,60,2|0,0:2|0:0,0:0:0:0:
153,304,1280,2,0,L|213:298,1,60,2|2,0:0|0:2,0:0:0:0:
212,298,1842,1,2,0:0:0:0:
213,298,2030,2,0,L|153:304,1,60,2|2,0:0|0:2,0:0:0:0:
256,234,2405,6,0,P|289:282|278:339,1,120,2|0,0:2|0:2,0:0:0:0:
180,229,2967,2,0,P|205:176|259:157,1,120,2|2,0:2|0:2,0:0:0:0:
326,198,3530,1,2,0:0:0:0:
256,234,3717,1,2,0:2:0:0:
391,239,3905,6,0,P|401:181|368:133,1,120,2|0,0:2|0:2,0:0:0:0:
322,276,4467,2,0,P|366:313|425:309,1,120,2|2,0:0|0:0,0:0:0:0:
468,244,5030,1,2,0:2:0:0:
391,239,5217,1,2,0:0:0:0:
501,314,5405,5,2,0:2:0:0:
468,244,5592,1,2,0:2:0:0:
512,180,5780,1,2,0:2:0:0:
478,109,5967,1,2,0:2:0:0:
478,109,6342,1,0,3:0:0:0:
391,238,6530,2,0,P|400:281|431:312,1,89.9999972534181,8|0,0:2|3:2,0:0:0:0:
434,173,6905,5,14,0:2:0:0:
356,168,7092,2,0,P|323:197|311:240,1,89.9999972534181,0|0,3:2|3:2,0:0:0:0:
434,173,7467,1,10,0:2:0:0:
399,102,7654,2,0,P|356:88|313:100,1,89.9999972534181,0|0,3:2|3:2,0:0:0:0:
434,173,8030,1,10,0:2:0:0:
452,160,8123,1,8,2:3:0:0:
466,143,8217,1,8,0:3:0:0:
475,122,8311,1,8,3:3:0:0:
478,100,8405,6,0,L|466:5,2,89.9999972534181,14|0|0,0:2|3:2|3:2,0:0:0:0:
356,168,8967,2,0,L|344:263,2,89.9999972534181,10|0|0,0:2|3:2|3:2,0:0:0:0:
234,100,9530,2,0,L|222:5,1,89.9999972534181,10|0,0:2|3:2,0:0:0:0:
112,168,9905,6,0,L|100:263,1,89.9999972534181,14|0,0:2|3:0,0:0:0:0:
117,335,10280,1,0,3:2:0:0:
187,193,10467,2,0,L|175:288,1,89.9999972534181,10|0,0:2|3:2,0:0:0:0:
192,360,10842,1,0,3:2:0:0:
262,218,11030,1,10,0:2:0:0:
259,240,11123,1,8,0:3:0:0:
256,262,11217,1,8,0:3:0:0:
253,284,11311,1,8,2:3:0:0:
251,307,11405,6,0,P|283:332|343:342,2,89.9999972534181,14|0|0,0:2|3:2|3:2,0:0:0:0:
121,306,11967,2,0,P|83:321|44:368,2,89.9999972534181,10|0|0,0:2|3:0|3:2,0:0:0:0:
187,193,12530,2,0,P|192:152|171:95,1,89.9999972534181,10|0,0:2|3:2,0:0:0:0:
202,270,12905,5,14,0:2:0:0:
262,218,13092,1,0,3:2:0:0:
277,295,13280,1,0,3:2:0:0:
187,193,13467,1,10,0:2:0:0:
247,141,13654,1,0,3:2:0:0:
262,218,13842,1,0,3:2:0:0:
172,115,14030,1,10,0:2:0:0:
181,95,14123,1,8,2:3:0:0:
196,78,14217,1,8,2:3:0:0:
215,67,14311,1,8,2:3:0:0:
237,61,14405,6,0,L|330:66,1,89.9999972534181,14|0,0:2|3:2,0:0:0:0:
401,97,14780,1,0,3:2:0:0:
247,141,14967,2,0,L|340:146,1,89.9999972534181,10|0,0:2|3:2,0:0:0:0:
411,177,15342,1,0,3:2:0:0:
257,221,15530,2,0,L|350:226,1,89.9999972534181,10|0,0:2|3:2,0:0:0:0:
237,61,15905,6,0,L|144:56,2,89.9999972534181,14|0|0,0:2|3:2|3:2,0:0:0:0:
336,145,16467,2,0,L|425:140,2,89.9999972534181,10|0|0,0:2|3:2|3:2,0:0:0:0:
237,229,17030,1,10,0:2:0:0:
214,227,17123,1,8,2:3:0:0:
192,226,17217,1,8,2:3:0:0:
169,225,17311,1,8,2:3:0:0:
147,224,17405,1,14,0:2:0:0:
326,233,17592,5,2,3:2:0:0:
58,220,17967,5,2,3:2:0:0:
326,233,18342,5,2,3:2:0:0:
147,224,18530,2,0,L|240:229,1,89.9999972534181,14|0,0:2|0:2,0:0:0:0:
58,220,18905,5,6,0:0:0:0:
58,220,19280,2,0,P|63:256|85:286,1,75,10|2,0:0|0:2,0:0:0:0:
147,224,19655,2,0,P|142:187|120:157,1,75,2|2,3:2|3:2,0:0:0:0:
169,309,20030,1,10,0:2:0:0:
232,246,20217,1,2,0:2:0:0:
317,270,20405,6,0,P|354:274|390:267,1,75,2|2,3:2|0:2,0:0:0:0:
478,180,20780,2,0,P|441:185|405:178,1,75,10|2,0:2|0:2,0:0:0:0:
330,127,21155,1,2,3:2:0:0:
410,88,21342,1,2,3:2:0:0:
325,217,21530,1,10,0:2:0:0:
250,166,21717,1,2,0:2:0:0:
404,177,21905,6,0,P|407:250|354:301,1,150,2|10,3:2|0:2,0:0:0:0:
266,286,22467,1,2,0:2:0:0:
207,355,22655,2,0,P|169:359|133:352,1,75,0|0,3:0|3:2,0:0:0:0:
46,265,23030,2,0,P|83:269|119:262,1,75,10|2,0:2|0:2,0:0:0:0:
194,211,23405,5,2,3:0:0:0:
194,211,23592,1,2,3:2:0:0:
113,171,23780,2,0,P|100:137|100:100,1,75,10|2,0:2|0:2,0:0:0:0:
194,211,24155,1,2,3:2:0:0:
194,211,24342,1,2,3:2:0:0:
187,122,24530,2,0,P|209:92|242:74,1,75,8|0,0:2|2:2,0:0:0:0:
193,211,24905,6,0,P|140:197|104:155,1,112.5,6|0,3:2|0:0,0:0:0:0:
100,100,25280,1,10,0:2:0:0:
187,122,25467,1,2,0:2:0:0:
163,36,25655,1,2,3:2:0:0:
76,14,25842,1,2,3:2:0:0:
187,122,26030,2,0,L|276:115,1,75,10|2,0:2|0:2,0:0:0:0:
163,36,26405,5,2,3:2:0:0:
100,100,26592,1,2,0:2:0:0:
210,208,26779,1,10,2:2:0:0:
123,186,26967,1,2,0:2:0:0:
273,144,27155,1,2,3:2:0:0:
296,230,27342,1,2,3:2:0:0:
187,122,27530,2,0,P|216:75|267:54,1,112.5,10|0,0:2|0:0,0:0:0:0:
319,64,27905,6,0,P|386:94|455:70,1,150,2|10,3:2|0:2,0:0:0:0:
512,140,28467,2,0,L|504:220,1,75,2|0,0:2|3:2,0:0:0:0:
425,258,28842,2,0,L|417:183,1,75,2|8,3:2|0:2,0:0:0:0:
403,94,29217,1,2,0:2:0:0:
333,152,29405,6,0,P|296:161|259:158,1,75,0|0,3:2|3:0,0:0:0:0:
403,94,29780,1,10,0:2:0:0:
419,184,29967,2,0,P|409:220|388:250,1,75,2|0,0:2|3:2,0:0:0:0:
316,305,30342,2,0,P|333:323|354:335,1,50,0|8,3:2|0:0,0:0:0:0:
398,342,30530,1,8,0:2:0:0:
406,339,30623,1,8,0:2:0:0:
414,336,30717,1,8,0:3:0:0:
246,263,30905,6,0,P|174:246|104:272,1,150,4|10,3:2|0:2,0:0:0:0:
40,335,31467,1,2,0:2:0:0:
18,247,31655,2,0,L|24:172,1,75,2|2,3:2|3:2,0:0:0:0:
108,95,32030,2,0,L|115:170,1,75,8|2,0:2|0:2,0:0:0:0:
127,259,32405,5,2,3:2:0:0:
197,204,32592,1,2,3:2:0:0:
291,324,32780,1,10,0:2:0:0:
279,237,32967,1,2,0:2:0:0:
209,291,33155,1,2,3:2:0:0:
197,204,33342,1,2,3:2:0:0:
291,324,33530,1,10,0:2:0:0:
361,269,33717,1,2,0:2:0:0:
197,204,33905,5,2,3:2:0:0:
197,203,34092,2,0,P|161:216|135:242,1,75,2|8,3:2|0:0,0:0:0:0:
279,236,34467,2,0,P|276:164|220:118,1,150,2|0,3:2|3:2,0:0:0:0:
209,291,35030,2,0,P|237:315|273:324,1,75,10|2,0:2|0:2,0:0:0:0:
197,203,35405,6,0,P|161:216|135:242,1,75,0|0,3:0|3:2,0:0:0:0:
279,236,35780,1,8,0:2:0:0:
267,149,35967,2,0,P|237:124|202:114,1,75,2|0,0:2|3:2,0:0:0:0:
114,131,36342,1,2,3:2:0:0:
51,0,36530,2,0,L|43:73,1,75,10|0,0:2|0:2,0:0:0:0:
28,195,36905,6,0,P|61:150|113:130,1,112.5,6|0,3:2|0:0,0:0:0:0:
167,128,37280,1,10,0:2:0:0:
244,172,37467,1,2,2:2:0:0:
321,128,37655,2,0,L|313:53,1,75,2|0,3:2|3:2,0:0:0:0:
244,172,38030,2,0,L|251:246,1,75,10|2,0:2|0:2,0:0:0:0:
263,336,38405,5,2,3:2:0:0:
179,302,38592,1,2,3:2:0:0:
335,280,38780,1,10,0:2:0:0:
323,191,38967,1,2,0:2:0:0:
263,336,39155,2,0,P|313:370|366:367,1,112.5,2|0,3:2|0:0,0:0:0:0:
402,346,39530,1,10,0:2:0:0:
335,280,39717,1,2,0:2:0:0:
432,179,39905,6,0,L|424:253,1,75,0|2,3:2|3:2,0:0:0:0:
268,214,40280,2,0,L|275:139,1,75,10|2,0:2|0:2,0:0:0:0:
365,113,40655,1,2,3:2:0:0:
365,113,40842,1,2,3:2:0:0:
432,179,41030,1,10,0:2:0:0:
456,88,41217,1,2,0:2:0:0:
275,139,41405,5,0,3:2:0:0:
456,88,41592,1,8,0:2:0:0:
299,48,41780,1,8,0:2:0:0:
365,113,41967,1,10,0:3:0:0:
209,74,42155,1,8,0:2:0:0:
185,165,42342,1,10,0:3:0:0:
196,190,42435,1,8,0:3:0:0:
214,211,42529,1,8,0:3:0:0:
238,226,42623,1,0,3:2:0:0:
265,233,42717,2,0,L|317:231,1,37.5,0|0,3:2|3:2,0:0:0:0:
407,174,42905,6,0,P|362:222|362:288,1,134.999995880127,6|2,0:2|3:2,0:0:0:0:
438,384,43467,2,0,P|419:320|362:287,1,134.999995880127,8|0,0:2|3:2,0:0:0:0:
241,305,44030,1,10,0:2:0:0:
293,243,44217,1,8,0:2:0:0:
293,243,44311,1,8,0:2:0:0:
293,243,44405,5,6,3:2:0:0:
268,381,44592,1,0,3:2:0:0:
160,290,44780,2,0,P|161:260|167:219,1,67.4999979400635,10|0,0:2|3:2,0:0:0:0:
175,175,45061,1,8,0:2:0:0:
175,175,45155,2,0,L|134:176,1,33.7499989700318,10|8,0:2|0:2,0:0:0:0:
100,176,45342,1,8,0:3:0:0:
245,127,45530,1,10,0:2:0:0:
261,128,45623,1,8,0:3:0:0:
278,129,45717,1,10,2:3:0:0:
295,130,45811,1,0,3:2:0:0:
312,131,45905,6,0,L|380:135,1,67.4999979400635,6|0,3:2|0:2,0:0:0:0:
204,31,46280,2,0,L|136:27,1,67.4999979400635,2|8,3:2|0:2,0:0:0:0:
283,5,46655,2,0,L|351:9,1,67.4999979400635,2|0,0:2|3:2,0:0:0:0:
233,157,47030,2,0,L|165:153,1,67.4999979400635,10|0,0:2|0:2,0:0:0:0:
70,101,47405,6,0,P|115:148|115:214,1,134.999995880127,10|10,2:3|0:2,0:0:0:0:
40,311,47967,2,0,P|58:247|115:214,1,134.999995880127,8|10,2:3|2:3,0:0:0:0:
236,231,48530,1,10,0:2:0:0:
233,243,48623,1,8,0:2:0:0:
230,255,48717,1,10,0:3:0:0:
182,170,48905,6,0,P|208:155|263:153,1,82.5000025177003,6|2,3:2|0:2,0:0:0:0:
290,289,49280,2,0,P|264:273|234:227,1,82.5000025177003,10|2,0:2|0:2,0:0:0:0:
340,136,49655,1,2,3:2:0:0:
316,212,49842,1,0,3:2:0:0:
283,76,50030,1,10,0:2:0:0:
360,58,50217,6,0,P|416:113|399:190,1,165.000005035401,2|2,3:2|3:2,0:0:0:0:
259,152,50780,1,10,0:2:0:0:
340,136,50967,1,2,3:2:0:0:
340,136,51061,1,8,0:2:0:0:
340,136,51155,1,0,3:2:0:0:
234,231,51342,2,0,P|193:229|153:220,1,82.5000025177003,2|10,3:2|0:2,0:0:0:0:
47,140,51717,6,0,P|127:130|203:90,1,165.000005035401,2|2,0:2|3:2,0:0:0:0:
272,22,52280,1,10,0:3:0:0:
299,116,52467,1,10,0:3:0:0:
201,91,52655,1,8,0:2:0:0:
370,47,52842,1,10,0:2:0:0:
326,210,53030,1,10,0:2:0:0:
272,22,53217,1,10,0:2:0:0:
272,22,53311,1,10,0:0:0:0:
272,22,53405,5,14,0:2:0:0:
370,47,53592,2,0,L|456:39,1,82.5000025177003,2|0,3:2|3:2,0:0:0:0:
299,116,53967,1,14,0:2:0:0:
397,141,54154,2,0,L|483:133,1,82.5000025177003,0|2,3:2|3:2,0:0:0:0:
326,210,54530,1,12,0:2:0:0:
424,235,54717,1,0,3:2:0:0:
465,231,54810,1,0,3:0:0:0:
506,227,54904,1,12,0:2:0:0:
326,210,55092,5,2,3:2:0:0:
284,213,55467,5,2,3:2:0:0:
243,217,55842,5,2,3:2:0:0:
424,235,56030,1,12,2:1:0:0:
61,199,56405,6,0,P|92:122|101:41,1,165.000005035401,6|8,3:2|0:2,0:0:0:0:
16,3,56967,1,2,3:2:0:0:
8,5,57061,1,8,0:2:0:0:
0,7,57155,2,0,P|0:59|8:98,1,82.5000025177003,2|0,3:2|3:2,0:0:0:0:
61,199,57530,1,8,0:2:0:0:
143,145,57717,1,2,0:2:0:0:
204,337,57905,6,0,P|204:285|196:246,1,82.5000025177003,6|0,3:2|3:2,0:0:0:0:
143,145,58280,1,10,0:2:0:0:
61,199,58467,1,2,3:2:0:0:
61,199,58561,1,8,0:2:0:0:
61,199,58655,1,2,3:2:0:0:
55,100,58843,1,0,3:2:0:0:
149,244,59030,1,8,0:2:0:0:
231,190,59217,1,2,0:2:0:0:
231,190,59405,6,0,L|320:198,1,82.5000025177003,6|0,3:2|3:2,0:0:0:0:
470,293,59780,2,0,L|381:285,1,82.5000025177003,10|0,0:2|0:2,0:0:0:0:
299,361,60155,2,0,L|307:272,1,82.5000025177003,2|0,3:2|3:2,0:0:0:0:
402,122,60530,2,0,L|394:211,1,82.5000025177003,10|0,0:2|0:2,0:0:0:0:
203,39,60905,6,0,L|211:128,1,82.5000025177003,6|0,3:2|3:2,0:0:0:0:
306,278,61280,1,10,0:2:0:0:
298,194,61467,1,2,0:2:0:0:
135,210,61655,2,0,L|224:202,1,82.5000025177003,2|0,3:2|3:2,0:0:0:0:
374,107,62030,2,0,L|285:115,1,82.5000025177003,8|0,0:2|2:2,0:0:0:0:
203,39,62405,6,0,P|248:108|244:189,1,165.000005035401,6|8,3:2|0:2,0:0:0:0:
132,219,62967,1,2,3:2:0:0:
126,221,63061,1,8,0:2:0:0:
120,223,63155,2,0,P|127:183|141:144,1,82.5000025177003,2|0,3:2|3:2,0:0:0:0:
203,39,63530,1,8,0:2:0:0:
105,52,63717,1,2,0:2:0:0:
240,131,63905,6,0,L|324:121,1,82.5000025177003,6|0,3:2|3:2,0:0:0:0:
142,144,64280,1,8,0:2:0:0:
203,39,64467,1,2,3:2:0:0:
203,39,64561,1,8,0:2:0:0:
203,39,64655,2,0,L|287:29,1,82.5000025177003,2|0,3:2|3:2,0:0:0:0:
442,3,65030,2,0,P|404:51|396:112,1,123.75000377655,8|0,0:2|0:0,0:0:0:0:
411,162,65405,6,0,L|327:152,1,82.5000025177003,6|0,3:2|3:2,0:0:0:0:
193,129,65780,1,10,0:2:0:0:
249,209,65967,1,10,0:2:0:0:
276,178,66060,1,8,0:0:0:0:
289,139,66154,1,8,0:2:0:0:
285,98,66248,1,8,0:2:0:0:
264,63,66342,2,0,L|209:56,1,41.2500012588501,10|8,0:2|0:2,0:0:0:0:
152,134,66530,2,0,L|207:127,1,41.2500012588501,8|0,0:2|3:0,0:0:0:0:
79,57,66717,6,0,P|49:109|52:170,1,123.75000377655,6|0,3:2|0:0,0:0:0:0:
92,236,67092,1,10,0:3:0:0:
276,178,67280,1,10,0:3:0:0:
213,299,67467,1,10,0:3:0:0:
155,115,67655,1,10,0:2:0:0:
184,110,67748,1,8,0:2:0:0:
213,105,67842,2,0,L|261:98,1,41.2500012588501,8|8,0:3|0:3,0:0:0:0:
92,236,68030,1,8,2:1:0:0:
213,299,68217,1,10,0:3:0:0:
213,299,68405,6,0,P|281:270|381:286,1,165.000005035401,6|8,3:2|0:2,0:0:0:0:
420,374,68967,1,2,3:2:0:0:
420,374,69061,1,8,0:2:0:0:
420,374,69155,2,0,P|375:372|336:360,1,82.5000025177003,2|0,3:2|3:2,0:0:0:0:
213,298,69530,1,8,0:2:0:0:
254,208,69717,1,2,0:2:0:0:
270,378,69905,5,6,3:2:0:0:
213,298,70092,1,2,3:2:0:0:
351,198,70280,1,10,0:2:0:0:
254,208,70467,1,2,0:2:0:0:
408,276,70655,2,0,P|435:246|447:207,1,82.5000025177003,2|0,3:2|3:2,0:0:0:0:
311,287,71030,1,8,0:2:0:0:
368,366,71217,1,2,0:2:0:0:
351,198,71405,6,0,L|344:115,1,82.5000025177003,6|0,3:2|3:2,0:0:0:0:
150,135,71780,2,0,L|157:218,1,82.5000025177003,10|0,0:2|0:2,0:0:0:0:
254,208,72155,2,0,L|247:125,1,82.5000025177003,2|0,3:2|3:2,0:0:0:0:
51,143,72530,2,0,L|58:226,1,82.5000025177003,8|0,0:2|3:2,0:0:0:0:
150,135,72905,5,14,0:2:0:0:
137,96,72998,1,8,0:3:0:0:
109,65,73092,1,8,0:3:0:0:
72,49,73186,1,0,3:2:0:0:
31,49,73280,2,0,P|34:71|45:91,1,41.2500012588501,0|0,3:2|3:2,0:0:0:0:
110,224,73467,5,10,0:2:0:0:
150,232,73560,1,8,0:3:0:0:
190,223,73654,1,2,3:2:0:0:
222,199,73748,1,0,3:2:0:0:
243,163,73842,2,0,P|222:154|199:154,1,41.2500012588501,0|0,3:2|3:2,0:0:0:0:
51,143,74030,5,8,0:2:0:0:
25,174,74123,1,8,0:3:0:0:
12,213,74217,1,8,0:3:0:0:
17,253,74311,1,0,3:2:0:0:
38,289,74405,6,0,P|93:311|152:321,1,120,6|2,3:2|3:2,3:0:0:0:
292,326,74967,1,10,0:2:0:0:
292,326,75155,2,0,P|283:267|262:211,1,120,2|10,0:2|0:2,0:0:0:0:
198,88,75717,1,10,0:3:0:0:
198,88,75811,1,8,0:3:0:0:
198,88,75905,6,0,P|151:124|113:170,1,120,6|2,0:2|3:2,0:0:0:0:
262,210,76467,1,10,0:2:0:0:
262,210,76655,2,0,P|308:173|346:127,1,120,2|10,0:2|0:2,0:0:0:0:
409,0,77217,1,10,0:2:0:0:
409,0,77311,1,8,0:2:0:0:
409,0,77405,6,0,P|412:29|419:58,1,60,6|0,3:2|0:2,0:0:0:0:
346,126,77780,2,0,P|363:149|384:171,1,60,2|8,3:2|0:2,0:0:0:0:
354,266,78155,2,0,P|381:277|410:286,1,60,2|0,0:2|3:2,0:0:0:0:
286,192,78530,2,0,P|257:200|229:212,1,60,10|0,0:2|3:2,0:0:0:0:
119,288,78905,5,10,0:2:0:0:
119,288,79092,1,2,3:2:0:0:
94,26,79467,2,0,L|102:85,1,60,8|0,0:2|3:2,0:0:0:0:
43,153,79842,1,0,3:2:0:0:
177,155,80030,2,0,L|185:95,1,60,8|2,0:2|3:2,0:0:0:0:
43,153,80405,6,0,P|103:208|118:287,1,165.000005035401,6|8,3:2|0:2,0:0:0:0:
24,356,80967,1,2,3:2:0:0:
17,358,81061,1,8,0:2:0:0:
10,360,81155,2,0,P|8:318|14:278,1,82.5000025177003,2|0,3:2|3:2,0:0:0:0:
43,153,81530,1,8,0:2:0:0:
110,225,81717,1,2,0:2:0:0:
221,125,81905,6,0,L|138:130,1,82.5000025177003,6|0,3:2|0:2,0:0:0:0:
110,225,82280,2,0,L|192:219,1,82.5000025177003,10|0,0:2|0:2,0:0:0:0:
249,29,82655,2,0,L|166:34,1,82.5000025177003,2|0,3:2|0:2,0:0:0:0:
110,225,83030,2,0,L|192:219,1,82.5000025177003,10|0,0:2|3:2,0:0:0:0:
43,153,83404,5,14,0:2:0:0:
81,319,83592,1,0,3:2:0:0:
182,124,83780,5,8,0:2:0:0:
192,293,83968,1,0,3:2:0:0:
330,124,84155,5,8,0:2:0:0:
320,293,84343,1,0,3:2:0:0:
468,153,84530,5,10,0:2:0:0:
431,319,84718,1,10,0:3:0:0:
256,192,84905,5,6,3:2:0:0:
256,192,85280,5,2,0:0:0:0:
256,192,85655,5,2,0:0:0:0:
298,121,85842,1,2,3:2:0:0:
214,263,86030,2,0,P|247:287|286:302,1,82.5000025177003,10|0,0:0|3:0,0:0:0:0:
298,121,86405,6,0,P|264:96|225:81,1,82.5000025177003,14|0,0:0|3:0,0:0:0:0:
256,192,86780,1,0,3:2:0:0:
413,150,86967,2,0,P|395:112|369:81,1,82.5000025177003,10|0,0:2|3:2,0:0:0:0:
339,192,87342,1,0,3:2:0:0:
453,306,87530,1,10,0:0:0:0:
465,289,87623,1,8,0:3:0:0:
476,272,87717,1,8,0:3:0:0:
485,253,87811,1,8,0:3:0:0:
491,232,87905,6,0,P|501:193|504:152,2,82.5000025177003,14|0|0,2:0|3:2|3:2,0:0:0:0:
352,272,88467,2,0,P|341:232|338:191,2,82.5000025177003,10|0|0,0:0|3:0|3:2,0:0:0:0:
199,152,89030,2,0,P|188:191|185:232,1,82.5000025177003,10|0,0:0|3:0,0:0:0:0:
45,271,89405,6,0,P|42:230|32:191,1,82.5000025177003,14|0,0:0|3:0,0:0:0:0:
0,121,89780,1,0,3:2:0:0:
154,157,89967,2,0,P|116:139|76:128,1,82.5000025177003,10|0,0:0|3:0,0:0:0:0:
0,121,90342,1,0,3:2:0:0:
109,5,90530,1,10,0:2:0:0:
91,17,90623,1,8,0:3:0:0:
75,29,90717,1,8,0:3:0:0:
60,43,90811,1,8,0:3:0:0:
45,58,90905,1,14,0:2:0:0:
154,157,91092,5,2,3:2:0:0:
154,157,91467,5,2,3:2:0:0:
154,157,91842,5,2,3:2:0:0:
276,71,92030,2,0,P|259:117|258:159,1,82.5000025177003,14|0,0:2|0:0,0:0:0:0:
156,261,92405,6,0,B|255:197|302:318|406:259,1,262.5,6|8,3:2|0:2,0:0:0:0:
425,246,93811,1,8,0:2:0:0:
440,231,93905,6,0,P|398:263|478:316,1,180,4|0,3:2|0:2,0:0:0:0:
