osu file format v12

[General]
AudioFilename: smile.mp3
AudioLeadIn: 0
PreviewTime: 30913
Countdown: 0
SampleSet: Soft
StackLeniency: 0.7
Mode: 0
LetterboxInBreaks: 1
WidescreenStoryboard: 0

[Editor]
Bookmarks: 1031,45913,46031,91031,136031,181031,226031,271031,316031,332906,377906
DistanceSpacing: 1.5
BeatDivisor: 4
GridSize: 4
TimelineZoom: 1

[Metadata]
Title:Re...Japanesque (KanColle Ver.)
TitleUnicode:Re...Japanesque (KanColle Ver.)
Artist:DAISHI DANCE + Yoshida Brothers
ArtistUnicode:DAISHI DANCE + Yoshida Brothers
Creator:Fumika
Version:Collab
Source:Kantai Collection
Tags:Netsukawa Laurier Mochikun MAD 金剛 kongou 比叡 hiei 榛名 haruna 霧島 kirishima 扶桑 husou 山城 yamashiro 伊勢 ise 日向 hyuuga 龍田 tatsuta 天龍 tenryuu 球磨 kuma 榛名 haruna 多摩 tama 北上 kitagami 木曽 kiso 大井 ooi 陸奥 mutsu 長良 nagara 名取 natori 鬼怒 kinu
BeatmapID:413928
BeatmapSetID:171079

[Difficulty]
HPDrainRate:7
CircleSize:4
OverallDifficulty:7
ApproachRate:8
SliderMultiplier:1.76
SliderTickRate:1

[Events]
//Background and Video events
0,0,"KanColle.jpg",0,0
//Break Periods
2,91231,180281
2,226231,332156
2,336621,377156
//Storyboard Layer 0 (Background)
//Storyboard Layer 1 (Fail)
//Storyboard Layer 2 (Pass)
//Storyboard Layer 3 (Foreground)
//Storyboard Sound Samples
//Background Colour Transformations
3,100,163,162,255

[TimingPoints]
563,468.75,4,2,1,80,1,0
1031,468.75,4,2,1,80,1,0
31031,-100,4,2,1,80,0,1
31148,-100,4,2,1,80,0,0
46031,-100,4,2,1,80,0,1
46148,-100,4,2,1,80,0,0
61031,-100,4,2,1,80,0,1
75913,-100,4,2,1,80,0,0
76031,-100,4,2,1,80,0,1
91031,-100,4,2,1,80,0,0
106031,-100,4,2,1,80,0,1
106148,-100,4,2,1,80,0,0
121031,-100,4,2,1,80,0,1
121148,-100,4,2,1,80,0,0
136031,-100,4,2,1,80,0,1
136148,-100,4,2,1,80,0,0
151031,-100,4,2,1,80,0,1
151148,-100,4,2,1,80,0,0
166031,-100,4,2,1,80,0,1
166148,-100,4,2,1,80,0,0
181031,-100,4,2,1,80,0,1
181148,-100,4,2,1,80,0,0
196031,-100,4,2,1,80,0,1
196148,-100,4,2,1,80,0,0
211031,-100,4,2,1,80,0,1
211148,-100,4,2,1,80,0,0
224156,-133.333333333333,4,2,1,80,0,0
225093,-100,4,2,1,80,0,0
226031,-100,4,2,1,80,0,1
240913,-100,4,2,1,80,0,0
241031,-100,4,2,1,80,0,1
255093,-100,4,2,1,80,0,0
256031,-100,4,2,2,80,0,1
256148,-100,4,2,1,80,0,0
271031,-100,4,2,1,80,0,1
285913,-100,4,2,1,80,0,0
286031,-100,4,2,2,80,0,1
286148,-100,4,2,1,80,0,0
332906,-133.333333333333,4,2,1,80,0,0
347906,-100,4,2,1,80,0,1
348023,-100,4,2,1,80,0,0
362906,-100,4,2,1,80,0,1
363023,-100,4,2,1,80,0,0
377906,-100,4,2,1,80,0,1
392788,-100,4,2,1,80,0,0
392906,-100,4,2,1,80,0,1
407788,-100,4,2,1,80,0,0
407906,-100,4,2,1,80,0,1
422906,-100,4,2,1,80,0,0

[Colours]
Combo1 : 0,128,128
Combo2 : 255,255,128
Combo3 : 255,128,192
Combo4 : 0,128,192
Combo5 : 255,66,66
Combo6 : 188,122,122
Combo7 : 128,128,255
Combo8 : 255,0,255

[HitObjects]
257,194,46031,6,0,L|228:233,1,44
183,160,46265,1,0,0:0:0:0:
340,120,46499,2,0,L|340:209,1,88
183,160,46968,1,0,0:0:0:0:
255,307,47202,1,0,0:0:0:0:
257,194,47437,1,0,0:0:0:0:
257,194,47554,1,0,0:0:0:0:
257,194,47671,1,0,0:0:0:0:
362,43,47906,5,0,0:0:0:0:
420,130,48140,1,0,0:0:0:0:
257,86,48374,1,0,0:0:0:0:
257,194,48609,1,0,0:0:0:0:
150,43,48843,1,0,0:0:0:0:
92,130,49077,1,0,0:0:0:0:
257,194,49312,1,0,0:0:0:0:
158,281,49546,1,0,0:0:0:0:
257,86,49781,5,0,0:0:0:0:
257,86,49898,1,0,0:0:0:0:
257,86,50015,1,0,0:0:0:0:
257,194,50249,2,0,L|257:289,1,88
170,194,50718,1,0,0:0:0:0:
332,136,50952,2,0,L|368:124,3,29.3333333333333
257,86,51421,1,0,0:0:0:0:
394,65,51656,5,0,0:0:0:0:
416,85,51773,1,0,0:0:0:0:
428,113,51890,1,0,0:0:0:0:
427,144,52007,1,0,0:0:0:0:
414,172,52124,1,0,0:0:0:0:
349,272,52359,1,0,0:0:0:0:
349,272,52476,1,0,0:0:0:0:
349,272,52593,1,0,0:0:0:0:
258,194,52827,1,0,0:0:0:0:
357,129,53062,1,0,0:0:0:0:
280,40,53296,1,0,0:0:0:0:
280,40,53413,1,0,0:0:0:0:
280,40,53531,6,0,L|234:58,1,44
155,84,53765,2,0,L|109:66,2,44,0|0|0,0:0|0:0|0:0,0:0:0:0:
280,40,54234,1,0,0:0:0:0:
258,194,54468,1,0,0:0:0:0:
117,266,54702,1,0,0:0:0:0:
249,354,54937,1,0,0:0:0:0:
249,354,55054,1,0,0:0:0:0:
249,354,55171,1,0,0:0:0:0:
258,194,55406,6,0,P|304:210|345:215,1,88
382,195,55757,1,0,0:0:0:0:
382,195,55874,1,0,0:0:0:0:
369,309,56109,1,0,0:0:0:0:
457,110,56343,1,0,0:0:0:0:
489,219,56577,1,0,0:0:0:0:
358,23,56812,1,0,0:0:0:0:
326,132,57046,1,0,0:0:0:0:
489,219,57281,5,0,0:0:0:0:
489,219,57398,1,0,0:0:0:0:
489,219,57515,1,0,0:0:0:0:
489,219,57632,1,0,0:0:0:0:
489,219,57749,2,0,P|445:210|399:208,1,88
296,253,58218,2,0,P|252:250|209:241,1,88
103,196,58687,1,0,0:0:0:0:
103,196,58765,1,0,0:0:0:0:
103,196,58843,1,0,0:0:0:0:
103,196,58921,1,0,0:0:0:0:
103,196,58999,1,0,0:0:0:0:
103,196,59077,1,0,0:0:0:0:
103,196,59156,5,0,0:0:0:0:
103,196,59859,1,0,0:0:0:0:
143,118,60093,1,0,0:0:0:0:
168,257,60327,1,0,0:0:0:0:
227,130,60562,1,0,0:0:0:0:
245,214,60796,1,0,0:0:0:0:
103,196,61031,5,4,1:0:0:0:
227,130,61265,1,0,0:0:0:0:
227,130,61382,1,0,0:0:0:0:
227,130,61499,1,0,0:0:0:0:
168,257,61734,1,0,0:0:0:0:
144,118,61968,1,0,0:0:0:0:
242,297,62202,1,0,0:0:0:0:
242,297,62320,1,0,0:0:0:0:
242,297,62437,1,0,0:0:0:0:
242,297,62671,1,0,0:0:0:0:
335,190,62906,6,0,L|429:180,1,88
445,154,63257,1,0,0:0:0:0:
445,154,63374,1,0,0:0:0:0:
390,274,63609,1,0,0:0:0:0:
276,109,63843,1,0,0:0:0:0:
364,11,64077,2,0,L|355:62,1,44
276,109,64312,2,0,L|222:132,2,44
151,64,64781,6,0,L|131:149,1,88
237,227,65249,2,0,L|217:312,1,88
391,274,65718,1,0,0:0:0:0:
317,372,65952,1,0,0:0:0:0:
312,134,66187,2,0,L|312:74,2,44
391,274,66656,5,0,0:0:0:0:
441,131,66890,1,0,0:0:0:0:
419,152,67007,1,0,0:0:0:0:
397,174,67124,1,0,0:0:0:0:
220,130,67359,1,0,0:0:0:0:
317,298,67593,1,0,0:0:0:0:
199,356,67827,1,0,0:0:0:0:
86,286,68062,1,0,0:0:0:0:
95,154,68296,1,0,0:0:0:0:
119,284,68531,5,0,0:0:0:0:
195,326,68765,1,0,0:0:0:0:
269,279,68999,1,0,0:0:0:0:
260,191,69234,1,0,0:0:0:0:
95,154,69468,1,0,0:0:0:0:
195,240,69702,1,0,0:0:0:0:
257,32,69937,1,0,0:0:0:0:
188,144,70171,1,0,0:0:0:0:
324,144,70406,5,0,0:0:0:0:
324,144,70640,2,0,L|357:178,1,44
439,199,70874,2,0,L|408:230,1,44
323,257,71109,2,0,L|353:288,1,44
420,345,71343,1,0,0:0:0:0:
439,199,71577,2,0,L|443:155,2,44
320,100,72046,2,0,L|324:144,2,44
222,189,72515,5,0,0:0:0:0:
222,189,72632,1,0,0:0:0:0:
222,189,72749,2,0,P|181:205|135:204,1,88
60,96,73218,2,0,P|101:80|147:81,1,88
269,36,73687,2,0,L|311:20,2,44
222,189,74156,5,0,0:0:0:0:
143,83,74390,1,0,0:0:0:0:
331,164,74624,2,0,L|321:253,1,88
431,134,75093,2,0,L|421:223,1,88
353,335,75562,2,0,L|319:363,1,44
257,312,75796,2,0,L|204:312,1,44
81,288,76031,6,0,L|208:226,1,132
255,173,76499,2,0,L|255:121,2,44
316,55,76968,1,0,0:0:0:0:
256,173,77202,1,0,0:0:0:0:
174,17,77437,1,0,0:0:0:0:
174,17,77554,1,0,0:0:0:0:
174,17,77671,1,0,0:0:0:0:
316,55,77906,6,0,P|356:66|404:66,1,88
480,54,78257,1,0,0:0:0:0:
480,54,78374,2,0,L|469:143,1,88
449,316,78843,1,0,0:0:0:0:
365,225,79077,1,0,0:0:0:0:
242,240,79312,1,0,0:0:0:0:
205,357,79546,1,0,0:0:0:0:
205,357,79663,1,0,0:0:0:0:
205,357,79781,5,0,0:0:0:0:
314,300,80015,1,0,0:0:0:0:
314,300,80132,1,0,0:0:0:0:
314,300,80249,1,0,0:0:0:0:
254,121,80484,1,0,0:0:0:0:
242,240,80718,1,0,0:0:0:0:
146,169,80952,1,0,0:0:0:0:
303,185,81187,1,0,0:0:0:0:
159,251,81421,1,0,0:0:0:0:
177,93,81656,5,0,0:0:0:0:
254,121,81890,1,0,0:0:0:0:
323,82,82124,1,0,0:0:0:0:
320,2,82359,1,0,0:0:0:0:
320,2,82476,1,0,0:0:0:0:
320,2,82593,1,0,0:0:0:0:
254,121,82827,1,0,0:0:0:0:
332,227,83062,1,0,0:0:0:0:
463,227,83296,1,0,0:0:0:0:
332,228,83531,6,0,P|270:236|198:254,1,132
136,209,83999,2,0,P|92:197|52:182,1,88
120,325,84468,1,0,0:0:0:0:
136,209,84702,1,0,0:0:0:0:
49,75,84937,1,0,0:0:0:0:
166,112,85171,1,0,0:0:0:0:
255,26,85406,6,0,P|261:68|290:110,1,88
326,122,85757,1,0,0:0:0:0:
363,145,85874,1,0,0:0:0:0:
379,185,85991,1,0,0:0:0:0:
373,228,86109,1,0,0:0:0:0:
352,267,86226,1,0,0:0:0:0:
312,286,86343,2,0,L|277:320,2,44
293,199,86812,2,0,P|257:208|206:209,1,88
49,136,87281,5,0,0:0:0:0:
103,255,87515,1,0,0:0:0:0:
98,276,87632,1,0,0:0:0:0:
93,297,87749,2,0,L|71:211,1,88
123,73,88218,2,0,L|145:159,1,88
229,277,88687,2,0,L|209:370,1,88
104,254,89156,5,0,0:0:0:0:
230,151,89390,1,0,0:0:0:0:
230,151,89507,1,0,0:0:0:0:
230,151,89624,2,0,L|230:108,1,44
315,70,89859,2,0,L|315:114,2,44
433,146,90327,1,0,0:0:0:0:
366,270,90562,1,0,0:0:0:0:
230,151,90796,1,0,0:0:0:0:
413,42,91031,5,0,0:0:0:0:
420,192,181031,6,0,B|354:212|320:162|320:162|300:174,1,132
283,188,181499,2,0,P|229:210|158:189,1,132
139,174,181968,1,0,0:0:0:0:
258,325,182437,1,0,0:0:0:0:
153,99,182906,6,0,P|95:111|61:179,1,132
65,196,183374,2,0,B|88:256|45:296|45:296|65:326,1,132
72,336,183843,1,0,0:0:0:0:
283,187,184312,2,0,P|311:126|298:56,1,132
315,40,184781,6,0,P|328:89|396:140,1,132
392,164,185249,2,0,B|406:222|362:268|362:268|383:286,1,132
396,296,185718,1,0,0:0:0:0:
227,112,186187,1,0,0:0:0:0:
227,112,186656,6,0,P|148:141|73:91,2,176
227,112,187827,1,0,0:0:0:0:
227,112,188062,2,0,P|212:177|208:245,1,132
228,259,188531,6,0,B|252:292|252:292|274:248|319:231,1,132
343,228,188999,2,0,L|441:222,1,88
479,309,189468,2,0,L|346:315,1,132
327,332,189937,2,0,P|275:369|205:363,1,132
186,351,190406,5,0,0:0:0:0:
108,279,190640,1,0,0:0:0:0:
187,209,190874,1,0,0:0:0:0:
108,137,191109,2,0,L|108:87,1,44
161,35,191343,2,0,L|199:124,1,88
265,266,191812,2,0,L|303:177,1,88
354,64,192281,5,0,0:0:0:0:
486,111,192749,1,0,0:0:0:0:
487,251,193218,1,0,0:0:0:0:
357,307,193687,1,0,0:0:0:0:
357,307,194156,5,0,0:0:0:0:
357,307,194624,1,0,0:0:0:0:
357,307,195093,1,0,0:0:0:0:
295,210,195327,1,0,0:0:0:0:
180,212,195562,1,0,0:0:0:0:
136,317,195796,2,0,L|119:358,1,44
93,242,196031,6,0,P|103:171|91:113,1,132
179,124,196499,2,0,P|220:138|266:135,1,88
395,31,196968,2,0,P|357:53|330:90,1,88
370,265,197437,2,0,L|354:321,2,44
511,100,197906,6,0,P|476:113|422:113,1,88
368,161,198257,1,0,0:0:0:0:
368,161,198374,2,0,L|299:216,1,88
165,146,198843,2,0,P|105:133|35:156,1,132
77,218,199312,2,0,L|56:310,1,88
185,59,199781,6,0,L|164:151,1,88
196,212,200132,1,0,0:0:0:0:
196,212,200249,1,0,0:0:0:0:
185,59,200484,1,0,0:0:0:0:
196,212,200718,1,0,0:0:0:0:
198,233,200835,1,0,0:0:0:0:
200,254,200952,1,0,0:0:0:0:
277,134,201187,1,0,0:0:0:0:
279,155,201304,1,0,0:0:0:0:
281,176,201421,1,0,0:0:0:0:
259,298,201656,6,0,P|224:324|174:323,1,88
343,346,202124,2,0,P|345:274|357:210,1,132
412,161,202593,2,0,P|416:115|412:72,1,88
277,44,203062,2,0,P|273:90|277:133,1,88
428,242,203531,5,0,0:0:0:0:
428,242,203765,2,0,L|472:253,2,44
344,346,204234,1,0,0:0:0:0:
255,247,204468,1,0,0:0:0:0:
168,346,204702,1,0,0:0:0:0:
341,257,204937,1,0,0:0:0:0:
341,257,205054,1,0,0:0:0:0:
341,257,205171,1,0,0:0:0:0:
257,359,205406,5,0,0:0:0:0:
172,257,205640,1,0,0:0:0:0:
172,257,205757,1,0,0:0:0:0:
172,257,205874,1,0,0:0:0:0:
345,348,206109,1,0,0:0:0:0:
256,248,206343,2,0,B|261:214|261:214|252:187|252:187|257:160,1,88
172,257,206812,2,0,P|134:271|86:275,1,88
79,200,207163,1,0,0:0:0:0:
79,200,207281,6,0,P|42:183|5:151,1,88
46,90,207632,1,0,0:0:0:0:
46,90,207749,2,0,P|32:52|28:4,1,88
158,25,208218,2,0,P|172:63|176:111,1,88
280,191,208687,2,0,L|324:177,2,44
379,348,209156,6,0,P|403:289|386:222,1,132
322,179,209624,2,0,P|307:138|305:93,1,88
332,24,209976,1,0,0:0:0:0:
332,24,210093,1,0,0:0:0:0:
222,125,210327,1,0,0:0:0:0:
285,326,210562,1,0,0:0:0:0:
322,180,210796,1,0,0:0:0:0:
167,62,211031,6,0,L|141:100,1,44
222,125,211265,2,0,L|222:175,2,44
222,125,211734,1,0,0:0:0:0:
222,125,211968,1,0,0:0:0:0:
421,81,212202,1,0,0:0:0:0:
323,180,212437,2,0,L|306:226,2,44
243,39,212906,5,0,0:0:0:0:
123,167,213140,1,0,0:0:0:0:
206,321,213374,1,0,0:0:0:0:
382,330,213609,1,0,0:0:0:0:
212,283,213843,5,0,0:0:0:0:
217,168,214077,1,0,0:0:0:0:
329,145,214312,1,0,0:0:0:0:
400,234,214546,1,0,0:0:0:0:
400,234,214663,1,0,0:0:0:0:
400,234,214781,5,0,0:0:0:0:
444,91,215015,1,0,0:0:0:0:
295,233,215249,1,0,0:0:0:0:
263,86,215484,1,0,0:0:0:0:
295,233,215718,2,0,L|289:320,1,88
230,368,216070,1,0,0:0:0:0:
230,368,216187,2,0,L|185:383,2,44
295,233,216656,5,0,0:0:0:0:
200,141,216890,1,0,0:0:0:0:
167,268,217124,1,0,0:0:0:0:
295,233,217359,1,0,0:0:0:0:
115,181,217593,5,0,0:0:0:0:
208,274,217827,1,0,0:0:0:0:
243,146,218062,1,0,0:0:0:0:
115,181,218296,1,0,0:0:0:0:
295,233,218531,6,0,L|346:220,1,44
333,143,218765,2,0,L|356:102,1,44
393,35,218999,1,0,0:0:0:0:
393,35,219234,1,0,0:0:0:0:
243,147,219468,5,0,0:0:0:0:
295,233,219702,1,0,0:0:0:0:
436,106,219937,2,0,L|485:93,2,44
283,16,220406,5,0,0:0:0:0:
243,147,220640,1,0,0:0:0:0:
243,147,220757,1,0,0:0:0:0:
243,147,220874,1,0,0:0:0:0:
106,181,221109,1,0,0:0:0:0:
231,118,221343,1,0,0:0:0:0:
203,255,221577,1,0,0:0:0:0:
200,113,221812,1,0,0:0:0:0:
310,200,222046,1,0,0:0:0:0:
203,255,222281,5,0,0:0:0:0:
203,255,222398,1,0,0:0:0:0:
203,255,222515,2,0,L|203:304,2,44
200,113,222984,1,0,0:0:0:0:
310,200,223218,1,0,0:0:0:0:
384,153,223452,1,0,0:0:0:0:
381,64,223687,1,0,0:0:0:0:
300,27,223921,1,0,0:0:0:0:
384,153,224156,6,0,P|379:244|288:285,1,198.000007553101
190,215,225093,1,0,0:0:0:0:
214,335,225327,1,0,0:0:0:0:
261,220,225562,1,0,0:0:0:0:
155,283,225796,1,0,0:0:0:0:
256,100,226031,5,0,0:0:0:0:
258,194,332906,5,0,0:0:0:0:
317,264,333140,1,0,0:0:0:0:
409,260,333374,1,0,0:0:0:0:
470,191,333609,1,0,0:0:0:0:
441,278,333843,1,0,0:0:0:0:
358,235,334077,1,0,0:0:0:0:
354,142,334312,1,0,0:0:0:0:
423,80,334546,1,0,0:0:0:0:
423,80,334663,1,0,0:0:0:0:
423,80,334781,5,0,0:0:0:0:
361,10,335015,1,0,0:0:0:0:
270,26,335249,1,0,0:0:0:0:
249,116,335484,2,0,L|239:200,1,66.0000025177003
159,138,335952,1,0,0:0:0:0:
159,138,336070,1,0,0:0:0:0:
159,138,336187,2,0,L|149:222,1,66.0000025177003
257,192,377906,5,0,0:0:0:0:
