osu file format v9

[General]
AudioFilename: D.N. Angel op~True Light(2).mp3
AudioLeadIn: 0
PreviewTime: -1
Countdown: 1
SampleSet: Normal
StackLeniency: 0.7
Mode: 0
LetterboxInBreaks: 1

[Editor]
DistanceSpacing: 0.8
BeatDivisor: 2
GridSize: 32

[Metadata]
Title:D.N.Angel True light
Artist:D.N.Angel
Creator:Szafirek
Version:Normal
Source:D.N.Angel
Tags:D.N.Angel True light

[Difficulty]
HPDrainRate:7
CircleSize:4
OverallDifficulty:5
ApproachRate:5
SliderMultiplier:1.4
SliderTickRate:1

[Events]
//Background and Video events
Video,0,"D.N. Angel op~True Light(2).avi"
0,0,"DN Angel normal.jpg"
//Break Periods
//Storyboard Layer 0 (Background)
//Storyboard Layer 1 (Fail)
//Storyboard Layer 2 (Pass)
//Storyboard Layer 3 (Foreground)
//Storyboard Sound Samples
//Background Colour Transformations
3,100,163,162,255

[TimingPoints]
14042.5351801528,405.405405405405,4,1,0,41,1,0

[Colours]
Combo1 : 0,0,128
Combo2 : 158,244,254
Combo3 : 64,0,64
Combo4 : 0,0,0
Combo5 : 206,0,0

[HitObjects]
64,64,14042,2,0,B|352:64,1,280
352,160,15664,2,0,B|64:160,1,280
128,256,17287,2,0,B|416:256,1,280
416,192,18909,2,0,B|128:192,1,280
128,224,20531,1,0
192,160,20937,1,0
192,160,21140,1,0
256,256,21342,1,0
160,320,21748,1,0
352,160,22153,1,0
416,256,22559,1,0
416,256,22762,1,0
224,128,22965,1,0
128,128,23370,1,0
416,256,23776,2,0,B|64:288|96:192,1,280
256,64,25398,1,0
96,128,27020,1,0
384,96,28643,2,0,B|384:288|192:64|160:256,1,280
192,160,30062,1,0
192,160,30265,1,0
320,128,30670,5,0
320,128,30873,1,0
384,256,31887,1,0
384,64,32698,6,0,B|224:32|160:288,1,280
224,160,33915,1,0
224,160,34118,1,0
64,192,35132,2,0,B|288:352|384:128,1,280
224,128,36754,1,0
384,192,37160,1,0
384,192,37362,1,0
288,256,38376,1,0
224,256,39999,5,0
352,256,40404,1,0
352,256,40607,1,0
288,128,41621,1,0
288,128,42026,1,0
288,128,42229,1,0
256,64,43243,1,0
256,64,43649,1,0
160,224,44865,6,0,B|256:288|256:160,3,140
288,96,46488,1,0
352,288,46893,1,0
352,288,47096,1,0
128,288,48110,5,0
192,320,48515,1,0
224,256,48921,1,0
320,128,49732,2,0,B|320:288,8,140
256,288,53788,1,0
256,192,54599,1,0
416,224,55005,1,0
416,224,55207,1,0
192,192,56221,1,0
320,224,56627,1,0
320,224,56830,1,0
256,224,57235,1,0
288,160,57844,1,0
160,160,59466,1,0
160,160,59871,1,0
160,160,60074,1,0
224,32,60683,1,0
320,64,61088,2,0,B|448:192|192:256|224:288,1,280
192,288,62305,1,0
160,160,62710,1,0
384,256,63116,1,0
384,256,63319,1,0
192,320,63927,1,0
192,320,64333,1,0
32,192,65955,6,0,B|160:288|288:320|352:64|384:96,1,420
384,192,67577,1,0
384,288,67983,1,0
384,288,68186,1,0
160,32,68794,1,0
256,32,69200,2,0,B|416:64|416:224|256:288|96:224|64:96|96:32,1,560
192,96,72039,1,0
192,96,72241,1,0
160,224,72444,1,0
256,224,72850,1,0
256,224,73052,1,0
320,160,73661,1,0
320,160,73864,1,0
288,256,74066,1,0
352,288,74472,1,0
352,288,74675,1,0
160,96,75283,1,0
160,96,75486,1,0
96,192,75689,1,0
352,192,76297,1,0
256,256,76905,1,0
256,256,77108,1,0
288,160,78933,5,0
320,320,80555,2,0,B|64:320|160:160,1,280
96,192,82178,6,0,B|384:192,2,280
320,96,84611,1,0
192,128,85422,5,0
352,256,87045,1,0
288,256,87450,2,0,B|64:256|32:256|160:128,1,280
192,96,88667,1,0
