osu file format v9

[General]
AudioFilename: D.N. Angel op~True Light(2).mp3
AudioLeadIn: 0
PreviewTime: -1
Countdown: 1
SampleSet: Normal
StackLeniency: 0.7
Mode: 0
LetterboxInBreaks: 1

[Editor]
Bookmarks: 39694
DistanceSpacing: 0.8
BeatDivisor: 4
GridSize: 32

[Metadata]
Title:D.N.Angel True light
Artist:D.N.Angel
Creator:Szafirek
Version:Hard
Source:D.N.Angel
Tags:D.N.Angel True light

[Difficulty]
HPDrainRate:8
CircleSize:4
OverallDifficulty:6
ApproachRate:6
SliderMultiplier:1.4
SliderTickRate:1

[Events]
//Background and Video events
Video,0,"D.N. Angel op~True Light(2).avi"
0,0,"dnangel hard.jpg"
//Break Periods
2,48310,48682
//Storyboard Layer 0 (Background)
//Storyboard Layer 1 (Fail)
//Storyboard Layer 2 (Pass)
//Storyboard Layer 3 (Foreground)
//Storyboard Sound Samples
//Background Colour Transformations
3,100,163,162,255

[TimingPoints]
14042.5351801528,405.405405405405,4,1,0,71,1,0

[Colours]
Combo1 : 0,0,128
Combo2 : 128,0,128
Combo3 : 64,0,64
Combo4 : 0,0,0
Combo5 : 206,0,0

[HitObjects]
256,192,14042,5,0
256,192,14245,1,0
256,192,14448,1,0
256,192,14853,1,0
352,192,15259,1,0
416,128,15664,1,0
352,288,15867,2,0,B|224:320|160:224,1,210
288,192,16881,1,0
192,96,17287,1,0
192,96,17489,1,0
192,96,17692,1,0
320,128,18098,1,0
256,192,18503,1,0
192,256,18909,1,0
352,224,19112,1,0
352,224,19314,1,0
416,128,19720,1,0
448,256,20126,1,0
128,128,20531,1,0
128,128,20734,5,0
128,128,20937,1,0
256,128,21342,1,0
256,128,21748,1,0
192,64,22153,1,0
192,64,22356,1,0
192,64,22559,1,0
352,64,22965,1,0
352,64,23370,1,0
320,256,23776,1,0
160,256,24587,1,0
256,128,25398,1,0
96,64,27020,6,0,B|96:288|256:160|256:160,1,280
384,128,28643,2,0,B|384:288|384:352|256:224,1,280
256,160,30062,1,0
352,160,30265,1,0
288,256,30670,1,0
160,256,30873,1,0
192,160,31279,1,0
256,96,31684,1,0
320,192,33509,1,0
352,224,33915,1,0
288,256,34118,1,0
224,224,34523,1,0
224,224,34929,1,0
256,96,35537,1,0
320,96,35740,1,0
384,160,36146,1,0
352,256,36754,1,0
192,256,37160,1,0
192,160,37362,1,0
256,224,37768,1,0
288,128,38173,1,0
128,96,39999,6,0,B|288:96|288:128,1,140
320,128,40607,1,0
416,160,41012,1,0
384,224,41621,2,0,B|352:320|128:192,1,280
320,192,43142,1,0
352,96,43547,1,0
448,128,43750,1,0
128,32,44865,1,0
256,128,45271,1,0
160,192,45676,1,0
256,288,46082,1,0
128,288,46488,2,0,B|32:288|128:32,1,280
288,64,48110,1,0
192,288,49732,6,0,B|64:192|384:256,4,280
256,128,53585,5,0
224,192,54193,1,0
160,160,54599,1,0
128,256,55005,1,0
352,224,55207,1,0
288,320,55816,1,0
192,160,56019,1,0
320,128,56221,1,0
288,192,56627,1,0
160,224,56830,1,0
352,256,57235,1,0
256,256,57641,1,0
256,64,59060,1,0
256,64,59263,1,0
256,64,59466,1,0
256,64,59871,1,0
352,128,60683,2,0,B|416:288,1,140
384,224,61494,1,0
384,224,61696,1,0
288,224,62305,1,0
288,224,62508,1,0
288,224,62710,1,0
128,224,63116,1,0
128,224,63319,1,0
64,128,63927,6,0,B|224:128,1,140
96,192,65955,2,0,B|96:64|320:64,1,280
448,160,67577,1,0
352,224,67983,1,0
352,224,68186,1,0
288,352,68794,1,0
192,352,68997,1,0
96,352,69200,1,0
96,256,69605,1,0
96,256,69808,5,0
160,160,70213,1,0
256,96,70822,2,0,B|480:32|448:224,1,280
448,288,72039,1,0
352,288,72241,1,0
256,288,72444,1,0
128,160,72850,1,0
192,192,73052,5,0
160,96,73661,2,0,B|320:96,1,140
384,128,74472,1,0
384,128,74675,1,0
288,192,75283,2,0,B|256:288|192:192,1,140
160,128,76398,1,0
96,256,76905,1,0
96,256,77108,1,0
256,192,78325,12,0,82178
96,32,83800,6,0,B|224:96|0:160|192:160|0:256|224:192|128:288,1,280
224,128,85422,1,0
288,224,85828,1,0
320,160,86233,1,0
128,224,86639,1,0
160,96,87045,2,0,B|384:96,1,210
370,96,87856,1,0
256,192,88261,2,0,B|256:352,1,140
